Кот в сапогах (1995) WEBRip

 
 Статистика раздачи 
Размер: 93.05 МБ   |  Зарегистрирован: 17 мар 2016, 23:57   |   .torrent скачан: 0 раз
Сидеров: 1  [ 0 байт/сек ]     Личеров: 0  [ 0 байт/сек ]  
  

Кот в сапогах (1995) WEBRip

Сообщение BitFire » 17 мар 2016, 23:57

Кот в сапогах (1995) WEBRip

Производство: Россия, СТАЙЕР - ООО
Жанр: Для взрослых, Комедия, Короткометражка
Режиссер: Гарри Бардин
Художник-постановщик: Аркадий Мелик-Саркисян.
Художник: Владимир Маслов.
Аниматоры: Лидия Маятникова, Ирина Собинова-Кассиль
Роли озвучивали: Константин Райкин, А. Стычкин, Рогволд Суховерко, К. Смирнов

Описание:
Уникальный пластилиновый мультипликационный фильм, созданный на заре демократии в России. Картина ярко отражает особенности жизни и ментальность русского человека. Искромётный юмор главных героев создаст зрителю отличное настроение и оставит незабываемые впечатления. Кот в мешке прибывает в Россию как часть гуманитарной помощи из Америки (сразу после Перестройки) и достаётся молодому пьянице и горе-патриоту Карабасову, которому предлагает эмигрировать в Америку. Полёт на волшебном коте, который использует хвост в качестве пропеллера, обрывается над Европой. Там зазнавшийся юноша Карабасов забывает о неоценимых услугах, которые оказал ему Кот в сапогах, и тот возвращает неблагодарного обратно в Россию.

Продолжительность: 00:27:09
Качество видео: WEBRip

Видео: MPEG-4, 480x360, ~380 Kbps
Аудио: AAC, 2 ch, 96.0 Kbps, VBR
Код:
Код: Выделить всё
Общее
Полное имя                               : C:\Раздача\Фильмы\Кот в сапогах (1995).mp4
Формат                                   : MPEG-4
Профиль формата                          : Base Media / Version 2
Идентификатор кодека                     : mp42 (isom/mp42)
Размер файла                             : 93,0 Мбайт
Продолжительность                        : 27 м.
Режим общего битрейта                    : Переменный
Общий поток                              : 479 Кбит/сек
Дата кодирования                         : UTC 2014-09-12 12:29:56
Дата пометки                             : UTC 2014-09-12 12:29:56
gsst                                     : 0
gstd                                     : 1629970

Видео
Идентификатор                            : 1
Формат                                   : AVC
Формат/Информация                        : Advanced Video Codec
Профиль формата                          :
Параметр CABAC формата                   : Нет
Параметр ReFrames формата                : 1 кадр
Параметр GOP формата                     : M=1, N=60
Идентификатор кодека                     : avc1
Идентификатор кодека/Информация          : Advanced Video Coding
Продолжительность                        : 27 м.
Битрейт                                  : 380 Кбит/сек
Максимальный битрейт                     : 1498 Кбит/сек
Ширина                                   : 480 пикселей
Высота                                   : 360 пикселей
Соотношение сторон                       : 4:3
Режим частоты кадров                     : Постоянный
Частота кадров                           : 25,000 кадров/сек
Цветовое пространство                    : YUV
Субдискретизация насыщенности            : 4:2:0
Битовая глубина                          : 8 бит
Тип развёртки                            : Прогрессивная
Бит/(Пиксели*Кадры)                      : 0.088
Размер потока                            : 73,9 Мбайт (79%)
Дата пометки                             : UTC 2014-09-12 12:30:04

Аудио
Идентификатор                            : 2
Формат                                   : AAC
Формат/Информация                        : Advanced Audio Codec
Профиль формата                          : LC
Идентификатор кодека                     : 40
Продолжительность                        : 27 м.
Вид битрейта                             : Переменный
Битрейт                                  : 96,0 Кбит/сек
Максимальный битрейт                     : 103 Кбит/сек
Каналы                                   : 2 канала
Расположение каналов                     : Front: L R
Частота                                  : 44,1 КГц
Частота кадров                           : 43,066 кадра/сек (1024 spf)
Метод сжатия                             : С потерями
Размер потока                            : 18,7 Мбайт (20%)
Заголовок                                : IsoMedia File Produced by Google, 5-11-2011
Дата кодирования                         : UTC 2014-09-12 12:30:00
Дата пометки                             : UTC 2014-09-12 12:30:04

Скриншоты:


Время раздачи: с 06:00 до 22:00 (до появления первых 3-5 скачавших)
 
Не забывайте говорить Спасибо. Не уходите с раздачи!   
Торрент: Зарегистрирован [17 мар 2016, 23:57] Для скачивания .torrent
необходима регистрация
Или скачать с помощью
MediaGet
Статус:
Проверен
 
.torrent скачан: 0 раз
Хэш: 87448b2c0da6e45cc27037bfa2612a7ea6c0cc06
Размер: 93.05 МБ (97 569 502 байт)
Стать Автором раздачи
 
 
Раздал: 398.6 ГБ
Скачал: 172 МБ
Ратио: 2373.085
Сообщения: 228130
Зарегистрирован: 17 апр 2014, 15:26


  • Похожие торренты
    Ответы
    Просмотры
    Последнее сообщение

Вернуться в Видео для мобильных устройств

Ресурс не предоставляет электронные версии произведений, а занимается лишь коллекционированием и каталогизацией ссылок, присылаемых и публикуемых на форуме нашими читателями. Если вы являетесь правообладателем какого-либо представленного материала и не желаете чтобы ссылка на него находилась в нашем каталоге, свяжитесь с нами и мы незамедлительно удалим её. Файлы для обмена на трекере предоставлены пользователями сайта, и администрация не несёт ответственности за их содержание. Просьба не заливать файлы, защищенные авторскими правами, а также файлы нелегального содержания!
cron