НЕпростые вещи (Часть 2 - 11 серий) [2011-2013, Документальный, HDTV 1080i]

 
 Статистика раздачи 
Размер: 14.96 ГБ   |  Зарегистрирован: 17 мар 2016, 19:41   |   .torrent скачан: 0 раз
Сидеров: 2  [ 0 байт/сек ]     Личеров: 1  [ 0 байт/сек ]  
  

НЕпростые вещи (Часть 2 - 11 серий) [2011-2013, Документальный, HDTV 1080i]

Сообщение i926 » 17 мар 2016, 19:41

НЕпростые вещи

Год выпуска: 2011-2013
Страна: Россия
Жанр: Документальный
Продолжительность: 11 x ~25 минут
Перевод: Не требуется

Описание: Нас окружает множество простых вещей – например, скрепка, пробка, газета или пластиковый стаканчик. Но простые они только на первый взгляд. Производство каждой такой "простой вещи" - процесс, требующий знаний и опыта тысяч людей. О том, как создаются маленькие вещи, - в авторской линейке документальных фильмов Алексея Вершинина.

Доп. информация: IPTV Remux (запись потока без перекодирования)

Список серий и краткое содержание:
НЕпростые вещи. Английский чай (2012):
Чай для Индии - не просто популярный напиток, он – основной источник дохода. В стране есть даже отдельное Министерство чая. Алексей Вершинин отправляется в эту бывшую английскую колонию, чтобы понять, откуда берется английский чай.

НЕпростые вещи. Жвачка (2011):
Эксперты считают, что известная всем польза от нее не более, чем удачный рекламный ход. Но люди все равно продолжают ее жевать. И это далеко не единственный секрет, скрывающийся в упаковке с жевательной резинкой. Оказывается, жвачка вовсе не так проста, как кажется на первый взгляд. Она освежает дыхание и повышает настроение. Ее жуют люди разного возраста, пола, национальности. Однако мало кто догадывается, что на самом деле – они жуют… нефть! Сегодня Алексей Вершин расскажет нам правду: как черное золото превращается в сладкие подушечки.

НЕпростые вещи. Ковёр (2013):
Пожалуй, у каждого россиянина есть хотя бы одна фотография на фоне ковра, и это уже давно стало поводом для шуток. На самом деле, такое пренебрежительное отношение к этому предмету совершенно необоснованно. Хороший ковер может стоить больше, чем самые дорогие декорации, а ткать его иногда приходится несколько лет.

НЕпростые вещи. Лампочка (2012):
Роль лампочки в нашей жизни переоценить трудно. Достаточно вспомнить моменты, когда в доме внезапно отключается электричество – ощущение беспомощности, а порой и паники охватывает почти каждого. Кстати, до изобретения лампочки люди спали в среднем по 10 часов в сутки, после – не более 7,5. Алексей Вершинин полон решимости узнать все об этих источниках света, и ради этого он готов добраться аж до самых вольфрамовых нитей!

НЕпростые вещи. Монета (2012):
Впервые монеты появились в Древней Греции и изготавливали их из серебра или золота. Позже практичные китайцы заменили драгметаллы на медь. Сегодня себестоимость монеты в один рубль намного превышает ее номинал. Почему? В этом пытается разобраться автор фильма.

НЕпростые вещи. Обручальное кольцо (2013):
Традиция ношения обручальных колец появилась сравнительно недавно – несколько веков назад. Кольцо всегда надевается на безымянный палец. В одних странах на палец левой руки, в других – правой. Но всегда обручальное кольцо должно быть из золота, как символ чистоты и непорочности.

НЕпростые вещи. Прогноз погоды (2012):
"И теперь о погоде…" Как часто мы слышим эти слова в конце выпуска новостей, когда основные темы уже, кажется, обсуждены. А между тем, погода преподносит иногда такие сюрпризы, что становится главной темой новостей. Как создается прогноз погоды, и насколько сложна эта задача, рассказывает очередной выпуск программы "Непростые вещи".

НЕпростые вещи. Скрепка (2013):
Обычная канцелярская скрепка стоит копейки. В больших офисах их вообще не считают, выбрасывают после однократного использования. Но чтобы этот кусочек проволоки оказался на столе, нужен труд тысяч людей и десятков предприятий. В этом фильме вы увидите непростой путь канцелярской скрепки от железорудных карьеров Карелии до московского офиса.

НЕпростые вещи. Соль (2011):
Алексей Вершинин проследил путь соли от самого озера Баскунчак до фасовочного цеха и теперь со знанием дела может утверждать, что она не так проста, как кажется!

НЕпростые вещи. Фантик из фольги (2012):
В кондитерской промышленности для обертки конфет применяют три вида материала – бумагу, пластик и фольгу. Лучшим материалом считается фольга, так как она дольше сохраняет качество конфет. В чем секрет такого фантика выяснял Алексей Вершинин.

НЕпростые вещи. Чашка кофе (2012):
Как называются мастера по завариванию кофе? Как дегустируют кофе? Как правильно выбрать джезву? Какой путь проделывает утренняя чашка кофе, ставшая уже ежедневным ритуалом, к вашему столу? Историю и секреты добывания и приготовления кофе расскажет Алексей Вершинин.
История обновления раздачи:
17.03.2016 - добавлена серия "НЕпростые вещи. Соль"
Тип релиза: HDTV 1080i
Контейнер: TS

Видео: AVC H.264, 1920x1080i (16:9), 25 fps, 7015 kbps , 0.135 bits/pixel
Аудио: MPEG Audio, 2 channels, 192 kbps, 48KHz
Код: Выделить всё
General
ID                                       : 1 (0x1)
Complete name                            : НЕпростые вещи. Английский чай.ts
Format                                   : MPEG-TS
File size                                : 1.52 GiB
Duration                                 : 28mn 38s
Overall bit rate mode                    : Variable
Overall bit rate                         : 7 584 Kbps

Video
ID                                       : 1012 (0x3F4)
Menu ID                                  : 1 (0x1)
Format                                   : AVC
Format/Info                              : Advanced Video Codec
Format profile                           : High@L4.0
Format settings, CABAC                   : Yes
Format settings, ReFrames                : 4 frames
Codec ID                                 : 27
Duration                                 : 28mn 38s
Bit rate                                 : 7 015 Kbps
Width                                    : 1 920 pixels
Height                                   : 1 080 pixels
Display aspect ratio                     : 16:9
Frame rate                               : 25.000 fps
Color space                              : YUV
Chroma subsampling                       : 4:2:0
Bit depth                                : 8 bits
Scan type                                : MBAFF
Bits/(Pixel*Frame)                       : 0.135
Stream size                              : 1.40 GiB (93%)

Audio
ID                                       : 1102 (0x44E)
Menu ID                                  : 1 (0x1)
Format                                   : MPEG Audio
Format version                           : Version 1
Format profile                           : Layer 2
Mode                                     : Joint stereo
Mode extension                           : Intensity Stereo + MS Stereo
Codec ID                                 : 3
Duration                                 : 28mn 38s
Bit rate mode                            : Constant
Bit rate                                 : 192 Kbps
Channel(s)                               : 2 channels
Sampling rate                            : 48.0 KHz
Compression mode                         : Lossy
Stream size                              : 39.3 MiB (3%)
Language                                 : English
 
Не забывайте говорить Спасибо. Не уходите с раздачи!   
Торрент: Зарегистрирован [17 мар 2016, 19:41] Для скачивания .torrent
необходима регистрация
Или скачать с помощью
MediaGet
Статус:
Проверен
 
.torrent скачан: 0 раз
Хэш: 45f63354445bc37163471a64a1fc2fe125866550
Размер: 14.96 ГБ (16 064 488 140 байт)
Стать Автором раздачи
 
Аватара пользователя
Главный редактор
Главный редактор
 
Раздал: 15.43 ТБ
Скачал: 13.78 ТБ
Ратио: 1.120
Сообщения: 65099
Зарегистрирован: 01 мар 2011, 23:07


  • Похожие торренты
    Ответы
    Просмотры
    Последнее сообщение

Вернуться в Естествознание, наука и техника (HD Video)

Ресурс не предоставляет электронные версии произведений, а занимается лишь коллекционированием и каталогизацией ссылок, присылаемых и публикуемых на форуме нашими читателями. Если вы являетесь правообладателем какого-либо представленного материала и не желаете чтобы ссылка на него находилась в нашем каталоге, свяжитесь с нами и мы незамедлительно удалим её. Файлы для обмена на трекере предоставлены пользователями сайта, и администрация не несёт ответственности за их содержание. Просьба не заливать файлы, защищенные авторскими правами, а также файлы нелегального содержания!
cron