Расследования авиакатастроф / Mayday / Air Crash Investigation (сезон 15) (серии 10 из 10) [2016, документальный, DVB] 14.03.16 15-10. Роковая задержка (Deadly Delay)

 
 Статистика раздачи 
Размер: 10.14 ГБ   |  Зарегистрирован: 15 мар 2016, 08:33   |   .torrent скачан: 0 раз
Сидеров: 1  [ 0 байт/сек ]     Личеров: 0  [ 0 байт/сек ]  
  

Расследования авиакатастроф / Mayday / Air Crash Investigation (сезон 15) (серии 10 из 10) [2016, документальный, DVB] 14.03.16 15-10. Роковая задержка (Deadly Delay)

Сообщение Master Chief » 15 мар 2016, 08:33

Air Crash Investigation / Mayday / Расследования авиакатастроф / сезон 15 (серии 10 из 10)

Год выпуска: 2016
Страна: Канада
Жанр: документальный
Продолжительность: ~ 00:44:00
Перевод: Профессиональный (двухголосый закадровый)
Русские субтитры: нет

Описание: Сериал о наиболее громких и загадочных катастрофах в истории гражданской авиации.
Наиболее полную информацию о сериале можно получить здесь List of Mayday episodes, для фанатов рекомендую именно этот сайт.
Есть русская, более лаконичная версия Список эпизодов телесериала «Расследования авиакатастроф»
Снимался канадской студией Cineflix в партнерстве с Discovery Channel (Canada), Canal D (Canada), and National Geographic Channel (US & International).

Доп. информация: Видеоматериал предоставили и

Сэмпл: https://www.sendspace.com/file/xcmzzh

Качество: DVB
формат: MPG
Видео: [email protected] (1,78:1), 25 fps, mpeg2 ~3000 kbps avg, 0.216 bit/pixel
Аудио 1: Russian (48 KHz, MP2, 2 ch, ~192 Kbps) (двухголосый)
Аудио 2: English (48 KHz, MP2, 2 ch, ~192 Kbps) (двухголосый) (кроме 1-й серии)
15-01. Роковая ошибка (Fatal Focus)
15-02. Смертельная доставка (Fatal Delivery)
15-03. Ужас в Сан-Франциско (Terror in San Francisco)
15-04. Катастрофа (Steep Impact)
15-05. Снежный ком (High Rise Catastrophe)
15-06. Фатальная передача (Fatal Transmission)
15-07. Кровавая баня в Сан-Паулу (Carnage in Sao Paulo)
15-08. На грани катастрофы (Edge Of Disaster)
15-09. Смертельная миссия (Deadly Mission)
15-10. Роковая задержка (Deadly Delay)
Общее
Полное имя : D:\КИНО\Air Crash Investigation season 15\15-01. Роковая ошибка (Fatal Focus).mpg
Формат : MPEG-PS
Размер файла : 778 Мбайт
Продолжительность : 43 м.
Режим общего битрейта : Переменный
Общий поток : 2476 Кбит/сек

Видео
Идентификатор : 224 (0xE0)
Формат : MPEG Video
Версия формата : Version 2
Профиль формата : [email protected]
Параметр BVOP формата : Да
Параметр матрицы формата : Выборочная
Параметр GOP формата : Variable
Продолжительность : 43 м.
Вид битрейта : Переменный
Битрейт : 2235 Кбит/сек
Максимальный битрейт : 5000 Кбит/сек
Ширина : 720 пикселей
Высота : 576 пикселей
Соотношение сторон : 16:9
Частота кадров : 25,000 кадров/сек
Стандарт вещания : PAL
Цветовое пространство : YUV
Субдискретизация насыщенности : 4:2:0
Битовая глубина : 8 бит
Тип развёртки : Чересстрочная
Порядок развёртки : Верхнее поле первое
Метод сжатия : С потерями
Бит/(Пиксели*Кадры) : 0.216
Размер потока : 702 Мбайт (90%)

Аудио
Идентификатор : 192 (0xC0)
Формат : MPEG Audio
Версия формата : Version 1
Профиль формата : Layer 2
Продолжительность : 43 м.
Вид битрейта : Постоянный
Битрейт : 192 Кбит/сек
Каналы : 2 канала
Частота : 48,0 КГц
Метод сжатия : С потерями
Задержка видео : 10 мс.
Размер потока : 60,3 Мбайт (8%)

Меню

Общее
Полное имя : D:\КИНО\Air Crash Investigation season 15\15-02. Смертельная доставка (Fatal Delivery).mpg
Формат : MPEG-PS
Размер файла : 1,04 Гбайт
Продолжительность : 43 м.
Общий поток : 3396 Кбит/сек

Видео
Идентификатор : 224 (0xE0)
Формат : MPEG Video
Версия формата : Version 2
Профиль формата : [email protected]
Параметр BVOP формата : Да
Параметр матрицы формата : Выборочная
Параметр GOP формата : Variable
Продолжительность : 43 м.
Битрейт : 2945 Кбит/сек
Максимальный битрейт : 3000 Кбит/сек
Ширина : 720 пикселей
Высота : 576 пикселей
Соотношение сторон : 16:9
Частота кадров : 25,000 кадров/сек
Стандарт вещания : PAL
Цветовое пространство : YUV
Субдискретизация насыщенности : 4:2:0
Битовая глубина : 8 бит
Тип развёртки : Чересстрочная
Порядок развёртки : Верхнее поле первое
Метод сжатия : С потерями
Бит/(Пиксели*Кадры) : 0.284
Временной код первого кадра : 00:00:00:00
Оригинал временного кода : Group of pictures header
Размер потока : 925 Мбайт (87%)

Аудио #1
Идентификатор : 192 (0xC0)
Формат : MPEG Audio
Версия формата : Version 1
Профиль формата : Layer 2
Режим : Joint stereo
Расширение режима : Intensity Stereo + MS Stereo
Продолжительность : 43 м.
Вид битрейта : Постоянный
Битрейт : 192 Кбит/сек
Каналы : 2 канала
Частота : 48,0 КГц
Метод сжатия : С потерями
Задержка видео : 8 мс.
Размер потока : 60,3 Мбайт (6%)

Аудио #2
Идентификатор : 193 (0xC1)
Формат : MPEG Audio
Версия формата : Version 1
Профиль формата : Layer 2
Продолжительность : 43 м.
Вид битрейта : Постоянный
Битрейт : 192 Кбит/сек
Каналы : 2 канала
Частота : 48,0 КГц
Метод сжатия : С потерями
Задержка видео : 8 мс.
Размер потока : 60,3 Мбайт (6%)

Общее
Полное имя : D:\КИНО\Air Crash Investigation season 15\15-03. Ужас в Сан-Франциско (Terror In San Francisco).mpg
Формат : MPEG-PS
Размер файла : 1,04 Гбайт
Продолжительность : 43 м.
Общий поток : 3396 Кбит/сек

Видео
Идентификатор : 224 (0xE0)
Формат : MPEG Video
Версия формата : Version 2
Профиль формата : [email protected]
Параметр BVOP формата : Да
Параметр матрицы формата : Выборочная
Параметр GOP формата : Variable
Продолжительность : 43 м.
Битрейт : 2945 Кбит/сек
Максимальный битрейт : 3000 Кбит/сек
Ширина : 720 пикселей
Высота : 576 пикселей
Соотношение сторон : 16:9
Частота кадров : 25,000 кадров/сек
Стандарт вещания : PAL
Цветовое пространство : YUV
Субдискретизация насыщенности : 4:2:0
Битовая глубина : 8 бит
Тип развёртки : Чересстрочная
Порядок развёртки : Верхнее поле первое
Метод сжатия : С потерями
Бит/(Пиксели*Кадры) : 0.284
Временной код первого кадра : 00:00:00:00
Оригинал временного кода : Group of pictures header
Размер потока : 925 Мбайт (87%)

Аудио #1
Идентификатор : 192 (0xC0)
Формат : MPEG Audio
Версия формата : Version 1
Профиль формата : Layer 2
Продолжительность : 43 м.
Вид битрейта : Постоянный
Битрейт : 192 Кбит/сек
Каналы : 2 канала
Частота : 48,0 КГц
Метод сжатия : С потерями
Задержка видео : 10 мс.
Размер потока : 60,3 Мбайт (6%)

Аудио #2
Идентификатор : 193 (0xC1)
Формат : MPEG Audio
Версия формата : Version 1
Профиль формата : Layer 2
Продолжительность : 43 м.
Вид битрейта : Постоянный
Битрейт : 192 Кбит/сек
Каналы : 2 канала
Частота : 48,0 КГц
Метод сжатия : С потерями
Задержка видео : 10 мс.
Размер потока : 60,3 Мбайт (6%)

Общее
Полное имя : D:\КИНО\Air Crash Investigation season 15\15-04. Катастрофа (Steep Impact).mpg
Формат : MPEG-PS
Размер файла : 1,04 Гбайт
Продолжительность : 43 м.
Общий поток : 3396 Кбит/сек

Видео
Идентификатор : 224 (0xE0)
Формат : MPEG Video
Версия формата : Version 2
Профиль формата : [email protected]
Параметр BVOP формата : Да
Параметр матрицы формата : Выборочная
Параметр GOP формата : Variable
Продолжительность : 43 м.
Битрейт : 2944 Кбит/сек
Максимальный битрейт : 3000 Кбит/сек
Ширина : 720 пикселей
Высота : 576 пикселей
Соотношение сторон : 16:9
Частота кадров : 25,000 кадров/сек
Стандарт вещания : PAL
Цветовое пространство : YUV
Субдискретизация насыщенности : 4:2:0
Битовая глубина : 8 бит
Тип развёртки : Чересстрочная
Порядок развёртки : Верхнее поле первое
Метод сжатия : С потерями
Бит/(Пиксели*Кадры) : 0.284
Временной код первого кадра : 00:00:00:00
Оригинал временного кода : Group of pictures header
Размер потока : 926 Мбайт (87%)

Аудио #1
Идентификатор : 192 (0xC0)
Формат : MPEG Audio
Версия формата : Version 1
Профиль формата : Layer 2
Продолжительность : 43 м.
Вид битрейта : Постоянный
Битрейт : 192 Кбит/сек
Каналы : 2 канала
Частота : 48,0 КГц
Метод сжатия : С потерями
Задержка видео : -5 мс.
Размер потока : 60,4 Мбайт (6%)

Аудио #2
Идентификатор : 193 (0xC1)
Формат : MPEG Audio
Версия формата : Version 1
Профиль формата : Layer 2
Продолжительность : 43 м.
Вид битрейта : Постоянный
Битрейт : 192 Кбит/сек
Каналы : 2 канала
Частота : 48,0 КГц
Метод сжатия : С потерями
Задержка видео : -5 мс.
Размер потока : 60,4 Мбайт (6%)

Общее
Полное имя : D:\КИНО\Air Crash Investigation season 15\15-05. Снежный ком (High Rise Catastrophe).mpg
Формат : MPEG-PS
Размер файла : 1,04 Гбайт
Продолжительность : 43 м.
Общий поток : 3396 Кбит/сек

Видео
Идентификатор : 224 (0xE0)
Формат : MPEG Video
Версия формата : Version 2
Профиль формата : [email protected]
Параметр BVOP формата : Да
Параметр матрицы формата : Выборочная
Параметр GOP формата : Variable
Продолжительность : 43 м.
Битрейт : 2944 Кбит/сек
Максимальный битрейт : 3000 Кбит/сек
Ширина : 720 пикселей
Высота : 576 пикселей
Соотношение сторон : 16:9
Частота кадров : 25,000 кадров/сек
Стандарт вещания : PAL
Цветовое пространство : YUV
Субдискретизация насыщенности : 4:2:0
Битовая глубина : 8 бит
Тип развёртки : Чересстрочная
Порядок развёртки : Верхнее поле первое
Метод сжатия : С потерями
Бит/(Пиксели*Кадры) : 0.284
Временной код первого кадра : 00:00:00:00
Оригинал временного кода : Group of pictures header
Размер потока : 926 Мбайт (87%)

Аудио #1
Идентификатор : 192 (0xC0)
Формат : MPEG Audio
Версия формата : Version 1
Профиль формата : Layer 2
Режим : Joint stereo
Расширение режима : Intensity Stereo + MS Stereo
Продолжительность : 43 м.
Вид битрейта : Постоянный
Битрейт : 192 Кбит/сек
Каналы : 2 канала
Частота : 48,0 КГц
Метод сжатия : С потерями
Задержка видео : -15 мс.
Размер потока : 60,4 Мбайт (6%)

Аудио #2
Идентификатор : 193 (0xC1)
Формат : MPEG Audio
Версия формата : Version 1
Профиль формата : Layer 2
Продолжительность : 43 м.
Вид битрейта : Постоянный
Битрейт : 192 Кбит/сек
Каналы : 2 канала
Частота : 48,0 КГц
Метод сжатия : С потерями
Задержка видео : -15 мс.
Размер потока : 60,4 Мбайт (6%)

Общее
Полное имя : D:\КИНО\Air Crash Investigation season 15\15-06. Фатальная передача (Fatal Transmission).mpg
Формат : MPEG-PS
Размер файла : 1,04 Гбайт
Продолжительность : 43 м.
Общий поток : 3396 Кбит/сек

Видео
Идентификатор : 224 (0xE0)
Формат : MPEG Video
Версия формата : Version 2
Профиль формата : [email protected]
Параметр BVOP формата : Да
Параметр матрицы формата : Выборочная
Параметр GOP формата : Variable
Продолжительность : 43 м.
Битрейт : 2944 Кбит/сек
Максимальный битрейт : 3000 Кбит/сек
Ширина : 720 пикселей
Высота : 576 пикселей
Соотношение сторон : 16:9
Частота кадров : 25,000 кадров/сек
Стандарт вещания : PAL
Цветовое пространство : YUV
Субдискретизация насыщенности : 4:2:0
Битовая глубина : 8 бит
Тип развёртки : Чересстрочная
Порядок развёртки : Верхнее поле первое
Метод сжатия : С потерями
Бит/(Пиксели*Кадры) : 0.284
Временной код первого кадра : 00:00:00:00
Оригинал временного кода : Group of pictures header
Размер потока : 926 Мбайт (87%)

Аудио #1
Идентификатор : 192 (0xC0)
Формат : MPEG Audio
Версия формата : Version 1
Профиль формата : Layer 2
Продолжительность : 43 м.
Вид битрейта : Постоянный
Битрейт : 192 Кбит/сек
Каналы : 2 канала
Частота : 48,0 КГц
Метод сжатия : С потерями
Задержка видео : -19 мс.
Размер потока : 60,4 Мбайт (6%)

Аудио #2
Идентификатор : 193 (0xC1)
Формат : MPEG Audio
Версия формата : Version 1
Профиль формата : Layer 2
Продолжительность : 43 м.
Вид битрейта : Постоянный
Битрейт : 192 Кбит/сек
Каналы : 2 канала
Частота : 48,0 КГц
Метод сжатия : С потерями
Задержка видео : -19 мс.
Размер потока : 60,4 Мбайт (6%)

Общее
Полное имя : D:\КИНО\Air Crash Investigation season 15\15-07. Кровавая баня в Сан-Паулу (Carnage In Sao Paulo).mpg
Формат : MPEG-PS
Размер файла : 1,04 Гбайт
Продолжительность : 43 м.
Общий поток : 3396 Кбит/сек

Видео
Идентификатор : 224 (0xE0)
Формат : MPEG Video
Версия формата : Version 2
Профиль формата : [email protected]
Параметр BVOP формата : Да
Параметр матрицы формата : Выборочная
Параметр GOP формата : Variable
Продолжительность : 43 м.
Битрейт : 2945 Кбит/сек
Максимальный битрейт : 3000 Кбит/сек
Ширина : 720 пикселей
Высота : 576 пикселей
Соотношение сторон : 16:9
Частота кадров : 25,000 кадров/сек
Стандарт вещания : PAL
Цветовое пространство : YUV
Субдискретизация насыщенности : 4:2:0
Битовая глубина : 8 бит
Тип развёртки : Чересстрочная
Порядок развёртки : Верхнее поле первое
Метод сжатия : С потерями
Бит/(Пиксели*Кадры) : 0.284
Временной код первого кадра : 00:00:00:00
Оригинал временного кода : Group of pictures header
Размер потока : 926 Мбайт (87%)

Аудио #1
Идентификатор : 192 (0xC0)
Формат : MPEG Audio
Версия формата : Version 1
Профиль формата : Layer 2
Режим : Joint stereo
Расширение режима : Intensity Stereo + MS Stereo
Продолжительность : 43 м.
Вид битрейта : Постоянный
Битрейт : 192 Кбит/сек
Каналы : 2 канала
Частота : 48,0 КГц
Метод сжатия : С потерями
Задержка видео : -10 мс.
Размер потока : 60,4 Мбайт (6%)

Аудио #2
Идентификатор : 193 (0xC1)
Формат : MPEG Audio
Версия формата : Version 1
Профиль формата : Layer 2
Режим : Joint stereo
Расширение режима : Intensity Stereo + MS Stereo
Продолжительность : 43 м.
Вид битрейта : Постоянный
Битрейт : 192 Кбит/сек
Каналы : 2 канала
Частота : 48,0 КГц
Метод сжатия : С потерями
Задержка видео : -10 мс.
Размер потока : 60,4 Мбайт (6%)
Внимание! Раздача ведётся путём добавления новых выпусков; при каждом добавлении создаётся новый торрент. Чтобы начать докачку нового выпуска, пользователям необходимо сделать следующее:
(1) остановить скачивание,
(2) удалить старый торрент у себя из клиента (старые серии удалять не надо),
(3) скачать новый торрент и запустить его у себя в клиенте вместо старого, при этом указать клиенту путь в старую папку куда и должно происходить скачивание новых выпусков.

Ваш клиент при этом должен произвести хеширование (проверку) старой папки (если не производит сам - помогите ему сделать это). В результате он будет докачивать только те выпуски, которых у Вас ещё нет. Старые выпуски при этом не удаляются, а продолжают раздаваться!

Eсли Вы уже удалили старые выпуски, то предотвратить их повторную закачку можно, сняв галочки в соответствующих местах при запуске нового торрента. По возможности, желательно не удалять старые выпуски как можно дольше, чтобы релизёр не только продолжал раздавать старые выпуски, но и смог сконцентрироваться на новых.
 
Не забывайте говорить Спасибо. Не уходите с раздачи!   
Торрент: Зарегистрирован [15 мар 2016, 08:33] Для скачивания .torrent
необходима регистрация
Или скачать с помощью
MediaGet
Статус:
Проверен
 
.torrent скачан: 0 раз
Хэш: 9a14523ea17241d3261fce4ea4cbd782fa7b2957
Размер: 10.14 ГБ (10 891 380 736 байт)
Стать Автором раздачи
 
Аватара пользователя
Администратор
Администратор
 
Раздал: 41.77 ТБ
Скачал: 65.19 ТБ
Ратио: 0.641
Сообщения: 76573
Зарегистрирован: 07 янв 2011, 16:36


  • Похожие торренты
    Ответы
    Просмотры
    Последнее сообщение

Вернуться в Аварии / Катастрофы / Катаклизмы

Кто сейчас на конференции

Сейчас эту тему просматривают: нет зарегистрированных пользователей и гости: 1

Ресурс не предоставляет электронные версии произведений, а занимается лишь коллекционированием и каталогизацией ссылок, присылаемых и публикуемых на форуме нашими читателями. Если вы являетесь правообладателем какого-либо представленного материала и не желаете чтобы ссылка на него находилась в нашем каталоге, свяжитесь с нами и мы незамедлительно удалим её. Файлы для обмена на трекере предоставлены пользователями сайта, и администрация не несёт ответственности за их содержание. Просьба не заливать файлы, защищенные авторскими правами, а также файлы нелегального содержания!