Наедине со всеми (2016) TVRip [H.264] (4 сезон, выпуски 51-65) [MP4|640x360]

 
 Статистика раздачи 
Размер: 4.82 ГБ   |  Зарегистрирован: 14 мар 2016, 03:06   |   .torrent скачан: 1 раз
Сидеров: 1  [ 0 байт/сек ]     Личеров: 0  [ 0 байт/сек ]  
  

Наедине со всеми (2016) TVRip [H.264] (4 сезон, выпуски 51-65) [MP4|640x360]

Сообщение BitFire » 14 мар 2016, 03:06

Наедине со всеми (4 сезон, выпуски 51-65) (2016) TVRip

Производство: 1 канал
Жанр: Документальный

Ведущая: Юлия Меньшова
гости: Ксения Алферова, Андрей Мартынов, Ольга Машная, Махаил Трухин, Лера Кудрявцева, Владислав Лисовец, Анна Ардова, семья близнецов Кривосовых (спецпроект), Алексей Лысенков, Ирина Печерникова, Владимир Позднер, Елена Маньенан, Камиль Ларин, Филипп Киркоров, Екатерина Гордон

Описание:
Юлия Меньшова: «"Наедине со всеми" — это программа-портрет: люди через призму наиболее известных, серьезных и важных событий их жизни. Нас интересует не столько информация, сколько чувства. Конечно, степень открытости будет зависеть от собеседника. Но многие гости программы знают меня лично, и это помогает сделать разговор комфортным для собеседника и говорить на темы, о которых они обычно предпочитают молчать. Очень часто журналисты задают стандартные вопросы, и суть человека ускользает. Моя задача поймать эту суть, и мне кажется, она заключена именно в чувствах, а не в словах. При подготовке к каждой программе я читаю громадное количество информации о герое, поднимаю весь бэкграунд и попытаюсь уловить, что интересует людей в отношении моего героя

Продолжительность: ~ 00:45:00 серия
Качество видео: TVRip

Видео: AVC/H.264, 640х360, ~950 Кбит/сек
Аудио: AAC, 2 ch, 75,5 Кбит/сек, VBR
Семпл: Скачать
Код:
Код: Выделить всё
Общее
Полное имя                               : E:\Torrent\Наедине со всеми 4 сезон\Наедине со всеми 4 сезон 51-65 выпуски\Алексей Лысенков.mp4
Формат                                   : MPEG-4
Профиль формата                          : Base Media
Идентификатор кодека                     : isom
Размер файла                             : 325 Мбайт
Продолжительность                        : 44 м.
Режим общего битрейта                    : Переменный
Общий поток                              : 1032 Кбит/сек
Дата кодирования                         : UTC 2016-02-24 11:06:05
Дата пометки                             : UTC 2016-02-24 11:06:05
Программа кодирования                    : Lavf53.32.100

Видео
Идентификатор                            : 1
Формат                                   : AVC
Формат/Информация                        : Advanced Video Codec
Профиль формата                          :
Параметр CABAC формата                   : Да
Параметр ReFrames формата                : 5 кадров
Идентификатор кодека                     : avc1
Идентификатор кодека/Информация          : Advanced Video Coding
Продолжительность                        : 44 м.
Битрейт                                  : 950 Кбит/сек
Ширина                                   : 640 пикселей
Высота                                   : 360 пикселей
Соотношение сторон                       : 16:9
Режим частоты кадров                     : Постоянный
Частота кадров                           : 25,000 кадров/сек
Цветовое пространство                    : YUV
Субдискретизация насыщенности            : 4:2:0
Битовая глубина                          : 8 бит
Тип развёртки                            : Прогрессивная
Бит/(Пиксели*Кадры)                      : 0.165
Размер потока                            : 299 Мбайт (92%)
Библиотека кодирования                   : x264 core 118
Дата кодирования                         : UTC 2016-02-24 11:06:05
Дата пометки                             : UTC 2016-02-24 11:06:05

Аудио
Идентификатор                            : 2
Формат                                   : AAC
Формат/Информация                        : Advanced Audio Codec
Профиль формата                          : LC
Идентификатор кодека                     : 40
Продолжительность                        : 44 м.
Вид битрейта                             : Переменный
Битрейт                                  : 75,5 Кбит/сек
Максимальный битрейт                     : 96,0 Кбит/сек
Каналы                                   : 2 канала
Расположение каналов                     : Front: L R
Частота                                  : 48,0 КГц
Метод сжатия                             : С потерями
Размер потока                            : 23,8 Мбайт (7%)
Дата кодирования                         : UTC 2016-02-24 11:06:05
Дата пометки                             : UTC 2016-02-24 11:06:05

Скриншоты:


"Наедине со всеми" на NNM-Club


Комментарии, замечания, пожелания и благодарности приветствуются!

Время раздачи: По возможности 12/7 (до появления первых 3-5 скачавших)
 
Не забывайте говорить Спасибо. Не уходите с раздачи!   
Торрент: Зарегистрирован [14 мар 2016, 03:06] Для скачивания .torrent
необходима регистрация
Или скачать с помощью
MediaGet
Статус:
Проверен
 
.torrent скачан: 1 раз
Хэш: 205e69f1084bbebeed475423ec99d56d3c9d5170
Размер: 4.82 ГБ (5 174 132 702 байт)
Стать Автором раздачи
 
 
Раздал: 398.6 ГБ
Скачал: 172 МБ
Ратио: 2373.085
Сообщения: 228130
Зарегистрирован: 17 апр 2014, 15:26


  • Похожие торренты
    Ответы
    Просмотры
    Последнее сообщение

Вернуться в Видео для мобильных устройств

Ресурс не предоставляет электронные версии произведений, а занимается лишь коллекционированием и каталогизацией ссылок, присылаемых и публикуемых на форуме нашими читателями. Если вы являетесь правообладателем какого-либо представленного материала и не желаете чтобы ссылка на него находилась в нашем каталоге, свяжитесь с нами и мы незамедлительно удалим её. Файлы для обмена на трекере предоставлены пользователями сайта, и администрация не несёт ответственности за их содержание. Просьба не заливать файлы, защищенные авторскими правами, а также файлы нелегального содержания!
cron