VA - Die Hit-Giganten - Hits Der 90er (2004) 2CD, Compilation [FLAC|Lossless|tracks + .cue] <Euro House>

 
 Статистика раздачи 
Размер: 1.03 ГБ   |  Зарегистрирован: 07 мар 2016, 19:15   |   .torrent скачан: 1 раз
Сидеров: 1  [ 0 байт/сек ]     Личеров: 0  [ 0 байт/сек ]  
  

VA - Die Hit-Giganten - Hits Der 90er (2004) 2CD, Compilation [FLAC|Lossless|tracks + .cue] <Euro House>

Сообщение i926 » 07 мар 2016, 19:15

VA - Die Hit-Giganten - Hits Der 90er (2004) 2CD, Compilation

Год: 2004
Жанр: Euro House
Издание: Sony Music Media – SMM 518625 2
Продолжительность: 02:31:33

Источник (релизер): blandrew®

Кодек: FLAC
Битрейт: Lossless
Тип рипа: tracks + .cue
Продолжительность: 01:15:56

Треклист:

01. Snap! - Rhythm Is a Dancer (3:41)
02. Dr. Alban - It's My Life (4:00)
03. Technotronic - Pump Up the Jam (3:35)
04. Culture Beat - Mr. Vain (5:36)
05. Corona - The Rhythm of the Night (4:23)
06. C+C Music Factory - Gonna Make You Sweat (Everybody dance Now) (4:05)
07. The Outhere Brothers - Boom Boom Boom (3:29)
08. Scatman John - Scatman (Ski-Ba-Bop-Ba-Dop-Bop) (3:30)
09. Jam & Spoon - Right in the Night (3:46)
10. 2 Unlimited - No Limit (3:31)
11. Urban Cookie Collective - The Key, the Secret (3:40)
12. Double You - Please Don't Go (3:17)
13. Ann Lee - 2 Times (3:48)
14. Whigfield - Saturday Night (Be My Baby) (4:06)
15. Aqua - Barbie Girl (3:15)
16. Scooter - Hyper Hyper (5:05)
17. Magic Affair - Omen III (3:57)
18. U96 - Das Boot (5:13)
19. Robert Miles - Children (3:49)
Код:
Код: Выделить всё
Exact Audio Copy V1.1 from 23. June 2015

EAC extraction logfile from 7. March 2016, 15:30

Various Artists / Die Hit-Giganten: Hits der 90er

Used drive  : ASUS    BW-12D1S-U   Adapter: 1  ID: 1

Read mode               : Secure
Utilize accurate stream : Yes
Defeat audio cache      : Yes
Make use of C2 pointers : No

Read offset correction                      : 667
Overread into Lead-In and Lead-Out          : No
Fill up missing offset samples with silence : Yes
Delete leading and trailing silent blocks   : No
Null samples used in CRC calculations       : Yes
Used interface                              : Native Win32 interface for Win NT & 2000
Gap handling                                : Appended to previous track

Used output format              : User Defined Encoder
Selected bitrate                : 768 kBit/s
Quality                         : High
Add ID3 tag                     : No
Command line compressor         : D:\Program Files (x86)\Exact Audio Copy\Flac\flac.exe
Additional command line options : -8 -V -T "TITLE=%title%" -T "ARTIST=%artist%" -T "ALBUMARTIST=%albumartist%" -T "ALBUM=%albumtitle%" -T "DATE=%year%" -T "TRACKNUMBER=%tracknr%" -T "TRACKTOTAL=%numtracks%" -T "GENRE=%genre%" -T "COMMENT=%comment%" -T "PERFORMER=%albuminterpret%" -T "COMPOSER=%composer%" %source% -o %dest%

TOC of the extracted CD

     Track |   Start  |  Length  | Start sector | End sector
    ---------------------------------------------------------
        1  |  0:00.00 |  3:41.34 |         0    |    16608
        2  |  3:41.34 |  4:00.50 |     16609    |    34658
        3  |  7:42.09 |  3:35.62 |     34659    |    50845
        4  | 11:17.71 |  5:36.63 |     50846    |    76108
        5  | 16:54.59 |  4:23.12 |     76109    |    95845
        6  | 21:17.71 |  4:05.12 |     95846    |   114232
        7  | 25:23.08 |  3:29.63 |    114233    |   129970
        8  | 28:52.71 |  3:30.38 |    129971    |   145758
        9  | 32:23.34 |  3:46.25 |    145759    |   162733
       10  | 36:09.59 |  3:31.62 |    162734    |   178620
       11  | 39:41.46 |  3:40.70 |    178621    |   195190
       12  | 43:22.41 |  3:17.43 |    195191    |   210008
       13  | 46:40.09 |  3:48.37 |    210009    |   227145
       14  | 50:28.46 |  4:06.63 |    227146    |   245658
       15  | 54:35.34 |  3:15.45 |    245659    |   260328
       16  | 57:51.04 |  5:05.25 |    260329    |   283228
       17  | 62:56.29 |  3:57.37 |    283229    |   301040
       18  | 66:53.66 |  5:13.42 |    301041    |   324557
       19  | 72:07.33 |  3:49.70 |    324558    |   341802

Track  1

     Filename D:\Video&Music&Books\2004 - Die Hit-Giganten Hits der 90er\CD1\01.Snap!-Rhythm Is a Dancer.wav

     Pre-gap length  0:00:02.00

     Peak level 98.2 %
     Extraction speed 4.1 X
     Track quality 99.9 %
     Test CRC CB12D593
     Copy CRC CB12D593
     Accurately ripped (confidence 17)  [0F6B1558]  (AR v2)
     Copy OK

Track  2

     Filename D:\Video&Music&Books\2004 - Die Hit-Giganten Hits der 90er\CD1\02.Dr. Alban-It's My Life.wav

     Pre-gap length  0:00:01.09

     Peak level 98.4 %
     Extraction speed 4.6 X
     Track quality 99.9 %
     Test CRC 66B4CC8C
     Copy CRC 66B4CC8C
     Accurately ripped (confidence 18)  [E49FBC74]  (AR v2)
     Copy OK

Track  3

     Filename D:\Video&Music&Books\2004 - Die Hit-Giganten Hits der 90er\CD1\03.Technotronic-Pump Up the Jam.wav

     Pre-gap length  0:00:01.21

     Peak level 87.5 %
     Extraction speed 5.4 X
     Track quality 100.0 %
     Test CRC 46593FA9
     Copy CRC 46593FA9
     Accurately ripped (confidence 18)  [090C9591]  (AR v2)
     Copy OK

Track  4

     Filename D:\Video&Music&Books\2004 - Die Hit-Giganten Hits der 90er\CD1\04.Culture Beat-Mr. Vain.wav

     Pre-gap length  0:00:01.18

     Peak level 98.2 %
     Extraction speed 6.1 X
     Track quality 100.0 %
     Test CRC F74CEA87
     Copy CRC F74CEA87
     Accurately ripped (confidence 18)  [57872488]  (AR v2)
     Copy OK

Track  5

     Filename D:\Video&Music&Books\2004 - Die Hit-Giganten Hits der 90er\CD1\05.Corona-The Rhythm of the Night.wav

     Pre-gap length  0:00:01.23

     Peak level 98.2 %
     Extraction speed 6.3 X
     Track quality 100.0 %
     Test CRC 8E6453CA
     Copy CRC 8E6453CA
     Accurately ripped (confidence 18)  [64B18084]  (AR v2)
     Copy OK

Track  6

     Filename D:\Video&Music&Books\2004 - Die Hit-Giganten Hits der 90er\CD1\06.C+C Music Factory-Gonna Make You Sweat (Everybody dance Now).wav

     Pre-gap length  0:00:01.39

     Peak level 98.1 %
     Extraction speed 6.6 X
     Track quality 100.0 %
     Test CRC 49A3AA48
     Copy CRC 49A3AA48
     Accurately ripped (confidence 18)  [D596F90A]  (AR v2)
     Copy OK

Track  7

     Filename D:\Video&Music&Books\2004 - Die Hit-Giganten Hits der 90er\CD1\07.The Outhere Brothers-Boom Boom Boom.wav

     Pre-gap length  0:00:01.47

     Peak level 98.2 %
     Extraction speed 5.8 X
     Track quality 99.9 %
     Test CRC 0B188864
     Copy CRC 0B188864
     Accurately ripped (confidence 17)  [7A919168]  (AR v2)
     Copy OK

Track  8

     Filename D:\Video&Music&Books\2004 - Die Hit-Giganten Hits der 90er\CD1\08.Scatman John-Scatman (Ski-Ba-Bop-Ba-Dop-Bop).wav

     Pre-gap length  0:00:00.73

     Peak level 87.5 %
     Extraction speed 6.0 X
     Track quality 99.9 %
     Test CRC E24528C6
     Copy CRC E24528C6
     Accurately ripped (confidence 17)  [591E6DE6]  (AR v2)
     Copy OK

Track  9

     Filename D:\Video&Music&Books\2004 - Die Hit-Giganten Hits der 90er\CD1\09.Jam & Spoon-Right in the Night.wav

     Pre-gap length  0:00:01.20

     Peak level 98.2 %
     Extraction speed 7.1 X
     Track quality 100.0 %
     Test CRC EB6C243E
     Copy CRC EB6C243E
     Accurately ripped (confidence 18)  [9DF12B3F]  (AR v2)
     Copy OK

Track 10

     Filename D:\Video&Music&Books\2004 - Die Hit-Giganten Hits der 90er\CD1\10.2 Unlimited-No Limit.wav

     Pre-gap length  0:00:00.71

     Peak level 98.2 %
     Extraction speed 6.3 X
     Track quality 99.9 %
     Test CRC 92791119
     Copy CRC 92791119
     Accurately ripped (confidence 18)  [06FE2141]  (AR v2)
     Copy OK

Track 11

     Filename D:\Video&Music&Books\2004 - Die Hit-Giganten Hits der 90er\CD1\11.Urban Cookie Collective-The Key, the Secret.wav

     Pre-gap length  0:00:01.43

     Peak level 98.2 %
     Extraction speed 7.3 X
     Track quality 100.0 %
     Test CRC A1B486C2
     Copy CRC A1B486C2
     Accurately ripped (confidence 18)  [A2BA2EEA]  (AR v2)
     Copy OK

Track 12

     Filename D:\Video&Music&Books\2004 - Die Hit-Giganten Hits der 90er\CD1\12.Double You-Please Don't Go.wav

     Pre-gap length  0:00:01.34

     Peak level 98.2 %
     Extraction speed 7.4 X
     Track quality 100.0 %
     Test CRC E6E1613F
     Copy CRC E6E1613F
     Accurately ripped (confidence 18)  [96E259D3]  (AR v2)
     Copy OK

Track 13

     Filename D:\Video&Music&Books\2004 - Die Hit-Giganten Hits der 90er\CD1\13.Ann Lee-2 Times.wav

     Pre-gap length  0:00:01.29

     Peak level 82.7 %
     Extraction speed 7.8 X
     Track quality 100.0 %
     Test CRC D4014D0C
     Copy CRC D4014D0C
     Accurately ripped (confidence 17)  [5C53766B]  (AR v2)
     Copy OK

Track 14

     Filename D:\Video&Music&Books\2004 - Die Hit-Giganten Hits der 90er\CD1\14.Whigfield-Saturday Night (Be My Baby).wav

     Pre-gap length  0:00:01.25

     Peak level 98.2 %
     Extraction speed 8.0 X
     Track quality 100.0 %
     Test CRC 81C615DF
     Copy CRC 81C615DF
     Accurately ripped (confidence 18)  [1506C5A1]  (AR v2)
     Copy OK

Track 15

     Filename D:\Video&Music&Books\2004 - Die Hit-Giganten Hits der 90er\CD1\15.Aqua-Barbie Girl.wav

     Pre-gap length  0:00:01.20

     Peak level 98.0 %
     Extraction speed 7.9 X
     Track quality 100.0 %
     Test CRC 76178BB2
     Copy CRC 76178BB2
     Accurately ripped (confidence 18)  [62668CCF]  (AR v2)
     Copy OK

Track 16

     Filename D:\Video&Music&Books\2004 - Die Hit-Giganten Hits der 90er\CD1\16.Scooter-Hyper Hyper.wav

     Pre-gap length  0:00:01.37

     Peak level 98.2 %
     Extraction speed 8.6 X
     Track quality 100.0 %
     Test CRC C24BB465
     Copy CRC C24BB465
     Accurately ripped (confidence 18)  [C77D51C4]  (AR v2)
     Copy OK

Track 17

     Filename D:\Video&Music&Books\2004 - Die Hit-Giganten Hits der 90er\CD1\17.Magic Affair-Omen III.wav

     Pre-gap length  0:00:01.29

     Peak level 98.3 %
     Extraction speed 8.5 X
     Track quality 100.0 %
     Test CRC C73E451F
     Copy CRC C73E451F
     Accurately ripped (confidence 18)  [C525BCBC]  (AR v2)
     Copy OK

Track 18

     Filename D:\Video&Music&Books\2004 - Die Hit-Giganten Hits der 90er\CD1\18.U96-Das Boot.wav

     Pre-gap length  0:00:01.74

     Peak level 98.0 %
     Extraction speed 8.9 X
     Track quality 100.0 %
     Test CRC 3B02A334
     Copy CRC 3B02A334
     Accurately ripped (confidence 17)  [C2FDA962]  (AR v2)
     Copy OK

Track 19

     Filename D:\Video&Music&Books\2004 - Die Hit-Giganten Hits der 90er\CD1\19.Robert Miles-Children.wav

     Pre-gap length  0:00:01.39

     Peak level 87.5 %
     Extraction speed 8.8 X
     Track quality 100.0 %
     Test CRC 509ABB2A
     Copy CRC 509ABB2A
     Accurately ripped (confidence 16)  [D05754BD]  (AR v2)
     Copy OK

All tracks accurately ripped

No errors occurred

End of status report

---- CUETools DB Plugin V2.1.6

[CTDB TOCID: AxXAQHUUOJWHVcR7vWbstb_txxE-] found
Submit result: AxXAQHUUOJWHVcR7vWbstb_txxE- has been confirmed
Track | CTDB Status
  1   | (40/41) Accurately ripped
  2   | (41/41) Accurately ripped
  3   | (41/41) Accurately ripped
  4   | (40/41) Accurately ripped
  5   | (41/41) Accurately ripped
  6   | (40/41) Accurately ripped
  7   | (41/41) Accurately ripped
  8   | (41/41) Accurately ripped
  9   | (41/41) Accurately ripped
 10   | (41/41) Accurately ripped
 11   | (41/41) Accurately ripped
 12   | (41/41) Accurately ripped
 13   | (41/41) Accurately ripped
 14   | (41/41) Accurately ripped
 15   | (41/41) Accurately ripped
 16   | (39/41) Accurately ripped
 17   | (40/41) Accurately ripped
 18   | (40/41) Accurately ripped
 19   | (40/41) Accurately ripped

==== Log checksum 6D57A3980E834C1C85DCCFFF1E76A46294593D4F2FA4E8F48300B1DCFD5CBA4E ====

Код:
Код: Выделить всё
-----------------------

DON'T MODIFY THIS FILE

-----------------------

PERFORMER: auCDtect Task Manager, ver. 1.6.0 RC1 build 1.6.0.1
Copyright (c) 2008-2010 y-soft. All rights reserved
http:/y-soft.org

ANALYZER: auCDtect: CD records authenticity detector, version 0.8.2
Copyright (c) 2004 Oleg Berngardt. All rights reserved.
Copyright (c) 2004 Alexander Djourik. All rights reserved.

FILE: 19.Robert Miles-Children.flac
  Size: 28053302 Hash: 0AE2F14A0C07D9514AEF7259764889B3 Accuracy: -m0
  Conclusion: CDDA 100%
  Signature: EF04F1E966AB29D1F405DB0CFCDDC26DCD2A5C2F
FILE: 18.U96-Das Boot.flac
  Size: 37351218 Hash: 2315947AB4B5522DF38A2E1A46A7F1C6 Accuracy: -m0
  Conclusion: CDDA 100%
  Signature: FD9107B647B64BC54632A0C54067F78D4AAB31F0
FILE: 17.Magic Affair-Omen III.flac
  Size: 31201051 Hash: 3C352E6A56F9267371D44786CF8FACA9 Accuracy: -m0
  Conclusion: CDDA 100%
  Signature: 01F2616082F79E6762134830195C625B381EB188
FILE: 16.Scooter-Hyper Hyper.flac
  Size: 40598885 Hash: 1494C1A92EE054DC5BB8D25A6E7910BD Accuracy: -m0
  Conclusion: CDDA 100%
  Signature: A24592E36F9B76AC2F371183D439E258F4EC3F06
FILE: 15.Aqua-Barbie Girl.flac
  Size: 25423248 Hash: 80109F362FD01DEE560BF358750BC3E4 Accuracy: -m0
  Conclusion: CDDA 100%
  Signature: 117E8D9443A1D22E2F5CF5AA72C5D00BF3BB312E
FILE: 14.Whigfield-Saturday Night (Be My Baby).flac
  Size: 30455599 Hash: A79077E6D9EFB6E434AFAC38B26E0D97 Accuracy: -m0
  Conclusion: MPEG 95%
  Signature: F6632320873453B4F544F0C824715439D625B316
FILE: 13.Ann Lee-2 Times.flac
  Size: 25049245 Hash: F3E6FDA974AAE83F4664F14179D0B377 Accuracy: -m0
  Conclusion: CDDA 100%
  Signature: 76EF1E3E9448CA8ED7A11A1458A19CEFB19B4BA6
FILE: 12.Double You-Please Don't Go.flac
  Size: 25538263 Hash: 34956CBF7AEAAE0A7031CF52481839B5 Accuracy: -m0
  Conclusion: CDDA 100%
  Signature: D9DD10E22E57CCADEB8B819471963123FBE550AB
FILE: 11.Urban Cookie Collective-The Key, the Secret.flac
  Size: 27926731 Hash: 233A1AF1542DDDA38980DE3F985B8389 Accuracy: -m0
  Conclusion: CDDA 100%
  Signature: D5AC73AA0450EC51943D17586E80F1D598DD9681
FILE: 10.2 Unlimited-No Limit.flac
  Size: 26826544 Hash: 14DF6FD9C12B917218D51B6D0738F270 Accuracy: -m0
  Conclusion: CDDA 100%
  Signature: C434732DAF341A63F43D3953D5D27AA3A599B16F
FILE: 09.Jam & Spoon-Right in the Night.flac
  Size: 27345107 Hash: 2655607BFCE09EE3AE1CBA4E9FADF7AC Accuracy: -m0
  Conclusion: CDDA 100%
  Signature: 754A613CDDAC6A100C8167013679C37AC93F2010
FILE: 08.Scatman John-Scatman (Ski-Ba-Bop-Ba-Dop-Bop).flac
  Size: 27506047 Hash: 0A92C3B52F9634C3CF32B6D07EB35F3F Accuracy: -m0
  Conclusion: CDDA 100%
  Signature: 242EE527136C285A697D01357AD72B51DEF52C38
FILE: 07.The Outhere Brothers-Boom Boom Boom.flac
  Size: 22971002 Hash: 4C32DF61FF33916DCEB0B0F7659C54BF Accuracy: -m0
  Conclusion: MPEG 95%
  Signature: B49946DDC54675E6FDE329E5073386FD5FC8B01B
FILE: 06.C+C Music Factory-Gonna Make You Sweat (Everybody dance Now).flac
  Size: 29203376 Hash: 5B89BE94B692FEEB359C045E37E56556 Accuracy: -m0
  Conclusion: CDDA 100%
  Signature: AA36837658CF96B40F6226807562B13A2850DECF
FILE: 05.Corona-The Rhythm of the Night.flac
  Size: 32401347 Hash: F9458713B1DE73F7624B0ADF545BD1D1 Accuracy: -m0
  Conclusion: CDDA 99%
  Signature: 742ACB619A24D69C7F4B93471FAC115934530674
FILE: 04.Culture Beat-Mr. Vain.flac
  Size: 45912517 Hash: 773F5F802F501B28D5C0B9DAC010A097 Accuracy: -m0
  Conclusion: CDDA 100%
  Signature: 0C27056B536D6E143951B00F98CC05A5EBDDA713
FILE: 03.Technotronic-Pump Up the Jam.flac
  Size: 26274204 Hash: EAB7821B9B879715E7516E15975310F9 Accuracy: -m0
  Conclusion: CDDA 100%
  Signature: 9E78CFC20D30B89364A1C29034C4006808D34DA6
FILE: 02.Dr. Alban-It's My Life.flac
  Size: 31949186 Hash: EF85C62E901C8A514043D3239B94FA43 Accuracy: -m0
  Conclusion: CDDA 100%
  Signature: BF231C14C0A475E46028A57371D5336EB5ECC38D
FILE: 01.Snap!-Rhythm Is a Dancer.flac
  Size: 25855373 Hash: A55E577C8AC64AEAB5EDD15D04C60B52 Accuracy: -m0
  Conclusion: CDDA 100%
  Signature: E382CCAAD2FFD12A2CEFC3439620BC1881D4DFCE

Продолжительность: 01:15:37

Треклист:

01. Haddaway - What Is Love (4:28)
02. Londonbeat - I've Been Thinking About You (3:48)
03. Crystal Waters - Gypsy Woman (La da Dee la da Da) (3:42)
04. Robin S. - Show Me Love (4:25)
05. Wes - Alane (3:40)
06. Ace of Base - The Sign (3:08)
07. The Rembrandts - Just the Way It Is, Baby (3:54)
08. Spin Doctors - Two Princes (4:14)
09. Color Me Badd - I Wanna Sex You Up (4:02)
10. Salt‐N‐Pepa - Let's Talk About Sex (3:31)
11. Coolio - Gangsta's Paradise (4:01)
12. Nana - Lonely (3:48)
13. Diana King - Shy Guy (3:40)
14. Prince Ital Joe feat. Marky Mark - United (4:00)
15. East 17 - It's Alright (4:40)
16. Vengaboys - We Like to Party (The Vengabus) (3:42)
17. Loona - Hijo de la Luna (4:08)
18. Dune - Who Wants to Live Forever (3:53)
19. Vangelis - Conquest of Paradise (4:46)
Код:
Код: Выделить всё
Exact Audio Copy V1.1 from 23. June 2015

EAC extraction logfile from 7. March 2016, 13:38

Various Artists / Die Hit-Giganten: Hits der 90er

Used drive  : ASUS    BW-12D1S-U   Adapter: 1  ID: 1

Read mode               : Secure
Utilize accurate stream : Yes
Defeat audio cache      : Yes
Make use of C2 pointers : No

Read offset correction                      : 667
Overread into Lead-In and Lead-Out          : No
Fill up missing offset samples with silence : Yes
Delete leading and trailing silent blocks   : No
Null samples used in CRC calculations       : Yes
Used interface                              : Native Win32 interface for Win NT & 2000
Gap handling                                : Appended to previous track

Used output format              : User Defined Encoder
Selected bitrate                : 768 kBit/s
Quality                         : High
Add ID3 tag                     : No
Command line compressor         : D:\Program Files (x86)\Exact Audio Copy\Flac\flac.exe
Additional command line options : -8 -V -T "TITLE=%title%" -T "ARTIST=%artist%" -T "ALBUMARTIST=%albumartist%" -T "ALBUM=%albumtitle%" -T "DATE=%year%" -T "TRACKNUMBER=%tracknr%" -T "TRACKTOTAL=%numtracks%" -T "GENRE=%genre%" -T "COMMENT=%comment%" -T "PERFORMER=%albuminterpret%" -T "COMPOSER=%composer%" %source% -o %dest%

TOC of the extracted CD

     Track |   Start  |  Length  | Start sector | End sector
    ---------------------------------------------------------
        1  |  0:00.00 |  4:28.46 |         0    |    20145
        2  |  4:28.46 |  3:48.35 |     20146    |    37280
        3  |  8:17.06 |  3:42.21 |     37281    |    53951
        4  | 11:59.27 |  4:25.49 |     53952    |    73875
        5  | 16:25.01 |  3:40.20 |     73876    |    90395
        6  | 20:05.21 |  3:08.65 |     90396    |   104560
        7  | 23:14.11 |  3:54.70 |    104561    |   122180
        8  | 27:09.06 |  4:14.05 |    122181    |   141235
        9  | 31:23.11 |  4:02.20 |    141236    |   159405
       10  | 35:25.31 |  3:31.20 |    159406    |   175250
       11  | 38:56.51 |  4:01.70 |    175251    |   193395
       12  | 42:58.46 |  3:48.20 |    193396    |   210515
       13  | 46:46.66 |  3:40.55 |    210516    |   227070
       14  | 50:27.46 |  4:00.00 |    227071    |   245070
       15  | 54:27.46 |  4:40.00 |    245071    |   266070
       16  | 59:07.46 |  3:42.45 |    266071    |   282765
       17  | 62:50.16 |  4:08.15 |    282766    |   301380
       18  | 66:58.31 |  3:53.40 |    301381    |   318895
       19  | 70:51.71 |  4:46.13 |    318896    |   340358

Track  1

     Filename D:\Video&Music&Books\2004 - Die Hit-Giganten Hits der 90er\CD2\01.Haddaway-What Is Love.wav

     Pre-gap length  0:00:02.00

     Peak level 98.1 %
     Extraction speed 4.8 X
     Track quality 100.0 %
     Test CRC 5F755B6D
     Copy CRC 5F755B6D
     Accurately ripped (confidence 22)  [6288E897]  (AR v2)
     Copy OK

Track  2

     Filename D:\Video&Music&Books\2004 - Die Hit-Giganten Hits der 90er\CD2\02.Londonbeat-I've Been Thinking About You.wav

     Pre-gap length  0:00:01.32

     Peak level 98.4 %
     Extraction speed 5.2 X
     Track quality 100.0 %
     Test CRC 2E08EAA7
     Copy CRC 2E08EAA7
     Accurately ripped (confidence 22)  [AE7702C3]  (AR v2)
     Copy OK

Track  3

     Filename D:\Video&Music&Books\2004 - Die Hit-Giganten Hits der 90er\CD2\03.Crystal Waters-Gypsy Woman (La da Dee la da Da).wav

     Pre-gap length  0:00:01.29

     Peak level 98.8 %
     Extraction speed 5.5 X
     Track quality 100.0 %
     Test CRC E78BE236
     Copy CRC E78BE236
     Accurately ripped (confidence 22)  [3E888DFD]  (AR v2)
     Copy OK

Track  4

     Filename D:\Video&Music&Books\2004 - Die Hit-Giganten Hits der 90er\CD2\04.Robin S.-Show Me Love.wav

     Pre-gap length  0:00:01.11

     Peak level 87.6 %
     Extraction speed 6.0 X
     Track quality 100.0 %
     Test CRC 1AA949D4
     Copy CRC 1AA949D4
     Accurately ripped (confidence 22)  [431412A7]  (AR v2)
     Copy OK

Track  5

     Filename D:\Video&Music&Books\2004 - Die Hit-Giganten Hits der 90er\CD2\05.Wes-Alane.wav

     Pre-gap length  0:00:01.33

     Peak level 98.3 %
     Extraction speed 6.1 X
     Track quality 100.0 %
     Test CRC E7716E78
     Copy CRC E7716E78
     Accurately ripped (confidence 22)  [AC046D75]  (AR v2)
     Copy OK

Track  6

     Filename D:\Video&Music&Books\2004 - Die Hit-Giganten Hits der 90er\CD2\06.Ace of Base-The Sign.wav

     Pre-gap length  0:00:01.39

     Peak level 89.2 %
     Extraction speed 5.3 X
     Track quality 99.9 %
     Test CRC E1818CF3
     Copy CRC E1818CF3
     Accurately ripped (confidence 22)  [4021639C]  (AR v2)
     Copy OK

Track  7

     Filename D:\Video&Music&Books\2004 - Die Hit-Giganten Hits der 90er\CD2\07.The Rembrandts-Just the Way It Is, Baby.wav

     Pre-gap length  0:00:01.29

     Peak level 98.3 %
     Extraction speed 6.6 X
     Track quality 100.0 %
     Test CRC AE0BD298
     Copy CRC AE0BD298
     Accurately ripped (confidence 22)  [2EBE8E3A]  (AR v2)
     Copy OK

Track  8

     Filename D:\Video&Music&Books\2004 - Die Hit-Giganten Hits der 90er\CD2\08.Spin Doctors-Two Princes.wav

     Pre-gap length  0:00:01.31

     Peak level 98.3 %
     Extraction speed 6.9 X
     Track quality 100.0 %
     Test CRC F3328ECA
     Copy CRC F3328ECA
     Accurately ripped (confidence 22)  [19F9B357]  (AR v2)
     Copy OK

Track  9

     Filename D:\Video&Music&Books\2004 - Die Hit-Giganten Hits der 90er\CD2\09.Color Me Badd-I Wanna Sex You Up.wav

     Pre-gap length  0:00:01.27

     Peak level 98.1 %
     Extraction speed 7.1 X
     Track quality 100.0 %
     Test CRC 9B6CEB83
     Copy CRC 9B6CEB83
     Accurately ripped (confidence 21)  [F418737F]  (AR v2)
     Copy OK

Track 10

     Filename D:\Video&Music&Books\2004 - Die Hit-Giganten Hits der 90er\CD2\10.Salt‐N‐Pepa-Let's Talk About Sex.wav

     Pre-gap length  0:00:01.28

     Peak level 98.8 %
     Extraction speed 7.2 X
     Track quality 100.0 %
     Test CRC 41547DC2
     Copy CRC 41547DC2
     Accurately ripped (confidence 21)  [5BEEB10F]  (AR v2)
     Copy OK

Track 11

     Filename D:\Video&Music&Books\2004 - Die Hit-Giganten Hits der 90er\CD2\11.Coolio-Gangsta's Paradise.wav

     Pre-gap length  0:00:01.31

     Peak level 98.7 %
     Extraction speed 7.5 X
     Track quality 100.0 %
     Test CRC 3A508871
     Copy CRC 3A508871
     Accurately ripped (confidence 21)  [8338DA17]  (AR v2)
     Copy OK

Track 12

     Filename D:\Video&Music&Books\2004 - Die Hit-Giganten Hits der 90er\CD2\12.Nana-Lonely.wav

     Pre-gap length  0:00:01.38

     Peak level 98.2 %
     Extraction speed 7.5 X
     Track quality 100.0 %
     Test CRC 9021B0AD
     Copy CRC 9021B0AD
     Accurately ripped (confidence 21)  [5C313BDD]  (AR v2)
     Copy OK

Track 13

     Filename D:\Video&Music&Books\2004 - Die Hit-Giganten Hits der 90er\CD2\13.Diana King-Shy Guy.wav

     Pre-gap length  0:00:01.30

     Peak level 98.1 %
     Extraction speed 6.7 X
     Track quality 99.9 %
     Test CRC 342C2C98
     Copy CRC 342C2C98
     Accurately ripped (confidence 21)  [458E3B7F]  (AR v2)
     Copy OK

Track 14

     Filename D:\Video&Music&Books\2004 - Die Hit-Giganten Hits der 90er\CD2\14.Prince Ital Joe feat. Marky Mark-United.wav

     Pre-gap length  0:00:01.33

     Peak level 98.2 %
     Extraction speed 7.0 X
     Track quality 99.9 %
     Test CRC F239B029
     Copy CRC F239B029
     Accurately ripped (confidence 20)  [5292BF7D]  (AR v2)
     Copy OK

Track 15

     Filename D:\Video&Music&Books\2004 - Die Hit-Giganten Hits der 90er\CD2\15.East 17-It's Alright.wav

     Pre-gap length  0:00:01.27

     Peak level 98.0 %
     Extraction speed 8.3 X
     Track quality 100.0 %
     Test CRC 08918662
     Copy CRC 08918662
     Accurately ripped (confidence 20)  [51353181]  (AR v2)
     Copy OK

Track 16

     Filename D:\Video&Music&Books\2004 - Die Hit-Giganten Hits der 90er\CD2\16.Vengaboys-We Like to Party (The Vengabus).wav

     Pre-gap length  0:00:01.21

     Peak level 98.0 %
     Extraction speed 8.3 X
     Track quality 100.0 %
     Test CRC 916DEAD7
     Copy CRC 916DEAD7
     Accurately ripped (confidence 22)  [01E1D49D]  (AR v2)
     Copy OK

Track 17

     Filename D:\Video&Music&Books\2004 - Die Hit-Giganten Hits der 90er\CD2\17.Loona-Hijo de la Luna.wav

     Pre-gap length  0:00:01.32

     Peak level 96.3 %
     Extraction speed 8.6 X
     Track quality 100.0 %
     Test CRC 9743C835
     Copy CRC 9743C835
     Accurately ripped (confidence 21)  [1E9F605D]  (AR v2)
     Copy OK

Track 18

     Filename D:\Video&Music&Books\2004 - Die Hit-Giganten Hits der 90er\CD2\18.Dune-Who Wants to Live Forever.wav

     Pre-gap length  0:00:01.33

     Peak level 98.0 %
     Extraction speed 8.6 X
     Track quality 100.0 %
     Test CRC 15B19464
     Copy CRC 15B19464
     Accurately ripped (confidence 21)  [33D5B9CD]  (AR v2)
     Copy OK

Track 19

     Filename D:\Video&Music&Books\2004 - Die Hit-Giganten Hits der 90er\CD2\19.Vangelis-Conquest of Paradise.wav

     Pre-gap length  0:00:01.27

     Peak level 98.1 %
     Extraction speed 8.0 X
     Track quality 99.9 %
     Test CRC ADF47FE9
     Copy CRC ADF47FE9
     Accurately ripped (confidence 21)  [F0764A62]  (AR v2)
     Copy OK

All tracks accurately ripped

No errors occurred

End of status report

---- CUETools DB Plugin V2.1.6

[CTDB TOCID: eBCy2fE5crFPsPJt1MjOUxpTo.0-] found
Submit result: eBCy2fE5crFPsPJt1MjOUxpTo.0- has been confirmed
Track | CTDB Status
  1   | (38/38) Accurately ripped
  2   | (38/38) Accurately ripped
  3   | (38/38) Accurately ripped
  4   | (37/38) Accurately ripped
  5   | (38/38) Accurately ripped
  6   | (38/38) Accurately ripped
  7   | (38/38) Accurately ripped
  8   | (38/38) Accurately ripped
  9   | (38/38) Accurately ripped
 10   | (38/38) Accurately ripped
 11   | (38/38) Accurately ripped
 12   | (38/38) Accurately ripped
 13   | (38/38) Accurately ripped
 14   | (38/38) Accurately ripped
 15   | (38/38) Accurately ripped
 16   | (38/38) Accurately ripped
 17   | (38/38) Accurately ripped
 18   | (38/38) Accurately ripped
 19   | (38/38) Accurately ripped

==== Log checksum AC24A255D46F0C0774ADE098B4BB7293EA7119B4B5475483F9CA42693A1A4423 ====

Код:
Код: Выделить всё
-----------------------

DON'T MODIFY THIS FILE

-----------------------

PERFORMER: auCDtect Task Manager, ver. 1.6.0 RC1 build 1.6.0.1
Copyright (c) 2008-2010 y-soft. All rights reserved
http:/y-soft.org

ANALYZER: auCDtect: CD records authenticity detector, version 0.8.2
Copyright (c) 2004 Oleg Berngardt. All rights reserved.
Copyright (c) 2004 Alexander Djourik. All rights reserved.

FILE: 19.Vangelis-Conquest of Paradise.flac
  Size: 30636460 Hash: 59BFE37714C521BB3F3AFBB041C44F83 Accuracy: -m0
  Conclusion: CDDA 100%
  Signature: F5C3BA286F5AC2BA177A4AC23BF2129D07BE2106
FILE: 18.Dune-Who Wants to Live Forever.flac
  Size: 23933367 Hash: 5C5E59CE4D5AFFCBB94F93DA5E309CBA Accuracy: -m0
  Conclusion: CDDA 100%
  Signature: 6E103CE49AEEA224D0FF89E6484B76D70FD0544E
FILE: 17.Loona-Hijo de la Luna.flac
  Size: 25873198 Hash: 752441181DCFE052C2E92CA14015FA1D Accuracy: -m0
  Conclusion: CDDA 100%
  Signature: 1CBB1813230E09C00C5852009A2AB0CCCB490199
FILE: 16.Vengaboys-We Like to Party (The Vengabus).flac
  Size: 26018792 Hash: 17BE01066DEAFB18DD9047CE27B5B2B8 Accuracy: -m0
  Conclusion: CDDA 100%
  Signature: AA32EA8CB17BC01EE80054E7E939B00273E9AAB0
FILE: 15.East 17-It's Alright.flac
  Size: 33952735 Hash: 54CD1109F266B9E0625CB31F8606CD9C Accuracy: -m0
  Conclusion: CDDA 100%
  Signature: 72299DC7289721566F3A9B00B98E84D24AE78663
FILE: 14.Prince Ital Joe feat. Marky Mark-United.flac
  Size: 29796248 Hash: F8AC51A4C89FC9B20A1895564B883DC0 Accuracy: -m0
  Conclusion: CDDA 100%
  Signature: 7BAD8B36EBAAF4DE1185A171E21A32066FC7A3B7
FILE: 13.Diana King-Shy Guy.flac
  Size: 26822665 Hash: 3596319F8EF007C24B1B931B0F51D67F Accuracy: -m0
  Conclusion: CDDA 99%
  Signature: BE00A681A61DCCD31516A32F410010055F6CA318
FILE: 12.Nana-Lonely.flac
  Size: 29634306 Hash: 31294164543DC8367E179CC7A02EA42C Accuracy: -m0
  Conclusion: CDDA 99%
  Signature: AD2A02A9BFE0EA3C64FD00A87CC51DEBEC956F31
FILE: 11.Coolio-Gangsta's Paradise.flac
  Size: 29349066 Hash: E205784D14807E267AAD26BD1D5CDBB8 Accuracy: -m0
  Conclusion: CDDA 99%
  Signature: 3E567E5C991F8BBC87E750E5ACDCB3487B708882
FILE: 09.Color Me Badd-I Wanna Sex You Up.flac
  Size: 28928728 Hash: 05B8BA9C01DBD5EC8DD314A4C00F1B51 Accuracy: -m0
  Conclusion: CDDA 99%
  Signature: DFD6E628548655A4866D4F4438482DE04ABAAD43
FILE: 08.Spin Doctors-Two Princes.flac
  Size: 32940175 Hash: 08AAEA9B7394782ACB9611786BB08CB1 Accuracy: -m0
  Conclusion: CDDA 100%
  Signature: C11C2146F3D93B5A2AAA3285507B79456A26FF91
FILE: 07.The Rembrandts-Just the Way It Is, Baby.flac
  Size: 28897537 Hash: C10D75C8D090DFF57834706B043F0EB6 Accuracy: -m0
  Conclusion: CDDA 100%
  Signature: D5A470B2F2C7EA1487EBAA17937534AEC3D469E0
FILE: 06.Ace of Base-The Sign.flac
  Size: 22794237 Hash: EA409FED84F5B072FF9CAE39E648D42E Accuracy: -m0
  Conclusion: MPEG 95%
  Signature: DFE9530B03117E2AB39D3405B2D8A664FE35420A
FILE: 05.Wes-Alane.flac
  Size: 27197030 Hash: D4E89F53F71B49D057EAE9489824C7F7 Accuracy: -m0
  Conclusion: CDDA 100%
  Signature: D400E74B1859747E4D3389044FF4EDC878FB02DE
FILE: 04.Robin S.-Show Me Love.flac
  Size: 31133490 Hash: 43F9C409AE5A4F12D7C5EDCDF71A99FD Accuracy: -m0
  Conclusion: CDDA 100%
  Signature: C368CA6E8D42B7A2E375C8C96AA5F5AED9D167A1
FILE: 03.Crystal Waters-Gypsy Woman (La da Dee la da Da).flac
  Size: 23413891 Hash: 3F0E28D8D174AF86AC8393D840B9B10E Accuracy: -m0
  Conclusion: CDDA 100%
  Signature: FB69CBF18603C469097B6884394916291DCBB5EA
FILE: 02.Londonbeat-I've Been Thinking About You.flac
  Size: 28483198 Hash: 9B9448E9158A2117506399CD30546E9D Accuracy: -m0
  Conclusion: CDDA 100%
  Signature: 74BD0A1C125E8B4A5B5C8B179FFF7BD4F5048FC4
FILE: 01.Haddaway-What Is Love.flac
  Size: 34494958 Hash: 5D9C16A89F741EC164FCDD9F66D32273 Accuracy: -m0
  Conclusion: CDDA 100%
  Signature: 5092BB77F11A07904FC882EEF433E1AC01CBF9AB

Время раздачи: 24/7 (круглосуточно) - до появления первых 3-5 скачавших
 
Не забывайте говорить Спасибо. Не уходите с раздачи!   
Торрент: Зарегистрирован [07 мар 2016, 19:15] Скачать торрент
Скачать торрент
[ Размер 50.61 КБ / Просмотров 41 ]
Статус:
Проверен
 
.torrent скачан: 1 раз
Хэш: 5732eb870f467adcd53904e567aa295d7dc072ec
Размер: 1.03 ГБ (1 109 302 353 байт)
Стать Автором раздачи
 
Аватара пользователя
Главный редактор
Главный редактор
 
Раздал: 15.43 ТБ
Скачал: 13.78 ТБ
Ратио: 1.120
Сообщения: 65449
Зарегистрирован: 01 мар 2011, 23:07


  • Похожие торренты
    Ответы
    Просмотры
    Последнее сообщение

Вернуться в House, Techno, Electro, Minimal (транзит Lossless)

Ресурс не предоставляет электронные версии произведений, а занимается лишь коллекционированием и каталогизацией ссылок, присылаемых и публикуемых на форуме нашими читателями. Если вы являетесь правообладателем какого-либо представленного материала и не желаете чтобы ссылка на него находилась в нашем каталоге, свяжитесь с нами и мы незамедлительно удалим её. Файлы для обмена на трекере предоставлены пользователями сайта, и администрация не несёт ответственности за их содержание. Просьба не заливать файлы, защищенные авторскими правами, а также файлы нелегального содержания!
cron