Второй шанс / Second Chance (2016) WEB-DLRip [H.264] (Сезон 1, серии 1-8 из 13) BaibaKo [MP4|1280x720]

 
 Статистика раздачи 
Размер: 10.44 ГБ   |  Зарегистрирован: 07 мар 2016, 17:14   |   .torrent скачан: 0 раз
Сидеров: 1  [ 0 байт/сек ]     Личеров: 0  [ 0 байт/сек ]  
  

Второй шанс / Second Chance (2016) WEB-DLRip [H.264] (Сезон 1, серии 1-8 из 13) BaibaKo [MP4|1280x720]

Сообщение BitFire » 07 мар 2016, 17:14

Второй шанс / Second Chance (2016) WEB-DLRip 720p (Сезон 1, серии 1-8 из 13) BaibaKo
«Death gave him a second chance at life»

Производство: США
Жанр: фантастика, драма

Режиссер: Сара Пиа Андерсон, Майкл Куэста, Адам Кэйн
Актеры: Роберт Казински, Адхир Кальян, Тим ДиКей, Дилшад Вадсариа, Филип Бейкер Холл, Сиэра Браво, Хезер Д. Бенуа и др.

Описание:
Когда 75-летнего шерифа убивают, он обретает шанс на новую жизнь. Учёные возвращают его в мир живых — он становится своеобразной версией Франкенштейна, получившей сверхсилу и вернувшей молодость. Теперь главному герою этой истории предстоит разобраться в том, по какой причине и кто именно его убил…


Дата мировой премьеры: 13 января 2016

Продолжительность: ~ 00:45:00 серия
Качество видео: WEB-DLRip 720p
Перевод: Многоголосый закадровый, профессиональный - BaibaKo
Автор перевода: Фиона Кудреватых
Озвучка: Лира Грим, Сергей Корчак, Артемий Мирон и Татьяна Оболевич
Реклама: рекламный видеоблок вырезан / присутствуют голосовые и текстовые вставки

Видео: AVC/H.264 (High@L3.1), 1280x720 (16:9), ~3983 Кбит/сек
Аудио: AAC, 2 канала, 192 Кбит/сек - русский (многоголосый закадровый)
Код:
Код: Выделить всё
Полное имя                               : E:\Second_Chance_s1_WEB-DL720p_x264_BaibaKo_[NNM-CLUB]\Second.Chance.s01e01.HD720p.WEB-DL.Rus.BaibaKo.tv.mp4
Формат                                   : MPEG-4
Профиль формата                          : Base Media
Идентификатор кодека                     : isom
Размер файла                             : 1,33 Гбайт
Продолжительность                        : 45 м.
Общий поток                              : 4181 Кбит/сек
Программа кодирования                    : XviD4PSP 7.0.129

Видео
Идентификатор                            : 1
Формат                                   : AVC
Формат/Информация                        : Advanced Video Codec
Профиль формата                          :
Параметр CABAC формата                   : Нет
Параметр ReFrames формата                : 2 кадра
Параметр GOP формата                     : M=2, N=90
Идентификатор кодека                     : avc1
Идентификатор кодека/Информация          : Advanced Video Coding
Продолжительность                        : 45 м.
Битрейт                                  : 3983 Кбит/сек
Ширина                                   : 1280 пикселей
Высота                                   : 720 пикселей
Соотношение сторон                       : 16:9
Режим частоты кадров                     : Переменный
Частота кадров                           : 23,976 кадра/сек
Минимальная частота кадров               : 23,256 кадра/сек
Максимальная частота кадров              : 25,000 кадров/сек
Цветовое пространство                    : YUV
Субдискретизация насыщенности            : 4:2:0
Битовая глубина                          : 8 бит
Тип развёртки                            : Прогрессивная
Бит/(Пиксели*Кадры)                      : 0.180
Размер потока                            : 1,26 Гбайт (95%)
Основные цвета                           : BT.709
Характеристики трансфера                 : BT.709
Коэффициенты матрицы                     : BT.709

Аудио
Идентификатор                            : 2
Формат                                   : AAC
Формат/Информация                        : Advanced Audio Codec
Профиль формата                          : LC
Идентификатор кодека                     : 40
Продолжительность                        : 45 м.
Вид битрейта                             : Постоянный
Битрейт                                  : 192 Кбит/сек
Каналы                                   : 2 канала
Расположение каналов                     : Front: L R
Частота                                  : 48,0 КГц
Метод сжатия                             : С потерями
Размер потока                            : 62,4 Мбайт (5%)
Язык                                     : Russian
01. A Suitable Donor / Подходящий донор
02. 02. One More Notch / Ещё одна насечка
03. From Darkness, the Sun / Из мрака - к солнцу
04. Admissions / Поступление
05. Scratch That Glitch / Устранить дефект
06. Palimpsest / Палимпсест
07. That Time in the Car / Тот случай в машине
08. May Old Acquaintance Be Forgot / Забыть дружбу прежних дней
Внимание! Раздача ведётся путём добавления новых серий; при каждом добавлении создаётся новый торрент.
Чтобы начать докачку новой серии, пользователям необходимо сделать следующее:
1. Остановить скачивание;
2. Удалить старый торрент у себя из клиента (старые серии удалять не надо);
3. Скачать новый торрент и запустить его у себя в клиенте вместо старого, при этом указать клиенту путь в старую папку куда и должно происходить скачивание новых серий. Ваш клиент при этом должен произвести хеширование (проверку) старой папки и будет докачивать только те серии, которых у вас ещё нет. Старые серии при этом не удаляются, а продолжают раздаваться! Eсли вы уже удалили старые серии, то предотвратить повторную закачку старых серий можно, отжав галочку в соответствующих местах при запуске нового торрента.

Скриншоты:




Время раздачи:
24/7 - круглосуточно
(до первых 5-ти сидов - потом по возможности)
 
Не забывайте говорить Спасибо. Не уходите с раздачи!   
Торрент: Зарегистрирован [07 мар 2016, 17:14] Для скачивания .torrent
необходима регистрация
Или скачать с помощью
MediaGet
Статус:
Проверен
 
.torrent скачан: 0 раз
Хэш: 93a5ef1e87eaf8aaec0dcbf602780d264734f635
Размер: 10.44 ГБ (11 210 218 187 байт)
Стать Автором раздачи
 
 
Раздал: 398.6 ГБ
Скачал: 172 МБ
Ратио: 2373.085
Сообщения: 228130
Зарегистрирован: 17 апр 2014, 15:26


  • Похожие торренты
    Ответы
    Просмотры
    Последнее сообщение

Вернуться в Видео для мобильных устройств

Ресурс не предоставляет электронные версии произведений, а занимается лишь коллекционированием и каталогизацией ссылок, присылаемых и публикуемых на форуме нашими читателями. Если вы являетесь правообладателем какого-либо представленного материала и не желаете чтобы ссылка на него находилась в нашем каталоге, свяжитесь с нами и мы незамедлительно удалим её. Файлы для обмена на трекере предоставлены пользователями сайта, и администрация не несёт ответственности за их содержание. Просьба не заливать файлы, защищенные авторскими правами, а также файлы нелегального содержания!
cron