Наш Потреб Надзор. Не дай себя обмануть! (06.03.2016) SATRip

 
 Статистика раздачи 
Размер: 272.5 МБ   |  Зарегистрирован: 07 мар 2016, 16:20   |   .torrent скачан: 0 раз
Сидеров: 1  [ 0 байт/сек ]     Личеров: 1  [ 0 байт/сек ]  
  

Наш Потреб Надзор. Не дай себя обмануть! (06.03.2016) SATRip

Сообщение BitFire » 07 мар 2016, 16:20

Наш Потреб Надзор. Не дай себя обмануть! (06.03.2016) SATRip

Телекомпания: НТВ
Жанр: Телепередача

Ведущий: Олег Солнцев

Описание:
Во всех почтовых ящиках страны: фальшивые квитанции ЖКХ и даже за нарушение правил дорожного движения. Ни капли жалости: волна мошенничества с водяными фильтрами накрыла российские города. Кем представятся мошенники, чтобы вы их пропустили в квартиру? Какие фокусы покажут, чтобы выжать ваш кошелек до капли? Какой фильтр выбрать? А нужно ли в вашем городе вообще фильтровать воду? Почему мошенников все больше в мебельном бизнесе? Чем они себя выдают и как накажут вас за доверие? Цена в чеке выше той, что указана в ценнике на прилавке? Это мошенники! Можно ли забрать товар с ошибкой в цене бесплатно? Мученье — свет! О чем темнят производители энергосберегающих ламп? Что нужно знать, чтобы счета за свет были до лампочки? Деньги с вашей банковской карты украдут прямо в троллейбусе. Как воруют щипачи XXI века и как можно защитить кошелек?

Наша жизнь — это постоянный контакт с вещами и людьми, призванными сделать ее более удобной, здоровой и безопасной. И мы готовы платить за это деньги, порой немалые. Но часто наши ожидания получить качественный, полезный, комфортный продукт или услугу не оправдываются. За якобы бесплатное все чаще нужно доплачивать, этикетки не перевести без специалиста-химика, а секретные технологии обмана и экономии при производстве со временем сказываются на нашем здоровье…
Продолжительность: 00:45:02
Качество видео: SATRip

Видео: MPEG-4, 768x576, ~846 Кбит/сек
Аудио: AАC, 2 ch, 128 Кбит/сек, LC
Код:
Код: Выделить всё
Формат                                   : MPEG-4
Профиль формата                          : Base Media
Идентификатор кодека                     : isom (isom/iso2/avc1/mp41)
Размер файла                             : 273 Мбайт
Продолжительность                        : 45 м.
Общий поток                              : 846 Кбит/сек
Программа кодирования                    : Lavf54.59.106

Видео
Идентификатор                            : 1
Формат                                   : AVC
Формат/Информация                        : Advanced Video Codec
Профиль формата                          :
Параметр CABAC формата                   : Да
Параметр ReFrames формата                : 4 кадра
Идентификатор кодека                     : avc1
Идентификатор кодека/Информация          : Advanced Video Coding
Продолжительность                        : 45 м.
Битрейт                                  : 712 Кбит/сек
Ширина                                   : 768 пикселей
Высота                                   : 576 пикселей
Соотношение сторон                       : 4:3
Режим частоты кадров                     : Постоянный
Частота кадров                           : 25,000 кадров/сек
Цветовое пространство                    : YUV
Субдискретизация насыщенности            : 4:2:0
Битовая глубина                          : 8 бит
Тип развёртки                            : Прогрессивная
Бит/(Пиксели*Кадры)                      : 0.064
Размер потока                            : 229 Мбайт (84%)
Библиотека кодирования                   : x264 core 130
Настройки программы                      : cabac=1 / ref=3 / deblock=1:0:0 / analyse=0x3:0x113 / me=hex / subme=7 / psy=1 / psy_rd=1.00:0.00 / mixed_ref=1 / me_range=16 / chroma_me=1 / trellis=0 / 8x8dct=1 / cqm=0 / deadzone=21,11 / fast_pskip=1 / chroma_qp_offset=-2 / threads=48 / lookahead_threads=4 / sliced_threads=0 / nr=0 / decimate=1 / interlaced=0 / bluray_compat=0 / constrained_intra=0 / bframes=8 / b_pyramid=2 / b_adapt=1 / b_bias=0 / direct=1 / weightb=1 / open_gop=0 / weightp=2 / keyint=50 / keyint_min=5 / scenecut=40 / intra_refresh=0 / rc_lookahead=40 / rc=crf / mbtree=1 / crf=25.0 / qcomp=0.60 / qpmin=0 / qpmax=69 / qpstep=4 / ip_ratio=1.40 / aq=1:1.00

Аудио
Идентификатор                            : 2
Формат                                   : AAC
Формат/Информация                        : Advanced Audio Codec
Профиль формата                          : LC
Идентификатор кодека                     : 40
Продолжительность                        : 45 м.
Вид битрейта                             : Постоянный
Битрейт                                  : 128 Кбит/сек
Каналы                                   : 2 канала
Расположение каналов                     : Front: L R
Частота                                  : 44,1 КГц
Частота кадров                           : 43,066 кадра/сек (1024 spf)
Метод сжатия                             : С потерями
Размер потока                            : 41,2 Мбайт (15%)
Default                                  : Да
Alternate group                          : 1


Скриншоты:


Время раздачи: 24/7 - до 5 скачавших.
 
Не забывайте говорить Спасибо. Не уходите с раздачи!   
Торрент: Зарегистрирован [07 мар 2016, 16:20] Для скачивания .torrent
необходима регистрация
Или скачать с помощью
MediaGet
Статус:
Проверен
 
.torrent скачан: 0 раз
Хэш: edc1c997f3f454268291cbee54f40776065d65c9
Размер: 272.5 МБ (285 737 054 байт)
Стать Автором раздачи
 
 
Раздал: 398.6 ГБ
Скачал: 172 МБ
Ратио: 2373.085
Сообщения: 228130
Зарегистрирован: 17 апр 2014, 15:26


  • Похожие торренты
    Ответы
    Просмотры
    Последнее сообщение

Вернуться в Видео для мобильных устройств

Ресурс не предоставляет электронные версии произведений, а занимается лишь коллекционированием и каталогизацией ссылок, присылаемых и публикуемых на форуме нашими читателями. Если вы являетесь правообладателем какого-либо представленного материала и не желаете чтобы ссылка на него находилась в нашем каталоге, свяжитесь с нами и мы незамедлительно удалим её. Файлы для обмена на трекере предоставлены пользователями сайта, и администрация не несёт ответственности за их содержание. Просьба не заливать файлы, защищенные авторскими правами, а также файлы нелегального содержания!
cron