Музыкальные Клипы России Выпуск № 15 (1996) VHSRip

 
 Статистика раздачи 
Размер: 6.15 ГБ   |  Зарегистрирован: 06 мар 2016, 13:19   |   .torrent скачан: 0 раз
Сидеров: 1  [ 0 байт/сек ]     Личеров: 0  [ 0 байт/сек ]  
  

Музыкальные Клипы России Выпуск № 15 (1996) VHSRip

Сообщение i926 » 06 мар 2016, 13:19

Музыкальные Клипы России Выпуск № 15 (1996) VHSRip

Производство: Россия
Жанр: Музыкальные Клипы

Актеры: Валерий Леонтьев,Алла Пугачева,Андрей Державин,Евгений Осин,и другие

Продолжительность: 02:54:04
Качество видео: VHSRip
Перевод: Не Требуется

Видео: MPEG-2, 720 X 576@768 X 576, ~4735 Kbps
Аудио: MP2, 2 ch, 224 Kbps, CBR
Ди Бронкс и Натали - Энергия Любви
Лариса Долина - Ревнуй меня
Ю.Кузнецов - Чайка
Вкус мёда - Серьёзный разговор
Павел Дементьев & Кристина Орбакайте - Боль
Л.Черникова - Да ты не смейся
Алёна Свиридова - Бедная овечка
Илья Словесник - Борода
Сёстры Роуз - Ангел мой
Филипп Киркоров - Кордебалет
Валерий Леонтьев - Танго разбитых сердец
Валерий Леонтьев - Вечерний звон
Иванушки International - Вселенная
Наталья Новикова - Не задувай мою свечу
Влад Сташевский - Свадебное платье
Евгений Белоусов - Вот и всё
Владимир Маркин - Ты стоишь у окна
Алла Пугачева - Алло
Крематорий - Белые столбы
Лариса Долина - Ресторан
Рондо - Ну и пусть
Евгений Осин - Мемуары
Евгений Осин - Для чего?
Евгений Осин-Попутчица
Евгений Осин - Не ходи со мною рядом
Евгений Осин - Иволга
Андрей Державин - Чужая свадьба
Андрей Державин - Забудь обо мне
Евгений Белоусов - Девчонка Девчоночка
Евгений Белоусов - Вот и всё
Крис Кельми - Старый волк
Каролина - Мама все окей
Кай Метов - Тебя со мною рядом нет
Наталья Новикова - Я Касаюсь Губ Твоих
Игорь Демарин - Нищий
Александр Кальянов - Здравствуйте
Василий Лавров и Территория - Колотушка
Валерия - Ночь нежна
Ирина Мирошниченко - Я верю
Чайф - Никто не услышит
Сергей Галанин - Собачий Вальс
Лайма Вайкуле - Breakin away
Дюна - День рождения
Восток - В такт со мной
Лариса Долина - Привыкай
Анастасия - Свет пречистый
Код:
Код: Выделить всё
General
Complete name               : C:\Users\VHS\Музыкальные Клипы России Выпуск № 15 1996\Музыкальные Клипы России Выпуск № 15 1996 (VHSRip By Mastersnof).mpg
Format                      : MPEG-PS
File size                   : 6.15 GiB
Duration                    : 2h 54mn
Overall bit rate mode       : Variable
Overall bit rate            : 5 059 Kbps
Writing library             : (dvd5: Oct 19 2015)

Video
ID                          : 224 (0xE0)
Format                      : MPEG Video
Format version              : Version 2
Format profile              : Main@Main
Format settings, BVOP       : Yes
Format settings, Matrix     : Default
Format settings, GOP        : M=3, N=15
Duration                    : 2h 54mn
Bit rate mode               : Variable
Bit rate                    : 4 735 Kbps
Width                       : 720 pixels
Height                      : 576 pixels
Display aspect ratio        : 4:3
Frame rate                  : 25.000 fps
Standard                    : PAL
Color space                 : YUV
Chroma subsampling          : 4:2:0
Bit depth                   : 8 bits
Scan type                   : Progressive
Scan order                  : Top Field First
Compression mode            : Lossy
Bits/(Pixel*Frame)          : 0.457
Time code of first frame    : 00:00:00:00
Time code source            : Group of pictures header
GOP, Open/Closed            : Open
GOP, Open/Closed of first f : Closed
Stream size                 : 5.76 GiB (94%)
Writing library             : (dvd5: Oct 19 2015)
Color primaries             : BT.601 PAL
Transfer characteristics    : BT.470 System B, BT.470 System G
Matrix coefficients         : BT.601

Audio
ID                          : 192 (0xC0)
Format                      : MPEG Audio
Format version              : Version 1
Format profile              : Layer 2
Duration                    : 2h 54mn
Bit rate mode               : Constant
Bit rate                    : 224 Kbps
Channel(s)                  : 2 channels
Sampling rate               : 48.0 KHz
Compression mode            : Lossy
Stream size                 : 279 MiB (4%)

Menu
VHSRip из личного архива...

Скриншоты:



Время раздачи: До первых скачавших (до появления первых 3-5 скачавших)
 
Не забывайте говорить Спасибо. Не уходите с раздачи!   
Торрент: Зарегистрирован [06 мар 2016, 13:19] Скачать торрент
Скачать торрент
[ Размер 31.55 КБ / Просмотров 51 ]
Статус:
Проверен
 
.torrent скачан: 0 раз
Хэш: 591c6ea37f08d8995c41d929d352026762d2cb9c
Размер: 6.15 ГБ (6 604 161 024 байт)
Стать Автором раздачи
 
Аватара пользователя
Главный редактор
Главный редактор
 
Раздал: 15.43 ТБ
Скачал: 13.78 ТБ
Ратио: 1.120
Сообщения: 65446
Зарегистрирован: 01 мар 2011, 23:07


  • Похожие торренты
    Ответы
    Просмотры
    Последнее сообщение

Вернуться в Музыкальные клипы (транзит)

Ресурс не предоставляет электронные версии произведений, а занимается лишь коллекционированием и каталогизацией ссылок, присылаемых и публикуемых на форуме нашими читателями. Если вы являетесь правообладателем какого-либо представленного материала и не желаете чтобы ссылка на него находилась в нашем каталоге, свяжитесь с нами и мы незамедлительно удалим её. Файлы для обмена на трекере предоставлены пользователями сайта, и администрация не несёт ответственности за их содержание. Просьба не заливать файлы, защищенные авторскими правами, а также файлы нелегального содержания!
cron