В сердце моря / In the Heart of the Sea (2015) HDRip [H.264] [MP4|960х544]

 
 Статистика раздачи 
Размер: 2.12 ГБ   |  Зарегистрирован: 05 мар 2016, 16:40   |   .torrent скачан: 0 раз
Сидеров: 1  [ 0 байт/сек ]     Личеров: 0  [ 0 байт/сек ]  
  

В сердце моря / In the Heart of the Sea (2015) HDRip [H.264] [MP4|960х544]

Сообщение bagouser » 05 мар 2016, 16:40

В сердце моря / In the Heart of the Sea (2015) HDRip

Производство: Австралия, Великобритания, Испания, Канада, США
Жанр: Триллер, Драма, Приключения

Режиссер: Рон Ховард
Актеры: Крис Хемсворт, Бенджамин Уокер, Киллиан Мёрфи, Брендан Глисон, Бен Уишоу, Мишель Фэйрли, Том Холланд, Пол Андерсон, Фрэнк Диллэйн, Джозеф Моул

Описание:
В 1819 году американский корабль «Эссекс» с командой из двух десятков человек на борту отправился из порта в штате Массачусетс на китобойный промысел. Осенью 1820-го успешная на протяжении полутора лет охота была прервана атакой гигантского кашалота на судно, в результате чего морякам пришлось пересесть в шлюпки. В течение трех с лишним месяцев они боролись за выживание посреди океана...


Дата мировой премьеры: 2 декабря 2015
Дата премьеры в России: 3 декабря 2015, «Каро-Премьер»

Продолжительность: 02:01:43
Качество видео: HDRip
Перевод: Дублированный (iTunes Russia)

Видео: AVC/H.264, 960х544, ~2345 Kbps
Аудио: AAC, 2 ch, 160 Kbps - дублированный (Русский)
Код:
Код: Выделить всё
General
Complete name                            : В сердце моря (2015).mp4
Format                                   : MPEG-4
Format profile                           : Base Media
Codec ID                                 : isom
File size                                : 2.12 GiB
Duration                                 : 2h 1mn
Overall bit rate                         : 2 499 Kbps
Movie name                               : In the Heart of the Sea (2015) [NoNaMe-Club rip by alien.09]
Encoded date                             : UTC 2016-03-04 20:19:17
Tagged date                              : UTC 2016-03-04 20:19:17

Video
ID                                       : 1
Format                                   : AVC
Format/Info                              : Advanced Video Codec
Format profile                           :
Format settings, CABAC                   : Yes
Format settings, ReFrames                : 3 frames
Codec ID                                 : avc1
Codec ID/Info                            : Advanced Video Coding
Duration                                 : 2h 1mn
Bit rate                                 : 2 345 Kbps
Width                                    : 960 pixels
Height                                   : 544 pixels
Display aspect ratio                     : 16:9
Original display aspect ratio            : 16:9
Frame rate mode                          : Constant
Frame rate                               : 23.976 fps
Color space                              : YUV
Chroma subsampling                       : 4:2:0
Bit depth                                : 8 bits
Scan type                                : Progressive
Bits/(Pixel*Frame)                       : 0.187
Stream size                              : 1.98 GiB (93%)
Writing library                          : x264 core 128 r2216M 198a7ea
Encoding settings                        : cabac=1 / ref=3 / deblock=1:-1:-1 / analyse=0x1:0x131 / me=hex / subme=7 / psy=1 / psy_rd=0.40:0.15 / mixed_ref=1 / me_range=16 / chroma_me=1 / trellis=1 / 8x8dct=0 / cqm=0 / deadzone=21,11 / fast_pskip=1 / chroma_qp_offset=-3 / threads=8 / lookahead_threads=1 / sliced_threads=0 / nr=0 / decimate=1 / interlaced=0 / bluray_compat=0 / constrained_intra=0 / bframes=3 / b_pyramid=0 / b_adapt=2 / b_bias=0 / direct=3 / weightb=1 / open_gop=0 / weightp=0 / keyint=230 / keyint_min=23 / scenecut=40 / intra_refresh=0 / rc_lookahead=40 / rc=2pass / mbtree=1 / bitrate=2345 / ratetol=1.0 / qcomp=0.60 / qpmin=10 / qpmax=51 / qpstep=4 / cplxblur=20.0 / qblur=0.5 / vbv_maxrate=5000 / vbv_bufsize=1835 / nal_hrd=none / ip_ratio=1.40 / aq=1:0.60
Language                                 : English
Encoded date                             : UTC 2016-03-04 20:19:17
Tagged date                              : UTC 2016-03-04 20:19:17

Audio
ID                                       : 2
Format                                   : AAC
Format/Info                              : Advanced Audio Codec
Format profile                           : LC
Codec ID                                 : 40
Duration                                 : 2h 1mn
Bit rate mode                            : Constant
Bit rate                                 : 160 Kbps
Channel count                            : 2 channels
Channel positions                        : Front: L R
Sampling rate                            : 48.0 KHz
Compression mode                         : Lossy
Stream size                              : 139 MiB (6%)
Language                                 : Russian
Encoded date                             : UTC 2016-03-04 20:19:17
Tagged date                              : UTC 2016-03-04 20:19:17

Скриншоты:




Время раздачи:
24/7 (до появления первых 3-5 скачавших)
 
Не забывайте говорить Спасибо. Не уходите с раздачи!   
Торрент: Зарегистрирован [05 мар 2016, 16:40] Для скачивания .torrent
необходима регистрация
Или скачать с помощью
MediaGet
Статус:
Проверен
 
.torrent скачан: 0 раз
Хэш: 9392f7a6573476dc01a9eb4ac6c3fdf569c6fe40
Размер: 2.12 ГБ (2 281 488 626 байт)
Стать Автором раздачи
 
Аватара пользователя
 
Раздал: 3.77 ТБ
Скачал: 406.3 ГБ
Ратио: 9.496
Сообщения: 468702
Зарегистрирован: 20 янв 2011, 21:15


  • Похожие торренты
    Ответы
    Просмотры
    Последнее сообщение

Вернуться в Видео для мобильных устройств

Ресурс не предоставляет электронные версии произведений, а занимается лишь коллекционированием и каталогизацией ссылок, присылаемых и публикуемых на форуме нашими читателями. Если вы являетесь правообладателем какого-либо представленного материала и не желаете чтобы ссылка на него находилась в нашем каталоге, свяжитесь с нами и мы незамедлительно удалим её. Файлы для обмена на трекере предоставлены пользователями сайта, и администрация не несёт ответственности за их содержание. Просьба не заливать файлы, защищенные авторскими правами, а также файлы нелегального содержания!
cron