Lady Gaga - The Remix (2010) [FLAC|Lossless|tracks + .cue] <Progressive House, House, Electro>

 
 Статистика раздачи 
Размер: 547.51 МБ   |  Зарегистрирован: 03 мар 2016, 12:11   |   .torrent скачан: 0 раз
Сидеров: 1  [ 0 байт/сек ]     Личеров: 0  [ 0 байт/сек ]  
  

Lady Gaga - The Remix (2010) [FLAC|Lossless|tracks + .cue] <Progressive House, House, Electro>

Сообщение i926 » 03 мар 2016, 12:11

Lady Gaga - The Remix (2010)

Год: 2010
Жанр: Progressive House, House, Electro
Издание: Interscope Records – 460502670491, Konlive – 460502670491, Cherrytree Records – 460502670491, Streamline Records – 460502670491
Продолжительность: 01:17:22

Источник (релизер): blandrew®

Кодек: FLAC
Битрейт: Lossless
Тип рипа: image + .cue

Треклист:
01. Just Dance (Richard Vission remix) (6:14)
02. Poker Face (LLG vs. GLG radio mix remix) (4:03)
03. Lady Gaga feat. Marilyn Manson - LoveGame (Chew Fu Ghettohouse mix) (5:21)
04. Eh, Eh (Nothing Else I Can Say) (FrankMusik remix) (3:49)
05. Paparazzi (Stuart Price remix) (3:20)
06. Boys Boys Boys (Manhattan Clique remix) (6:37)
07. The Fame (Glam as You remix) (3:57)
08. Bad Romance (Starsmith remix) (4:56)
09. Lady Gaga feat. Beyonce - Telephone (Passion Pit remix) (5:13)
10. Alejandro (Sound of Arrows remix) (3:58)
11. Dance in the Dark (Monarchy 'Stylites' remix) (6:10)
12. Just Dance (Deewaan remix) (4:17)
13. LoveGame (Robots to Mars remix) (3:14)
14. Eh, Eh (Nothing Else I Can Say) (Pet Shop Boys remix) (2:50)
15. Poker Face (live from the Cherrytree House) (3:38)
16. Bad Romance (Grum remix) (4:50)
17. Lady Gaga feat. Beyonce - Telephone (Alphabeat remix) (4:48)
Код:
Код: Выделить всё
Exact Audio Copy V1.1 from 23. June 2015

EAC extraction logfile from 3. March 2016, 4:07

Lady Gaga / The Remix

Used drive  : ASUS    BW-12D1S-U   Adapter: 1  ID: 1

Read mode               : Secure
Utilize accurate stream : Yes
Defeat audio cache      : Yes
Make use of C2 pointers : No

Read offset correction                      : 667
Overread into Lead-In and Lead-Out          : No
Fill up missing offset samples with silence : Yes
Delete leading and trailing silent blocks   : No
Null samples used in CRC calculations       : Yes
Used interface                              : Native Win32 interface for Win NT & 2000
Gap handling                                : Appended to previous track

Used output format              : User Defined Encoder
Selected bitrate                : 768 kBit/s
Quality                         : High
Add ID3 tag                     : No
Command line compressor         : D:\Program Files (x86)\Exact Audio Copy\Flac\flac.exe
Additional command line options : -8 -V -T "TITLE=%title%" -T "ARTIST=%artist%" -T "ALBUMARTIST=%albumartist%" -T "ALBUM=%albumtitle%" -T "DATE=%year%" -T "TRACKNUMBER=%tracknr%" -T "TRACKTOTAL=%numtracks%" -T "GENRE=%genre%" -T "COMMENT=%comment%" -T "PERFORMER=%albuminterpret%" -T "COMPOSER=%composer%" %source% -o %dest%

TOC of the extracted CD

     Track |   Start  |  Length  | Start sector | End sector
    ---------------------------------------------------------
        1  |  0:00.00 |  6:14.62 |         0    |    28111
        2  |  6:14.62 |  4:03.02 |     28112    |    46338
        3  | 10:17.64 |  5:21.24 |     46339    |    70437
        4  | 15:39.13 |  3:49.22 |     70438    |    87634
        5  | 19:28.35 |  3:20.17 |     87635    |   102651
        6  | 22:48.52 |  6:37.11 |    102652    |   132437
        7  | 29:25.63 |  3:57.14 |    132438    |   150226
        8  | 33:23.02 |  4:56.52 |    150227    |   172478
        9  | 38:19.54 |  5:13.71 |    172479    |   196024
       10  | 43:33.50 |  3:58.62 |    196025    |   213936
       11  | 47:32.37 |  6:10.61 |    213937    |   241747
       12  | 53:43.23 |  4:17.16 |    241748    |   261038
       13  | 58:00.39 |  3:14.20 |    261039    |   275608
       14  | 61:14.59 |  2:50.05 |    275609    |   288363
       15  | 64:04.64 |  3:38.72 |    288364    |   304785
       16  | 67:43.61 |  4:50.44 |    304786    |   326579
       17  | 72:34.30 |  4:48.69 |    326580    |   348248

Track  1

     Filename D:\Video&Music&Books\2010 - The Remix\01.Lady Gaga-Just Dance (Richard Vission remix).wav

     Pre-gap length  0:00:02.00

     Peak level 99.9 %
     Extraction speed 4.7 X
     Track quality 99.9 %
     Test CRC 155B5186
     Copy CRC 155B5186
     Accurately ripped (confidence 67)  [16471082]  (AR v2)
     Copy OK

Track  2

     Filename D:\Video&Music&Books\2010 - The Remix\02.Lady Gaga-Poker Face (LLG vs. GLG radio mix remix).wav

     Pre-gap length  0:00:00.72

     Peak level 88.0 %
     Extraction speed 4.7 X
     Track quality 99.9 %
     Test CRC 6E23C7C9
     Copy CRC 6E23C7C9
     Accurately ripped (confidence 67)  [12481BC2]  (AR v2)
     Copy OK

Track  3

     Filename D:\Video&Music&Books\2010 - The Remix\03.Lady Gaga feat. Marilyn Manson-LoveGame (Chew Fu Ghettohouse mix).wav

     Pre-gap length  0:00:01.08

     Peak level 85.9 %
     Extraction speed 5.9 X
     Track quality 100.0 %
     Test CRC 2755045B
     Copy CRC 2755045B
     Accurately ripped (confidence 67)  [32312FBE]  (AR v2)
     Copy OK

Track  4

     Filename D:\Video&Music&Books\2010 - The Remix\04.Lady Gaga-Eh, Eh (Nothing Else I Can Say) (FrankMusik remix).wav

     Pre-gap length  0:00:00.68

     Peak level 95.5 %
     Extraction speed 6.1 X
     Track quality 100.0 %
     Test CRC 820A19B4
     Copy CRC 820A19B4
     Accurately ripped (confidence 67)  [1A9A20DB]  (AR v2)
     Copy OK

Track  5

     Filename D:\Video&Music&Books\2010 - The Remix\05.Lady Gaga-Paparazzi (Stuart Price remix).wav

     Pre-gap length  0:00:00.72

     Peak level 99.9 %
     Extraction speed 6.2 X
     Track quality 100.0 %
     Test CRC 1E9CA5A4
     Copy CRC 1E9CA5A4
     Accurately ripped (confidence 66)  [8D9D0CC8]  (AR v2)
     Copy OK

Track  6

     Filename D:\Video&Music&Books\2010 - The Remix\06.Lady Gaga-Boys Boys Boys (Manhattan Clique remix).wav

     Pre-gap length  0:00:00.70

     Peak level 89.0 %
     Extraction speed 7.0 X
     Track quality 100.0 %
     Test CRC 623CE7D0
     Copy CRC 623CE7D0
     Accurately ripped (confidence 66)  [648A9410]  (AR v2)
     Copy OK

Track  7

     Filename D:\Video&Music&Books\2010 - The Remix\07.Lady Gaga-The Fame (Glam as You remix).wav

     Pre-gap length  0:00:01.12

     Peak level 96.5 %
     Extraction speed 6.9 X
     Track quality 100.0 %
     Test CRC A0E4F964
     Copy CRC A0E4F964
     Accurately ripped (confidence 66)  [5B08CBE7]  (AR v2)
     Copy OK

Track  8

     Filename D:\Video&Music&Books\2010 - The Remix\08.Lady Gaga-Bad Romance (Starsmith remix).wav

     Pre-gap length  0:00:00.73

     Peak level 67.2 %
     Extraction speed 7.4 X
     Track quality 100.0 %
     Test CRC 84736BD0
     Copy CRC 84736BD0
     Accurately ripped (confidence 67)  [04730A8D]  (AR v2)
     Copy OK

Track  9

     Filename D:\Video&Music&Books\2010 - The Remix\09.Lady Gaga feat. Beyonce-Telephone (Passion Pit remix).wav

     Pre-gap length  0:00:00.70

     Peak level 99.9 %
     Extraction speed 7.6 X
     Track quality 100.0 %
     Test CRC AA1FF475
     Copy CRC AA1FF475
     Accurately ripped (confidence 67)  [A7180B0A]  (AR v2)
     Copy OK

Track 10

     Filename D:\Video&Music&Books\2010 - The Remix\10.Lady Gaga-Alejandro (Sound of Arrows remix).wav

     Pre-gap length  0:00:01.12

     Peak level 99.8 %
     Extraction speed 7.6 X
     Track quality 100.0 %
     Test CRC 341EB479
     Copy CRC 341EB479
     Accurately ripped (confidence 66)  [6EE7D2A1]  (AR v2)
     Copy OK

Track 11

     Filename D:\Video&Music&Books\2010 - The Remix\11.Lady Gaga-Dance in the Dark (Monarchy 'Stylites' remix).wav

     Pre-gap length  0:00:01.22

     Peak level 86.0 %
     Extraction speed 7.6 X
     Track quality 99.9 %
     Test CRC 4C08C325
     Copy CRC 4C08C325
     Accurately ripped (confidence 67)  [F62E8A84]  (AR v2)
     Copy OK

Track 12

     Filename D:\Video&Music&Books\2010 - The Remix\12.Lady Gaga-Just Dance (Deewaan remix).wav

     Pre-gap length  0:00:01.25

     Peak level 79.3 %
     Extraction speed 8.2 X
     Track quality 100.0 %
     Test CRC 514CC87B
     Copy CRC 514CC87B
     Accurately ripped (confidence 65)  [39E63357]  (AR v2)
     Copy OK

Track 13

     Filename D:\Video&Music&Books\2010 - The Remix\13.Lady Gaga-LoveGame (Robots to Mars remix).wav

     Pre-gap length  0:00:01.35

     Peak level 99.9 %
     Extraction speed 8.0 X
     Track quality 100.0 %
     Test CRC 9D195AC8
     Copy CRC 9D195AC8
     Accurately ripped (confidence 67)  [C3E2FBF0]  (AR v2)
     Copy OK

Track 14

     Filename D:\Video&Music&Books\2010 - The Remix\14.Lady Gaga-Eh, Eh (Nothing Else I Can Say) (Pet Shop Boys remix).wav

     Pre-gap length  0:00:00.60

     Peak level 86.9 %
     Extraction speed 7.9 X
     Track quality 100.0 %
     Test CRC ED18E52A
     Copy CRC ED18E52A
     Accurately ripped (confidence 67)  [6429DA96]  (AR v2)
     Copy OK

Track 15

     Filename D:\Video&Music&Books\2010 - The Remix\15.Lady Gaga-Poker Face (live from the Cherrytree House).wav

     Pre-gap length  0:00:00.54

     Peak level 100.0 %
     Extraction speed 8.3 X
     Track quality 100.0 %
     Test CRC DED653FB
     Copy CRC DED653FB
     Accurately ripped (confidence 67)  [60AB6047]  (AR v2)
     Copy OK

Track 16

     Filename D:\Video&Music&Books\2010 - The Remix\16.Lady Gaga-Bad Romance (Grum remix).wav

     Pre-gap length  0:00:00.66

     Peak level 99.9 %
     Extraction speed 8.9 X
     Track quality 100.0 %
     Test CRC D5EEE390
     Copy CRC D5EEE390
     Accurately ripped (confidence 68)  [CF8D08BE]  (AR v2)
     Copy OK

Track 17

     Filename D:\Video&Music&Books\2010 - The Remix\17.Lady Gaga feat. Beyonce-Telephone (Alphabeat remix).wav

     Pre-gap length  0:00:00.54

     Peak level 82.0 %
     Extraction speed 9.1 X
     Track quality 100.0 %
     Test CRC 73B714E0
     Copy CRC 73B714E0
     Accurately ripped (confidence 66)  [2B49718A]  (AR v2)
     Copy OK

All tracks accurately ripped

No errors occurred

End of status report

---- CUETools DB Plugin V2.1.6

[CTDB TOCID: DzTOZz4XIPS7tCKz0V.bbZlbbxA-] found
Submit result: DzTOZz4XIPS7tCKz0V.bbZlbbxA- has been confirmed
Track | CTDB Status
  1   | (92/94) Accurately ripped
  2   | (93/94) Accurately ripped
  3   | (92/94) Accurately ripped
  4   | (94/94) Accurately ripped
  5   | (94/94) Accurately ripped
  6   | (94/94) Accurately ripped
  7   | (94/94) Accurately ripped
  8   | (94/94) Accurately ripped
  9   | (93/94) Accurately ripped
 10   | (93/94) Accurately ripped
 11   | (93/94) Accurately ripped
 12   | (92/94) Accurately ripped
 13   | (94/94) Accurately ripped
 14   | (93/94) Accurately ripped
 15   | (93/94) Accurately ripped
 16   | (93/94) Accurately ripped
 17   | (91/94) Accurately ripped

==== Log checksum 9242A5F3C1FF7BB277771608DE87DE92B0E523C40F8281FD86ED3F0B1889D7FC ====

Код:
Код: Выделить всё
-----------------------

DON'T MODIFY THIS FILE

-----------------------

PERFORMER: auCDtect Task Manager, ver. 1.6.0 RC1 build 1.6.0.1
Copyright (c) 2008-2010 y-soft. All rights reserved
http:/y-soft.org

ANALYZER: auCDtect: CD records authenticity detector, version 0.8.2
Copyright (c) 2004 Oleg Berngardt. All rights reserved.
Copyright (c) 2004 Alexander Djourik. All rights reserved.

FILE: 17.Lady Gaga feat. Beyonce-Telephone (Alphabeat remix).flac
  Size: 37952864 Hash: FED38641D7A515CE803386B50E431BE5 Accuracy: -m0
  Conclusion: CDDA 100%
  Signature: 06A9E8AFF0734D1B67006D5C3A760592C763D11A
FILE: 16.Lady Gaga-Bad Romance (Grum remix).flac
  Size: 34285718 Hash: 14C5388CB4C08CD580129965949AAE84 Accuracy: -m0
  Conclusion: CDDA 100%
  Signature: DF95CBB0FD80D627B19647EF6B4A409580FF14C4
FILE: 15.Lady Gaga-Poker Face (live from the Cherrytree House).flac
  Size: 18885834 Hash: 04DFDBF358D9883B63333541A15B6C70 Accuracy: -m0
  Conclusion: CDDA 100%
  Signature: DB2AB46654422413348A8FA116DEE32D15376F20
FILE: 14.Lady Gaga-Eh, Eh (Nothing Else I Can Say) (Pet Shop Boys remix).flac
  Size: 22208314 Hash: AFC10137D7909ED549FB1BBB1064B59C Accuracy: -m0
  Conclusion: CDDA 100%
  Signature: 7D87D47E22562892407D1279A46012FA26474A49
FILE: 13.Lady Gaga-LoveGame (Robots to Mars remix).flac
  Size: 22735728 Hash: E87FA10C657EAD9A628A4E4C1DFCA1A5 Accuracy: -m0
  Conclusion: CDDA 99%
  Signature: C6390E5A6B7DB84B5855E76696FE99B4BD5BB3E4
FILE: 12.Lady Gaga-Just Dance (Deewaan remix).flac
  Size: 32289661 Hash: 2503B6A6801056E5FFDE20E0E6A41492 Accuracy: -m0
  Conclusion: CDDA 99%
  Signature: 41DF3AD798C4BFE638CC2A69C74F3E143E9F1910
FILE: 11.Lady Gaga-Dance in the Dark (Monarchy 'Stylites' remix).flac
  Size: 46110862 Hash: E7CDEBA390D3A20D14EB2EC0DA28A245 Accuracy: -m0
  Conclusion: CDDA 100%
  Signature: B3494930D869B1278BE2A4F3AB4DFDB2D74835AE
FILE: 10.Lady Gaga-Alejandro (Sound of Arrows remix).flac
  Size: 27070711 Hash: 1ECECE7FF354BCFBD71C91DC576736B1 Accuracy: -m0
  Conclusion: CDDA 100%
  Signature: DDDBEFFD02C91C324EAF0759A87568FC7891A863
FILE: 09.Lady Gaga feat. Beyonce-Telephone (Passion Pit remix).flac
  Size: 33765548 Hash: FAE7887405AF8E95312F40E53F4947FE Accuracy: -m0
  Conclusion: CDDA 100%
  Signature: 94A0F27859B47CBF715FC8F65898F24645D4D760
FILE: 08.Lady Gaga-Bad Romance (Starsmith remix).flac
  Size: 39950713 Hash: 0A491E1827AC357204F6FEDD2420971A Accuracy: -m0
  Conclusion: CDDA 100%
  Signature: D552191A0022509F4506FDB83C6B197CDFC78731
FILE: 07.Lady Gaga-The Fame (Glam as You remix).flac
  Size: 32253102 Hash: 835FA5FE93274FEB555AA41BF7464CC3 Accuracy: -m0
  Conclusion: CDDA 100%
  Signature: DA80CF671AA935DC70662047A3D113CC6A223E97
FILE: 06.Lady Gaga-Boys Boys Boys (Manhattan Clique remix).flac
  Size: 51372134 Hash: 78318CCC3C78551125B232F6F0E10EE9 Accuracy: -m0
  Conclusion: CDDA 100%
  Signature: F5F57CDA7390F6B0FAD5448D30D6EB1CC76C6CB0
FILE: 05.Lady Gaga-Paparazzi (Stuart Price remix).flac
  Size: 24466548 Hash: D907180FDC1B73EF752B571C9E20D162 Accuracy: -m0
  Conclusion: CDDA 100%
  Signature: 73AD49D7F1053785225456B7BC711ABC56030402
FILE: 04.Lady Gaga-Eh, Eh (Nothing Else I Can Say) (FrankMusik remix).flac
  Size: 27488283 Hash: F038645CC0A8683A755D4AA906879768 Accuracy: -m0
  Conclusion: CDDA 100%
  Signature: 9FA606174F6679AC744E6A5DBB5EDC3DB38AB125
FILE: 03.Lady Gaga feat. Marilyn Manson-LoveGame (Chew Fu Ghettohouse mix).flac
  Size: 43190587 Hash: 59D349099009FF7728B7EF5C3D10A5EB Accuracy: -m0
  Conclusion: CDDA 100%
  Signature: 9AE2036E5EAF5FDCC90E9DF44802781B099F0912
FILE: 02.Lady Gaga-Poker Face (LLG vs. GLG radio mix remix).flac
  Size: 32249446 Hash: 7C5B39EF5EDC00C00068D82878FA7985 Accuracy: -m0
  Conclusion: MPEG 95%
  Signature: E49AA15396755600C6CF6D11804E666E2F7D67D6
FILE: 01.Lady Gaga-Just Dance (Richard Vission remix).flac
  Size: 46898626 Hash: 320FDBC6944317C52608471015AEB098 Accuracy: -m0
  Conclusion: CDDA 100%
  Signature: 90FA03BAF7DF565DAA6D5EEF19BA5D18A5FEC641

Время раздачи: 24/7 (круглосуточно) - до появления первых 3-5 скачавших
 
Не забывайте говорить Спасибо. Не уходите с раздачи!   
Торрент: Зарегистрирован [03 мар 2016, 12:11] Скачать торрент
Скачать торрент
[ Размер 47.73 КБ / Просмотров 42 ]
Статус:
Проверен
 
.torrent скачан: 0 раз
Хэш: ed2b9b2b066dff12eee87660d6f8c6d3e1f213c2
Размер: 547.51 МБ (574 104 727 байт)
Стать Автором раздачи
 
Аватара пользователя
Главный редактор
Главный редактор
 
Раздал: 15.43 ТБ
Скачал: 13.78 ТБ
Ратио: 1.120
Сообщения: 65451
Зарегистрирован: 01 мар 2011, 23:07


  • Похожие торренты
    Ответы
    Просмотры
    Последнее сообщение

Вернуться в House, Techno, Electro, Minimal (транзит Lossless)

Ресурс не предоставляет электронные версии произведений, а занимается лишь коллекционированием и каталогизацией ссылок, присылаемых и публикуемых на форуме нашими читателями. Если вы являетесь правообладателем какого-либо представленного материала и не желаете чтобы ссылка на него находилась в нашем каталоге, свяжитесь с нами и мы незамедлительно удалим её. Файлы для обмена на трекере предоставлены пользователями сайта, и администрация не несёт ответственности за их содержание. Просьба не заливать файлы, защищенные авторскими правами, а также файлы нелегального содержания!
cron