VA - Потанцуем ? (2000) S&V #03/2000 [FLAC|Lossless|tracks + .cue] <Euro House>

 
 Статистика раздачи 
Размер: 370.74 МБ   |  Зарегистрирован: 02 мар 2016, 17:43   |   .torrent скачан: 0 раз
Сидеров: 1  [ 0 байт/сек ]     Личеров: 0  [ 0 байт/сек ]  
  

VA - Потанцуем ? (2000) S&V #03/2000 [FLAC|Lossless|tracks + .cue] <Euro House>

Сообщение i926 » 02 мар 2016, 17:44

VA - Потанцуем ? (2000) S&V #03/2000

Год: 2000
Жанр: Euro House
Издание: Stereo & Video – S&V 023, RMG Records – none
Продолжительность: 00:54:53

Источник (релизер): blandrew®

Кодек: FLAC
Битрейт: Lossless
Тип рипа: image + .cue

Треклист:4
01. DJ BoBo - Together (3:41)
02. Ann Lee - 2 Times (3:50)
03. DJ Jean - The Launch (3:39)
04. T-Spoon - Summer Love (3:52)
05. Maarja - Candle (4:02)
06. Lutricia McNeal - 365 Days (3:23)
07. 666 - Bomba (3:46)
08. DJ Visage - The Return (3:31)
09. North West (2) - No Scrubs (3:09)
10. Poco Loco Gang - Tropical Paradise (3:45)
11. DJ Disco - Reach 2 The Top (3:00)
12. Three Drives On A Vinyl - Turkey 2000 (3:34)
13. MC Bass - Louder (3:43)
14. Dhany - Quiero Respirar (4:01)
15. The Latin Lou & Mambo All Stars - Mambo 5 (Spanish Version) (3:51)
Код:
Код: Выделить всё
Exact Audio Copy V1.1 from 23. June 2015

EAC extraction logfile from 2. March 2016, 7:48

Various Artists / Потанцуем ?

Used drive  : ASUS    BW-12D1S-U   Adapter: 1  ID: 1

Read mode               : Secure
Utilize accurate stream : Yes
Defeat audio cache      : Yes
Make use of C2 pointers : No

Read offset correction                      : 667
Overread into Lead-In and Lead-Out          : No
Fill up missing offset samples with silence : Yes
Delete leading and trailing silent blocks   : No
Null samples used in CRC calculations       : Yes
Used interface                              : Native Win32 interface for Win NT & 2000
Gap handling                                : Appended to previous track

Used output format              : User Defined Encoder
Selected bitrate                : 768 kBit/s
Quality                         : High
Add ID3 tag                     : No
Command line compressor         : D:\Program Files (x86)\Exact Audio Copy\Flac\flac.exe
Additional command line options : -8 -V -T "TITLE=%title%" -T "ARTIST=%artist%" -T "ALBUMARTIST=%albumartist%" -T "ALBUM=%albumtitle%" -T "DATE=%year%" -T "TRACKNUMBER=%tracknr%" -T "TRACKTOTAL=%numtracks%" -T "GENRE=%genre%" -T "COMMENT=%comment%" -T "PERFORMER=%albuminterpret%" -T "COMPOSER=%composer%" %source% -o %dest%

TOC of the extracted CD

     Track |   Start  |  Length  | Start sector | End sector
    ---------------------------------------------------------
        1  |  0:00.00 |  3:41.68 |         0    |    16642
        2  |  3:41.68 |  3:50.27 |     16643    |    33919
        3  |  7:32.20 |  3:39.19 |     33920    |    50363
        4  | 11:11.39 |  3:52.71 |     50364    |    67834
        5  | 15:04.35 |  4:02.39 |     67835    |    86023
        6  | 19:06.74 |  3:23.40 |     86024    |   101288
        7  | 22:30.39 |  3:46.33 |    101289    |   118271
        8  | 26:16.72 |  3:31.03 |    118272    |   134099
        9  | 29:48.00 |  3:09.11 |    134100    |   148285
       10  | 32:57.11 |  3:45.35 |    148286    |   165195
       11  | 36:42.46 |  3:00.34 |    165196    |   178729
       12  | 39:43.05 |  3:34.48 |    178730    |   194827
       13  | 43:17.53 |  3:43.02 |    194828    |   211554
       14  | 47:00.55 |  4:01.66 |    211555    |   229695
       15  | 51:02.46 |  3:51.54 |    229696    |   247074

Track  1

     Filename D:\Video&Music&Books\2000 - Потанцуем (S&V)\01.DJ BoBo-Together.wav

     Pre-gap length  0:00:02.00

     Peak level 94.5 %
     Extraction speed 4.3 X
     Track quality 100.0 %
     Test CRC A712A959
     Copy CRC A712A959
     Accurately ripped (confidence 1)  [9BE17512]  (AR v2)
     Copy OK

Track  2

     Filename D:\Video&Music&Books\2000 - Потанцуем (S&V)\02.Ann Lee-2 Times.wav

     Pre-gap length  0:00:02.00

     Peak level 79.7 %
     Extraction speed 4.7 X
     Track quality 100.0 %
     Test CRC 2E316E52
     Copy CRC 2E316E52
     Accurately ripped (confidence 1)  [79343A3A]  (AR v2)
     Copy OK

Track  3

     Filename D:\Video&Music&Books\2000 - Потанцуем (S&V)\03.DJ Jean-The Launch.wav

     Pre-gap length  0:00:02.00

     Peak level 88.5 %
     Extraction speed 5.1 X
     Track quality 100.0 %
     Test CRC 65B6B3CE
     Copy CRC 65B6B3CE
     Accurately ripped (confidence 1)  [D1376A7C]  (AR v2)
     Copy OK

Track  4

     Filename D:\Video&Music&Books\2000 - Потанцуем (S&V)\04.T-Spoon-Summer Love.wav

     Pre-gap length  0:00:02.00

     Peak level 99.9 %
     Extraction speed 5.4 X
     Track quality 100.0 %
     Test CRC F5100E03
     Copy CRC F5100E03
     Accurately ripped (confidence 1)  [CD1C5BDB]  (AR v2)
     Copy OK

Track  5

     Filename D:\Video&Music&Books\2000 - Потанцуем (S&V)\05.Maarja-Candle.wav

     Pre-gap length  0:00:02.00

     Peak level 87.0 %
     Extraction speed 5.7 X
     Track quality 100.0 %
     Test CRC E22AC51C
     Copy CRC E22AC51C
     Accurately ripped (confidence 1)  [A6CA0457]  (AR v2)
     Copy OK

Track  6

     Filename D:\Video&Music&Books\2000 - Потанцуем (S&V)\06.Lutricia McNeal-365 Days.wav

     Pre-gap length  0:00:02.00

     Peak level 92.9 %
     Extraction speed 5.1 X
     Track quality 99.9 %
     Test CRC 16772AB1
     Copy CRC 16772AB1
     Accurately ripped (confidence 1)  [D2ECAC4E]  (AR v2)
     Copy OK

Track  7

     Filename D:\Video&Music&Books\2000 - Потанцуем (S&V)\07.666-Bomba.wav

     Pre-gap length  0:00:02.00

     Peak level 95.0 %
     Extraction speed 6.2 X
     Track quality 100.0 %
     Test CRC 9F2BD153
     Copy CRC 9F2BD153
     Accurately ripped (confidence 1)  [FB86BE4D]  (AR v2)
     Copy OK

Track  8

     Filename D:\Video&Music&Books\2000 - Потанцуем (S&V)\08.DJ Visage-The Return.wav

     Pre-gap length  0:00:02.00

     Peak level 65.1 %
     Extraction speed 6.4 X
     Track quality 100.0 %
     Test CRC C8DD0B35
     Copy CRC C8DD0B35
     Accurately ripped (confidence 1)  [4A26D9BD]  (AR v2)
     Copy OK

Track  9

     Filename D:\Video&Music&Books\2000 - Потанцуем (S&V)\09.North West (2)-No Scrubs.wav

     Pre-gap length  0:00:02.00

     Peak level 89.7 %
     Extraction speed 6.4 X
     Track quality 100.0 %
     Test CRC 789CDCB7
     Copy CRC 789CDCB7
     Accurately ripped (confidence 1)  [B5124647]  (AR v2)
     Copy OK

Track 10

     Filename D:\Video&Music&Books\2000 - Потанцуем (S&V)\10.Poco Loco Gang-Tropical Paradise.wav

     Pre-gap length  0:00:02.00

     Peak level 89.5 %
     Extraction speed 6.8 X
     Track quality 100.0 %
     Test CRC 8F3736C4
     Copy CRC 8F3736C4
     Accurately ripped (confidence 1)  [555584B4]  (AR v2)
     Copy OK

Track 11

     Filename D:\Video&Music&Books\2000 - Потанцуем (S&V)\11.DJ Disco-Reach 2 The Top.wav

     Pre-gap length  0:00:02.00

     Peak level 99.2 %
     Extraction speed 6.7 X
     Track quality 100.0 %
     Test CRC 7EED94F2
     Copy CRC 7EED94F2
     Accurately ripped (confidence 1)  [8052B5F1]  (AR v2)
     Copy OK

Track 12

     Filename D:\Video&Music&Books\2000 - Потанцуем (S&V)\12.Three Drives On A Vinyl-Turkey 2000.wav

     Pre-gap length  0:00:02.00

     Peak level 93.6 %
     Extraction speed 7.1 X
     Track quality 100.0 %
     Test CRC 9200D1C1
     Copy CRC 9200D1C1
     Accurately ripped (confidence 1)  [B95E1865]  (AR v2)
     Copy OK

Track 13

     Filename D:\Video&Music&Books\2000 - Потанцуем (S&V)\13.MC Bass-Louder.wav

     Pre-gap length  0:00:02.00

     Peak level 88.5 %
     Extraction speed 7.2 X
     Track quality 100.0 %
     Test CRC 1E23966F
     Copy CRC 1E23966F
     Accurately ripped (confidence 1)  [3A725193]  (AR v2)
     Copy OK

Track 14

     Filename D:\Video&Music&Books\2000 - Потанцуем (S&V)\14.Dhany-Quiero Respirar.wav

     Pre-gap length  0:00:02.00

     Peak level 83.4 %
     Extraction speed 7.5 X
     Track quality 100.0 %
     Test CRC 56CFB2F7
     Copy CRC 56CFB2F7
     Accurately ripped (confidence 1)  [A4BE5C9A]  (AR v2)
     Copy OK

Track 15

     Filename D:\Video&Music&Books\2000 - Потанцуем (S&V)\15.The Latin Lou & Mambo All Stars-Mambo 5 (Spanish Version).wav

     Pre-gap length  0:00:02.00

     Peak level 80.3 %
     Extraction speed 7.7 X
     Track quality 100.0 %
     Test CRC CA8D0EF1
     Copy CRC CA8D0EF1
     Accurately ripped (confidence 1)  [469CD678]  (AR v2)
     Copy OK

All tracks accurately ripped

No errors occurred

End of status report

---- CUETools DB Plugin V2.1.6

[CTDB TOCID: vcS3X.qMAsFuMH8rw2tdAfwQvc4-] found
Submit result: vcS3X.qMAsFuMH8rw2tdAfwQvc4- has been confirmed
Track | CTDB Status
  1   | (5/5) Accurately ripped
  2   | (5/5) Accurately ripped
  3   | (5/5) Accurately ripped
  4   | (5/5) Accurately ripped
  5   | (5/5) Accurately ripped
  6   | (5/5) Accurately ripped
  7   | (5/5) Accurately ripped
  8   | (5/5) Accurately ripped
  9   | (5/5) Accurately ripped
 10   | (5/5) Accurately ripped
 11   | (5/5) Accurately ripped
 12   | (5/5) Accurately ripped
 13   | (5/5) Accurately ripped
 14   | (5/5) Accurately ripped
 15   | (5/5) Accurately ripped

==== Log checksum 60DA5C34B8E89C584FF162612D67FE3B96951C578E3E6052FBFE7EE9476009A3 ====

Код:
Код: Выделить всё
-----------------------

DON'T MODIFY THIS FILE

-----------------------

PERFORMER: auCDtect Task Manager, ver. 1.6.0 RC1 build 1.6.0.1
Copyright (c) 2008-2010 y-soft. All rights reserved
http:/y-soft.org

ANALYZER: auCDtect: CD records authenticity detector, version 0.8.2
Copyright (c) 2004 Oleg Berngardt. All rights reserved.
Copyright (c) 2004 Alexander Djourik. All rights reserved.

FILE: 15.The Latin Lou & Mambo All Stars-Mambo 5 (Spanish Version).flac
  Size: 27755193 Hash: 659DAE761E7ED0298DBEB875E9352C55 Accuracy: -m0
  Conclusion: CDDA 100%
  Signature: 36154772A559C4403EDA48F227FBF581122F09BA
FILE: 14.Dhany-Quiero Respirar.flac
  Size: 29019033 Hash: 6A257FDFFD233A9CB1C6A8635032B8DD Accuracy: -m0
  Conclusion: CDDA 100%
  Signature: E6DF71C4C8D41778C76DAD0149AEFEE66053BDCF
FILE: 13.MC Bass-Louder.flac
  Size: 24504350 Hash: E70BC7BFB51CC17DC6A33F7B2D00B2C3 Accuracy: -m0
  Conclusion: CDDA 100%
  Signature: F57842E0045770D50669E5343D80063B3A32954E
FILE: 12.Three Drives On A Vinyl-Turkey 2000.flac
  Size: 24517772 Hash: 5B5D0120A626BA903C0AF7E295F7ADB9 Accuracy: -m0
  Conclusion: CDDA 100%
  Signature: FFE7D9418872CABA9ED3B67C2F218DC22865AB8C
FILE: 11.DJ Disco-Reach 2 The Top.flac
  Size: 21212372 Hash: D2ADDF41BA017BB23BDE41102D4D9DCF Accuracy: -m0
  Conclusion: CDDA 100%
  Signature: 9BDF9928853A3725817E64F26F8DFE586471AA6B
FILE: 10.Poco Loco Gang-Tropical Paradise.flac
  Size: 27127018 Hash: 1E3406A1BF73D9ECC78B9D1742A7EA9F Accuracy: -m0
  Conclusion: CDDA 100%
  Signature: 9B8D9521B081ABD0EC483DD3F071B50C1A8F8B41
FILE: 09.North West (2)-No Scrubs.flac
  Size: 22635248 Hash: 11D75B0604E2E29A3C0467004E0AD58B Accuracy: -m0
  Conclusion: CDDA 100%
  Signature: 9EEE889C5A2A7A249BFD744EC392FDDF96BE6C74
FILE: 08.DJ Visage-The Return.flac
  Size: 27985113 Hash: 4BA45F23FCA18404EA0D90683DF6CEE0 Accuracy: -m0
  Conclusion: CDDA 100%
  Signature: 880C5168AD86C8AE73938C0C1F09CB45212D81E7
FILE: 07.666-Bomba.flac
  Size: 28261496 Hash: A41BCE22B3A78B805227942C33E91AF9 Accuracy: -m0
  Conclusion: CDDA 99%
  Signature: F4ACFB471003D5ACA04B74AFA7C93F055985B639
FILE: 06.Lutricia McNeal-365 Days.flac
  Size: 26164977 Hash: 1BFB208C19921C775DFB719EB6B9E420 Accuracy: -m0
  Conclusion: CDDA 99%
  Signature: B584D19AB47BA8BACE7938DB504DC68E3C2103CE
FILE: 05.Maarja-Candle.flac
  Size: 29779735 Hash: BBE4741F3984450DDF44CC9D39FD3E63 Accuracy: -m0
  Conclusion: CDDA 99%
  Signature: F6C6CE0D2DFFE28DFA11EA578A645B73A1DAA3DD
FILE: 04.T-Spoon-Summer Love.flac
  Size: 30239122 Hash: AABDEABEEAEBE9FF8251D4EADEF60B32 Accuracy: -m0
  Conclusion: CDDA 100%
  Signature: 05DC2D0CDE64D7504A24E43FAE8B2C771C18164D
FILE: 03.DJ Jean-The Launch.flac
  Size: 16534235 Hash: 4AE4E077B2951E6EC20B48EC91EDF763 Accuracy: -m0
  Conclusion: CDDA 100%
  Signature: 9EBE4CEE59FB55B17904CC489A21E634FAD7ED28
FILE: 02.Ann Lee-2 Times.flac
  Size: 22482055 Hash: 79AED6FDA1EAFEA11EBD2B95DB438EFD Accuracy: -m0
  Conclusion: CDDA 100%
  Signature: B18D844C8E6D383A385CFC4D1BFB7F056B451A28
FILE: 01.DJ BoBo-Together.flac
  Size: 28965180 Hash: FA2FC5C702E93C36C94F4CE6F4BA5144 Accuracy: -m0
  Conclusion: CDDA 100%
  Signature: A1D5D64E870206AF6E8AC80C3C63589E2D6D40BB

Время раздачи: 24/7 (круглосуточно) - до появления первых 3-5 скачавших
#7
Код: Выделить всё
[b]Поглощение/вытеснение [/b]
[b]Только с согласия релизера[/b]
[b][u][i]Pashketan[/b][/i][/u]

 
Не забывайте говорить Спасибо. Не уходите с раздачи!   
Торрент: Зарегистрирован [02 мар 2016, 17:43] Скачать торрент
Скачать торрент
[ Размер 33.44 КБ / Просмотров 26 ]
Статус:
Проверен
 
.torrent скачан: 0 раз
Хэш: 76ad2485023a80a894c9043b6c20e923f6ff6f52
Размер: 370.74 МБ (388 743 928 байт)
Стать Автором раздачи
 
Аватара пользователя
Главный редактор
Главный редактор
 
Раздал: 15.43 ТБ
Скачал: 13.78 ТБ
Ратио: 1.120
Сообщения: 65446
Зарегистрирован: 01 мар 2011, 23:07


  • Похожие торренты
    Ответы
    Просмотры
    Последнее сообщение

Вернуться в House, Techno, Electro, Minimal (транзит Lossless)

Ресурс не предоставляет электронные версии произведений, а занимается лишь коллекционированием и каталогизацией ссылок, присылаемых и публикуемых на форуме нашими читателями. Если вы являетесь правообладателем какого-либо представленного материала и не желаете чтобы ссылка на него находилась в нашем каталоге, свяжитесь с нами и мы незамедлительно удалим её. Файлы для обмена на трекере предоставлены пользователями сайта, и администрация не несёт ответственности за их содержание. Просьба не заливать файлы, защищенные авторскими правами, а также файлы нелегального содержания!
cron