Колония / Colony (2016) WEB-DLRip [H.264] (сезон 1, серии 1-7 из 10) BaibaKo [MP4|720x400]

 
 Статистика раздачи 
Размер: 3.95 ГБ   |  Зарегистрирован: 28 фев 2016, 14:45   |   .torrent скачан: 0 раз
Сидеров: 1  [ 0 байт/сек ]     Личеров: 0  [ 0 байт/сек ]  
  

Колония / Colony (2016) WEB-DLRip [H.264] (сезон 1, серии 1-7 из 10) BaibaKo [MP4|720x400]

Сообщение i926 » 28 фев 2016, 14:45

Колония / Colony (2016) WEB-DLRip (сезон 1, серии 1-7 из 10) BaibaKo
«The invasion is over. The fight is about to begin»

Производство: США / Legendary Television
Жанр: фантастика

Режиссер: Хуан Хосе Кампанелла
Актеры: Джош Холлоуэй, Сара Уэйн Кэллис, Питер Джекобсон, Аманда Ригетти, Алекс Нюстадтер, Изабелла Крамп, Гонсало Менендес, Элли Уокер, Либэ Барер, Д.Дж. Бликенстафф и др.

Описание:
В недалёком будущем семья пытается спасти жителей оккупированного Лос-Анджелеса. Бывший агент ФБР Уилл Боумэн и его супруга Кейти пробуют вернуть сына. Уилл готов работать на новое правительство, тогда как многие в городе поддерживают повстанцев. Лидер режима Прокси Снайдер предлагает Уиллу сделку, которая изменит их жизнь и заставит семью пойти на большой риск.


Дата мировой премьеры: 14 января 2016

Продолжительность: ~ 00:50:00 серия
Качество видео: WEB-DLRip
Перевод: Многоголосый закадровый, профессиональный - BaibaKo
Автор перевода: Фиона Кудреватых
Озвучка: Ольга Мотрич, Татьяна Оболевич, Руслан Иванов и Олекса Мельник
Реклама: присутствуют видео, аудио, текстовые вставки рекламы.

Видео: AVC/H.264 (Baseline@L3.1), 720x400 (16:9), ~1536 Кбит/сек
Аудио #1: AAC, 2 канала, 160 Кбит/сек - русский (многоголосый закадровый)
Аудио #2: AAC, 2 канала, 160 Кбит/сек - английский (оригинальный)
Код:
Код: Выделить всё
Полное имя                               : F:\Colony_s1_WEB-DLRip_x264_BaibaKo_[NNM-CLUB]\Colony.s01e01.WEB-DLRip.x264.Rus.Eng.BaibaKo.tv.mp4
Формат                                   : MPEG-4
Профиль формата                          : Base Media / Version 2
Идентификатор кодека                     : mp42
Размер файла                             : 665 Мбайт
Продолжительность                        : 49 м.
Режим общего битрейта                    : Переменный
Общий поток                              : 1864 Кбит/сек
Программа кодирования                    : HandBrake 0.10.0 2014112200

Видео
Идентификатор                            : 1
Формат                                   : AVC
Формат/Информация                        : Advanced Video Codec
Профиль формата                          :
Параметр CABAC формата                   : Нет
Параметр ReFrames формата                : 3 кадра
Идентификатор кодека                     : avc1
Идентификатор кодека/Информация          : Advanced Video Coding
Продолжительность                        : 49 м.
Битрейт                                  : 1536 Кбит/сек
Ширина                                   : 720 пикселей
Высота                                   : 400 пикселей
Соотношение сторон                       : 16:9
Режим частоты кадров                     : Переменный
Частота кадров                           : 23,976 кадра/сек
Минимальная частота кадров               : 23,974 кадра/сек
Максимальная частота кадров              : 23,981 кадра/сек
Цветовое пространство                    : YUV
Субдискретизация насыщенности            : 4:2:0
Битовая глубина                          : 8 бит
Тип развёртки                            : Прогрессивная
Бит/(Пиксели*Кадры)                      : 0.222
Размер потока                            : 548 Мбайт (82%)
Библиотека кодирования                   : x264 core 142 r2479 dd79a61
Настройки программы                      : cabac=0 / ref=3 / deblock=1:0:0 / analyse=0x1:0x111 / me=hex / subme=7 / psy=1 / psy_rd=1.00:0.00 / mixed_ref=1 / me_range=16 / chroma_me=1 / trellis=1 / 8x8dct=0 / cqm=0 / deadzone=21,11 / fast_pskip=1 / chroma_qp_offset=-2 / threads=6 / lookahead_threads=1 / sliced_threads=0 / nr=0 / decimate=1 / interlaced=0 / bluray_compat=0 / constrained_intra=0 / bframes=0 / weightp=0 / keyint=240 / keyint_min=24 / scenecut=40 / intra_refresh=0 / rc_lookahead=40 / rc=2pass / mbtree=1 / bitrate=1536 / ratetol=1.0 / qcomp=0.60 / qpmin=0 / qpmax=69 / qpstep=4 / cplxblur=20.0 / qblur=0.5 / vbv_maxrate=14000 / vbv_bufsize=14000 / nal_hrd=none / filler=0 / ip_ratio=1.40 / aq=1:1.00
Основные цвета                           : BT.709
Характеристики трансфера                 : BT.709
Коэффициенты матрицы                     : BT.709

Аудио #1
Идентификатор                            : 2
Формат                                   : AAC
Формат/Информация                        : Advanced Audio Codec
Профиль формата                          : LC
Идентификатор кодека                     : 40
Продолжительность                        : 49 м.
Вид битрейта                             : Переменный
Битрейт                                  : 160 Кбит/сек
Каналы                                   : 2 канала
Расположение каналов                     : Front: L R
Частота                                  : 48,0 КГц
Метод сжатия                             : С потерями
Размер потока                            : 57,2 Мбайт (9%)
Заголовок                                : Stereo
Язык                                     : Russian

Аудио #2
Идентификатор                            : 3
Формат                                   : AAC
Формат/Информация                        : Advanced Audio Codec
Профиль формата                          : LC
Идентификатор кодека                     : 40
Продолжительность                        : 49 м.
Вид битрейта                             : Переменный
Битрейт                                  : 160 Кбит/сек
Каналы                                   : 2 канала
Расположение каналов                     : Front: L R
Частота                                  : 48,0 КГц
Метод сжатия                             : С потерями
Размер потока                            : 57,1 Мбайт (9%)
Заголовок                                : Stereo
Язык                                     : English
01. Pilot / Пилот
02. A Brave New World / О дивный новый мир
03. 98 Seconds / 98 секунд
04. Blind Spot / Зона молчания
05. Geronimo / Джеронимо
06. Yoknapatawpha / Йокнапатофа
07. Broussard / Бруссард
08. In From the Cold /
09. Zero Day /
10. Gateway /
Внимание! Раздача ведётся путём добавления новых серий; при каждом добавлении создаётся новый торрент.
Чтобы начать докачку новой серии, пользователям необходимо сделать следующее:
1. Остановить скачивание;
2. Удалить старый торрент у себя из клиента (старые серии удалять не надо);
3. Скачать новый торрент и запустить его у себя в клиенте вместо старого, при этом указать клиенту путь в старую папку куда и должно происходить скачивание новых серий. Ваш клиент при этом должен произвести хеширование (проверку) старой папки и будет докачивать только те серии, которых у вас ещё нет. Старые серии при этом не удаляются, а продолжают раздаваться! Eсли вы уже удалили старые серии, то предотвратить повторную закачку старых серий можно, отжав галочку в соответствующих местах при запуске нового торрента.

Скриншоты:




Время раздачи:
24/7 - круглосуточно
(до первых 5-ти сидов - потом по возможности)

 
Не забывайте говорить Спасибо. Не уходите с раздачи!   
Торрент: Зарегистрирован [28 фев 2016, 14:45] Для скачивания .torrent
необходима регистрация
Или скачать с помощью
MediaGet
Статус:
Проверен
 
.torrent скачан: 0 раз
Хэш: a9a6d91eb91db4a20f6daed87d14d75bc59789c7
Размер: 3.95 ГБ (4 237 497 033 байт)
Стать Автором раздачи
 
Аватара пользователя
Главный редактор
Главный редактор
 
Раздал: 15.43 ТБ
Скачал: 13.78 ТБ
Ратио: 1.120
Сообщения: 65090
Зарегистрирован: 01 мар 2011, 23:07


  • Похожие торренты
    Ответы
    Просмотры
    Последнее сообщение

Вернуться в Видео для мобильных устройств

Ресурс не предоставляет электронные версии произведений, а занимается лишь коллекционированием и каталогизацией ссылок, присылаемых и публикуемых на форуме нашими читателями. Если вы являетесь правообладателем какого-либо представленного материала и не желаете чтобы ссылка на него находилась в нашем каталоге, свяжитесь с нами и мы незамедлительно удалим её. Файлы для обмена на трекере предоставлены пользователями сайта, и администрация не несёт ответственности за их содержание. Просьба не заливать файлы, защищенные авторскими правами, а также файлы нелегального содержания!
cron