Испугай Pewdiepie / Scare Pewdiepie (2016) WEB-DLRip [H.264] (серии 1-3 из ??) [MP4|1920x1080] [EN / RUS SUB]

 
 Статистика раздачи 
Размер: 3.85 ГБ   |  Зарегистрирован: 26 фев 2016, 16:31   |   .torrent скачан: 1 раз
Сидеров: 1  [ 0 байт/сек ]     Личеров: 0  [ 0 байт/сек ]  
  

Испугай Pewdiepie / Scare Pewdiepie (2016) WEB-DLRip [H.264] (серии 1-3 из ??) [MP4|1920x1080] [EN / RUS SUB]

Сообщение i926 » 26 фев 2016, 16:31

Испугай Pewdiepie / Scare Pewdiepie (2016) WEB-DLRip (серии 1-3 из ??) [EN/RUS SUB]

Производство: США
Жанр: Комедия

Режиссер: Jon Nealon, Jenny Raskin
Актеры: Felix Kjellberg, David Storrs

Описание:
Это реалити - шоу от создателя и исполнительньного продюсера "The Walking Dead" в котором PewDiePie ( Felix Kjellberg ) ожидают острые ощущения , страх и смех уже не в играх а наяву.


Дата мировой премьеры: 10.02.2016

Продолжительность: 00:23:16
Качество видео: WEB-DLRip
Перевод: Отсутствует
Язык: Английский
Вид субтитров: Вшитые неотключаемые
Язык субтитров: Русский

Видео: AVC/H.264, 1920x1080, ~9163 Kbps
Аудио: ALAC, 2 ch, 1177 Kbps, VBR
Код:
Код: Выделить всё
General
Complete name                  : C:\pewdiepie\Scare Pewdiepie Level 1.mp4
Format                         : MPEG-4
Codec ID                       : M4V
File size                      : 1.68 GiB
Duration                       : 23mn 16s
Overall bit rate mode          : Variable
Overall bit rate               : 10.3 Mbps
Writing application            : Lavf57.0.100

Video
ID                             : 1
Format                         : AVC
Format/Info                    : Advanced Video Codec
Format profile                 : Baseline@L4
Format settings, CABAC         : No
Format settings, ReFrames      : 1 frame
Format settings, GOP           : M=1, N=10
Codec ID                       : avc1
Codec ID/Info                  : Advanced Video Coding
Duration                       : 23mn 16s
Bit rate mode                  : Variable
Bit rate                       : 9 163 Kbps
Width                          : 1 920 pixels
Height                         : 1 080 pixels
Display aspect ratio           : 16:9
Frame rate mode                : Variable
Frame rate                     : 20.296 fps
Minimum frame rate             : 12.500 fps
Maximum frame rate             : 25.000 fps
Color space                    : YUV
Chroma subsampling             : 4:2:0
Bit depth                      : 8 bits
Scan type                      : Progressive
Bits/(Pixel*Frame)             : 0.218
Stream size                    : 1.49 GiB (89%)

Audio
ID                             : 2
Format                         : ALAC
Codec ID                       : alac
Codec ID/Info                  : Apple Lossless Audio Codec
Duration                       : 23mn 16s
Bit rate mode                  : Variable
Bit rate                       : 1 177 Kbps
Nominal bit rate               : 2 117 Kbps
Channel(s)                     : 2 channels
Sampling rate                  : 44.1 KHz
Bit depth                      : 24 bits
Stream size                    : 196 MiB (11%)
Внимание! Раздача ведётся путём добавления новых серий; при каждом добавлении создаётся новый торрент.
Чтобы начать докачку новой серии, пользователям необходимо сделать следующее:
1. Остановить скачивание;
2. Удалить старый торрент у себя из клиента (старые серии удалять не надо);
3. Скачать новый торрент и запустить его у себя в клиенте вместо старого, при этом указать клиенту путь в старую папку куда и должно происходить скачивание новых серий. Ваш клиент при этом должен произвести хеширование (проверку) старой папки и будет докачивать только те серии, которых у вас ещё нет. Старые серии при этом не удаляются, а продолжают раздаваться! Eсли вы уже удалили старые серии, то предотвратить повторную закачку старых серий можно, отжав галочку в соответствующих местах при запуске нового торрента.

Скриншоты:



Время раздачи: c 21:00 до 12:00 (до появления первых 3-5 скачавших)
 
Не забывайте говорить Спасибо. Не уходите с раздачи!   
Торрент: Зарегистрирован [26 фев 2016, 16:31] Для скачивания .torrent
необходима регистрация
Или скачать с помощью
MediaGet
Статус:
Проверен
 
.torrent скачан: 1 раз
Хэш: f08be7dc44481b59238cae5b6ca530a851daeabf
Размер: 3.85 ГБ (4 135 107 215 байт)
Стать Автором раздачи
 
Аватара пользователя
Главный редактор
Главный редактор
 
Раздал: 15.43 ТБ
Скачал: 13.78 ТБ
Ратио: 1.120
Сообщения: 65088
Зарегистрирован: 01 мар 2011, 23:07


  • Похожие торренты
    Ответы
    Просмотры
    Последнее сообщение

Вернуться в Видео для мобильных устройств

Ресурс не предоставляет электронные версии произведений, а занимается лишь коллекционированием и каталогизацией ссылок, присылаемых и публикуемых на форуме нашими читателями. Если вы являетесь правообладателем какого-либо представленного материала и не желаете чтобы ссылка на него находилась в нашем каталоге, свяжитесь с нами и мы незамедлительно удалим её. Файлы для обмена на трекере предоставлены пользователями сайта, и администрация не несёт ответственности за их содержание. Просьба не заливать файлы, защищенные авторскими правами, а также файлы нелегального содержания!
cron