VA - Salvacion Ibiza (2003) [FLAC|Lossless|tracks + .cue] <House>

 
 Статистика раздачи 
Размер: 470.09 МБ   |  Зарегистрирован: 26 фев 2016, 16:14   |   .torrent скачан: 0 раз
Сидеров: 1  [ 0 байт/сек ]     Личеров: 0  [ 0 байт/сек ]  
  

VA - Salvacion Ibiza (2003) [FLAC|Lossless|tracks + .cue] <House>

Сообщение i926 » 26 фев 2016, 16:14

VA - Salvacion Ibiza (2003)

Год: 2003
Жанр: House
Издание: Loud Bit - LB 149C, Saifam Group - ATL 077-2
Продолжительность: 01:09:51

Источник (релизер): blandrew®

Кодек: FLAC
Битрейт: Lossless
Тип рипа: tracks + .cue

Треклист:
01. Sam La More - Takin' Hold (6:00)
02. Demetreus - Better Love (5:50)
03. Noferini & DJ Guy - A Sunny Day (5:19)
04. Gaudino feat. Crystal Waters - Destination Unknown (5:05)
05. Edinho - Caliente (4:59)
06. DJ Chus and David Penn feat. Caterina - Baila (5:52)
07. Nick Corline - Let Me Be A Drums (2:16)
08. Saffron Hill feat. Ben Onono - My Love Is Always (5:52)
09. Porno - Desire (4:59)
10. Marascia - Get Into The Game (4:53)
11. K-Boy - Innocente (4:16)
12. Makay - Give Me (4:21)
13. Playmate - Scandal & Pornography (5:46)
14. Eric Entrena & James Cool - Galactica (4:18)
Код:
Код: Выделить всё
Exact Audio Copy V1.1 from 23. June 2015

EAC extraction logfile from 26. February 2016, 7:21

Various Artists /  Salvacion Ibiza - The House Session

Used drive  : ASUS    BW-12D1S-U   Adapter: 1  ID: 0

Read mode               : Secure
Utilize accurate stream : Yes
Defeat audio cache      : Yes
Make use of C2 pointers : No

Read offset correction                      : 667
Overread into Lead-In and Lead-Out          : No
Fill up missing offset samples with silence : Yes
Delete leading and trailing silent blocks   : No
Null samples used in CRC calculations       : Yes
Used interface                              : Native Win32 interface for Win NT & 2000
Gap handling                                : Appended to previous track

Used output format              : User Defined Encoder
Selected bitrate                : 768 kBit/s
Quality                         : High
Add ID3 tag                     : No
Command line compressor         : D:\Program Files (x86)\Exact Audio Copy\Flac\flac.exe
Additional command line options : -8 -V -T "TITLE=%title%" -T "ARTIST=%artist%" -T "ALBUMARTIST=%albumartist%" -T "ALBUM=%albumtitle%" -T "DATE=%year%" -T "TRACKNUMBER=%tracknr%" -T "TRACKTOTAL=%numtracks%" -T "GENRE=%genre%" -T "COMMENT=%comment%" -T "PERFORMER=%albuminterpret%" -T "COMPOSER=%composer%" %source% -o %dest%

TOC of the extracted CD

     Track |   Start  |  Length  | Start sector | End sector
    ---------------------------------------------------------
        1  |  0:00.00 |  6:00.29 |         0    |    27028
        2  |  6:00.29 |  5:50.38 |     27029    |    53316
        3  | 11:50.67 |  5:19.72 |     53317    |    77313
        4  | 17:10.64 |  5:05.30 |     77314    |   100218
        5  | 22:16.19 |  4:59.02 |    100219    |   122645
        6  | 27:15.21 |  5:52.21 |    122646    |   149066
        7  | 33:07.42 |  2:16.18 |    149067    |   159284
        8  | 35:23.60 |  5:52.08 |    159285    |   185692
        9  | 41:15.68 |  4:59.32 |    185693    |   208149
       10  | 46:15.25 |  4:53.27 |    208150    |   230151
       11  | 51:08.52 |  4:16.38 |    230152    |   249389
       12  | 55:25.15 |  4:21.51 |    249390    |   269015
       13  | 59:46.66 |  5:46.43 |    269016    |   295008
       14  | 65:33.34 |  4:18.74 |    295009    |   314432

Track  1

     Filename D:\Video&Music&Books\2003 - VA - Salvacion Ibiza\01.Sam La More-Takin' Hold.wav

     Pre-gap length  0:00:02.00

     Peak level 99.4 %
     Extraction speed 5.0 X
     Track quality 100.0 %
     Test CRC DA6F7109
     Copy CRC DA6F7109
     Track not present in AccurateRip database
     Copy OK

Track  2

     Filename D:\Video&Music&Books\2003 - VA - Salvacion Ibiza\02.Demetreus-Better Love.wav

     Peak level 99.4 %
     Extraction speed 5.6 X
     Track quality 100.0 %
     Test CRC ABDBD1E7
     Copy CRC ABDBD1E7
     Track not present in AccurateRip database
     Copy OK

Track  3

     Filename D:\Video&Music&Books\2003 - VA - Salvacion Ibiza\03.Noferini & DJ Guy-A Sunny Day.wav

     Peak level 99.4 %
     Extraction speed 6.0 X
     Track quality 100.0 %
     Test CRC F2175AB1
     Copy CRC F2175AB1
     Track not present in AccurateRip database
     Copy OK

Track  4

     Filename D:\Video&Music&Books\2003 - VA - Salvacion Ibiza\04.Gaudino feat. Crystal Waters-Destination Unknown.wav

     Peak level 99.4 %
     Extraction speed 6.5 X
     Track quality 100.0 %
     Test CRC A3B17A39
     Copy CRC A3B17A39
     Track not present in AccurateRip database
     Copy OK

Track  5

     Filename D:\Video&Music&Books\2003 - VA - Salvacion Ibiza\05.Edinho-Caliente.wav

     Peak level 99.4 %
     Extraction speed 6.8 X
     Track quality 100.0 %
     Test CRC 8CB2C0C1
     Copy CRC 8CB2C0C1
     Track not present in AccurateRip database
     Copy OK

Track  6

     Filename D:\Video&Music&Books\2003 - VA - Salvacion Ibiza\06.DJ Chus and David Penn feat. Caterina-Baila.wav

     Peak level 99.4 %
     Extraction speed 6.6 X
     Track quality 99.9 %
     Test CRC 4D2B106A
     Copy CRC 4D2B106A
     Track not present in AccurateRip database
     Copy OK

Track  7

     Filename D:\Video&Music&Books\2003 - VA - Salvacion Ibiza\07.Nick Corline-Let Me Be A Drums.wav

     Peak level 98.2 %
     Extraction speed 6.4 X
     Track quality 100.0 %
     Test CRC B157E171
     Copy CRC B157E171
     Track not present in AccurateRip database
     Copy OK

Track  8

     Filename D:\Video&Music&Books\2003 - VA - Salvacion Ibiza\08.Saffron Hill feat. Ben Onono-My Love Is Always.wav

     Peak level 99.4 %
     Extraction speed 7.6 X
     Track quality 100.0 %
     Test CRC 64EE76C3
     Copy CRC 64EE76C3
     Track not present in AccurateRip database
     Copy OK

Track  9

     Filename D:\Video&Music&Books\2003 - VA - Salvacion Ibiza\09.Porno-Desire.wav

     Peak level 99.4 %
     Extraction speed 6.9 X
     Track quality 99.9 %
     Test CRC E51459A8
     Copy CRC E51459A8
     Track not present in AccurateRip database
     Copy OK

Track 10

     Filename D:\Video&Music&Books\2003 - VA - Salvacion Ibiza\10.Marascia-Get Into The Game.wav

     Peak level 99.4 %
     Extraction speed 7.9 X
     Track quality 100.0 %
     Test CRC F8C58E14
     Copy CRC F8C58E14
     Track not present in AccurateRip database
     Copy OK

Track 11

     Filename D:\Video&Music&Books\2003 - VA - Salvacion Ibiza\11.K-Boy-Innocente.wav

     Peak level 99.4 %
     Extraction speed 7.8 X
     Track quality 100.0 %
     Test CRC C2B815DC
     Copy CRC C2B815DC
     Track not present in AccurateRip database
     Copy OK

Track 12

     Filename D:\Video&Music&Books\2003 - VA - Salvacion Ibiza\12.Makay-Give Me.wav

     Peak level 99.4 %
     Extraction speed 8.2 X
     Track quality 100.0 %
     Test CRC 32105B05
     Copy CRC 32105B05
     Track not present in AccurateRip database
     Copy OK

Track 13

     Filename D:\Video&Music&Books\2003 - VA - Salvacion Ibiza\13.Playmate-Scandal & Pornography.wav

     Peak level 99.4 %
     Extraction speed 8.0 X
     Track quality 99.9 %
     Test CRC 55457353
     Copy CRC 55457353
     Track not present in AccurateRip database
     Copy OK

Track 14

     Filename D:\Video&Music&Books\2003 - VA - Salvacion Ibiza\14.Eric Entrena & James Cool-Galactica.wav

     Peak level 97.2 %
     Extraction speed 7.7 X
     Track quality 99.9 %
     Test CRC 7CE71860
     Copy CRC 7CE71860
     Track not present in AccurateRip database
     Copy OK

None of the tracks are present in the AccurateRip database

No errors occurred

End of status report

---- CUETools DB Plugin V2.1.6

[CTDB TOCID: FirMgWQTrK6oYpE1UhzLq2blk4w-] found
Submit result: already submitted
Track | CTDB Status
  1   | (1/1) Accurately ripped
  2   | (1/1) Accurately ripped
  3   | (1/1) Accurately ripped
  4   | (1/1) Accurately ripped
  5   | (1/1) Accurately ripped
  6   | (1/1) Accurately ripped
  7   | (1/1) Accurately ripped
  8   | (1/1) Accurately ripped
  9   | (1/1) Accurately ripped
 10   | (1/1) Accurately ripped
 11   | (1/1) Accurately ripped
 12   | (1/1) Accurately ripped
 13   | (1/1) Accurately ripped
 14   | (1/1) Accurately ripped

==== Log checksum B257EFA8230E09A1B4146BB6F4326EA5BEB9E77719867F11C7B359F17FC11F16 ====

Код:
Код: Выделить всё
-----------------------

DON'T MODIFY THIS FILE

-----------------------

PERFORMER: auCDtect Task Manager, ver. 1.6.0 RC1 build 1.6.0.1
Copyright (c) 2008-2010 y-soft. All rights reserved
http:/y-soft.org

ANALYZER: auCDtect: CD records authenticity detector, version 0.8.2
Copyright (c) 2004 Oleg Berngardt. All rights reserved.
Copyright (c) 2004 Alexander Djourik. All rights reserved.

FILE: 14.Eric Entrena & James Cool-Galactica.flac
  Size: 28973134 Hash: C17A4550D659C8315634DE8230516840 Accuracy: -m0
  Conclusion: CDDA 100%
  Signature: 4DE36F3852E04ECE8C26C779DA3E2B1247F5BE94
FILE: 13.Playmate-Scandal & Pornography.flac
  Size: 39194703 Hash: 3C7D8E2DE7C0C730B0EA9B52BB60630F Accuracy: -m0
  Conclusion: CDDA 100%
  Signature: 6AD79F08B38B8CFF5C62740597A085F055991A1A
FILE: 12.Makay-Give Me.flac
  Size: 28281322 Hash: 416195C6653900F22BB1FBE159AD90AA Accuracy: -m0
  Conclusion: CDDA 100%
  Signature: 7E98E0A22594BA531B53A43E7318C03AB84A5C5E
FILE: 11.K-Boy-Innocente.flac
  Size: 31122686 Hash: E669A2F9F10998956ECAE68A1629906D Accuracy: -m0
  Conclusion: CDDA 100%
  Signature: 9147429D32BB7072BCD2275D3085E5F1627FC212
FILE: 10.Marascia-Get Into The Game.flac
  Size: 31205182 Hash: E6A55A438BE094A7B39ACFE646583D80 Accuracy: -m0
  Conclusion: CDDA 100%
  Signature: 4F7E2F981A6B6528C706170630432118CC61177F
FILE: 09.Porno-Desire.flac
  Size: 32340899 Hash: 50DAE341B7222541D9DADFFDA05BB299 Accuracy: -m0
  Conclusion: CDDA 100%
  Signature: A9617BA1368EC25D16B9F8337BF796C2C57063D9
FILE: 08.Saffron Hill feat. Ben Onono-My Love Is Always.flac
  Size: 41411786 Hash: 45A8F0C66B451093326CFB4B5117BF9E Accuracy: -m0
  Conclusion: CDDA 100%
  Signature: 471C2B191E16132CA1F59973A8D51CE6654778C7
FILE: 07.Nick Corline-Let Me Be A Drums.flac
  Size: 16411504 Hash: D28320BA7E9A77AF7395DEBAF5D33DBC Accuracy: -m0
  Conclusion: CDDA 100%
  Signature: EDBB38F47CB3314260574011F60E76B05EAA03DE
FILE: 06.DJ Chus and David Penn feat. Caterina-Baila.flac
  Size: 39376461 Hash: 49BBD669C44DC6EF23CD26E7AA935C56 Accuracy: -m0
  Conclusion: CDDA 100%
  Signature: 06EA893C82D7A585C1DBC5ACF8539B44E3E51F58
FILE: 05.Edinho-Caliente.flac
  Size: 37912696 Hash: 72368A125BECF11C9E68377973841D33 Accuracy: -m0
  Conclusion: CDDA 100%
  Signature: 6121FC3F964201868EC1D8BAA9666C42B6BC8B57
FILE: 04.Gaudino feat. Crystal Waters-Destination Unknown.flac
  Size: 34032646 Hash: C1A06926CD18E30DB2F936A9FAF43B5E Accuracy: -m0
  Conclusion: CDDA 85%
  Signature: D208B40528AB8DF13D83347A447B918B03A1DA98
FILE: 03.Noferini & DJ Guy-A Sunny Day.flac
  Size: 40372334 Hash: EB1D3FB83B423046933B628C3DB3CEF0 Accuracy: -m0
  Conclusion: CDDA 100%
  Signature: 88A678900C93A269A8A4B9019D57D70CEC1222AD
FILE: 02.Demetreus-Better Love.flac
  Size: 45228634 Hash: B3F59064FA6E0DC275870F582BD389C4 Accuracy: -m0
  Conclusion: CDDA 100%
  Signature: BA05BEFEC1ED58479E80F4B54CEB3A31D402E773
FILE: 01.Sam La More-Takin' Hold.flac
  Size: 45924063 Hash: 1670F6287D57644CA64B1FAF9FD27269 Accuracy: -m0
  Conclusion: CDDA 100%
  Signature: 37A434A33BF02EDAB816121DD96807B34FDEB80E

Время раздачи: 24/7 (круглосуточно) - до появления первых 3-5 скачавших
#7
Код: Выделить всё
[b]Поглощение/вытеснение [/b]
[b]Только с согласия релизера[/b]
[b][u][i]Pashketan[/b][/i][/u]

 
Не забывайте говорить Спасибо. Не уходите с раздачи!   
Торрент: Зарегистрирован [26 фев 2016, 16:14] Скачать торрент
Скачать торрент
[ Размер 40.65 КБ / Просмотров 20 ]
Статус:
Проверен
 
.torrent скачан: 0 раз
Хэш: 23976fcc2a27e61cb5edcef7af1753c09480dc7c
Размер: 470.09 МБ (492 924 515 байт)
Стать Автором раздачи
 
Аватара пользователя
Главный редактор
Главный редактор
 
Раздал: 15.43 ТБ
Скачал: 13.78 ТБ
Ратио: 1.120
Сообщения: 65446
Зарегистрирован: 01 мар 2011, 23:07


  • Похожие торренты
    Ответы
    Просмотры
    Последнее сообщение

Вернуться в House, Techno, Electro, Minimal (транзит Lossless)

Ресурс не предоставляет электронные версии произведений, а занимается лишь коллекционированием и каталогизацией ссылок, присылаемых и публикуемых на форуме нашими читателями. Если вы являетесь правообладателем какого-либо представленного материала и не желаете чтобы ссылка на него находилась в нашем каталоге, свяжитесь с нами и мы незамедлительно удалим её. Файлы для обмена на трекере предоставлены пользователями сайта, и администрация не несёт ответственности за их содержание. Просьба не заливать файлы, защищенные авторскими правами, а также файлы нелегального содержания!
cron