Armin van Buuren - The Music Videos 1997-2009 (2010) DVD5

 
 Статистика раздачи 
Размер: 3.26 ГБ   |  Зарегистрирован: 26 фев 2016, 15:04   |   .torrent скачан: 0 раз
Сидеров: 1  [ 0 байт/сек ]     Личеров: 0  [ 0 байт/сек ]  
  

Armin van Buuren - The Music Videos 1997-2009 (2010) DVD5

Сообщение i926 » 26 фев 2016, 15:04

Armin van Buuren - The Music Videos 1997-2009 (2009) DVD5

Русское азвание: Armin van Buuren - The Music Videos 1997-2009
Оригинальное название: Armin van Buuren - The Music Videos 1997-2009
Год выпуска: 2010
Производство: TME/Open Gate Records, Armada Music BV
Жанр: Trance

Описание:
Armin Van Buuren - The Music Videos 1997-2009 - официальный сборник клипов Армина Ван Бюрена, выпущенный лэйблом Armada Music в декабре 2009 года. в России издан компанией TME/Open Gate Records по эксклюзивной лицензии Armada Music BV в 2010 году в виде двухдискового издания - 1 DVD (клипы) и 1 CD (музыка).
Аудио CD здесь:
Armin van Buuren - The Music Videos 1997-2009 - Audio CD (2010)

Продолжительность: 01:02:51
Перевод: Отсутствует
Язык: Английский

Видеокодек: MPEG-2
Битрейт видео: 6500 kbps
Размер кадра: 720x576 (16:9)
Качество видео: DVD5
Аудиокодек: AC3 5.1
Битрейт аудио: 448 kbps CBR
01. Never Say Never (Feat. Jacqueline Govaert)
02. Fine Without You (Feat. Jennifer Rene)
03. Unforgivable (Feat. Jaren)
04. In And Out Of Love (Feat. Sharon Den Adel)
05. Going Wrong (With Dj Shah Feat. Chris Jones)
06. The Sound Of Goodbye (Feat. Elles De Graaf)
07. This World Is Watching Me (Vs Rank 1 Feat. Kush)
08. Sail
09. Love You More (Feat. Racoon)
10. Serenity (Feat. Jan Vayne)
11. Shivers (Feat. Susana)
12. Burned With Desire (Feat. Justine Suissa)
13. Yet Another Day (Feat. Ray Wilson)
14. Communication
15. Blue Fear

Bonus Videos
01. Gaia - Tuvan
01. Communication (Extended Version)
Код:
Код: Выделить всё
Общее
Полное имя                               : D:\ARMIN_MUSICVIDEOS_97_09\VIDEO_TS\VIDEO_TS.BUP
Формат                                   : DVD Video
Профиль формата                          : Menu
Размер файла                             : 12,0 Кбайт
Режим общего битрейта                    : Переменный

Видео
Идентификатор                            : 224 (0xE0)
Формат                                   : MPEG Video
Версия формата                           : Version 2
Вид битрейта                             : Переменный
Ширина                                   : 720 пикселей
Высота                                   : 576 пикселей
Соотношение сторон                       : 16:9
Частота кадров                           : 25,000 кадров/сек
Стандарт вещания                         : PAL
Метод сжатия                             : С потерями

Текст
Формат                                   : RLE
Формат/Информация                        : Run-length encoding
Битовая глубина                          : 2 бит

Общее
Полное имя                               : D:\ARMIN_MUSICVIDEOS_97_09\VIDEO_TS\VIDEO_TS.IFO
Формат                                   : DVD Video
Профиль формата                          : Menu
Размер файла                             : 12,0 Кбайт
Режим общего битрейта                    : Переменный

Видео
Идентификатор                            : 224 (0xE0)
Формат                                   : MPEG Video
Версия формата                           : Version 2
Вид битрейта                             : Переменный
Ширина                                   : 720 пикселей
Высота                                   : 576 пикселей
Соотношение сторон                       : 16:9
Частота кадров                           : 25,000 кадров/сек
Стандарт вещания                         : PAL
Метод сжатия                             : С потерями

Текст
Формат                                   : RLE
Формат/Информация                        : Run-length encoding
Битовая глубина                          : 2 бит

Общее
Полное имя                               : D:\ARMIN_MUSICVIDEOS_97_09\VIDEO_TS\VIDEO_TS.VOB
Формат                                   : MPEG-PS
Размер файла                             : 7,53 Мбайт
Продолжительность                        : 9 с. 560 мс.
Общий поток                              : 6610 Кбит/сек

Видео
Идентификатор                            : 224 (0xE0)
Формат                                   : MPEG Video
Версия формата                           : Version 2
Профиль формата                          : Main@Main
Параметр BVOP формата                    : Да
Параметр матрицы формата                 : По умолчанию
Параметр GOP формата                     : M=2, N=14
Продолжительность                        : 9 с. 560 мс.
Битрейт                                  : 6500 Кбит/сек
Ширина                                   : 720 пикселей
Высота                                   : 576 пикселей
Соотношение сторон                       : 16:9
Частота кадров                           : 25,000 кадров/сек
Стандарт вещания                         : PAL
Цветовое пространство                    : YUV
Субдискретизация насыщенности            : 4:2:0
Битовая глубина                          : 8 бит
Тип развёртки                            : Прогрессивная
Метод сжатия                             : С потерями
Бит/(Пиксели*Кадры)                      : 0.627
Временной код первого кадра              : 00:00:00:00
Оригинал временного кода                 : Group of pictures header
GOP, открыто/закрыто                     : Открыто
GOP, открыто/закрыто на первом кадре     : Закрыто
Размер потока                            : 7,38 Мбайт (98%)

Меню

Общее
Полное имя                               : D:\ARMIN_MUSICVIDEOS_97_09\VIDEO_TS\VTS_01_0.BUP
Формат                                   : DVD Video
Профиль формата                          : Program
Размер файла                             : 52,0 Кбайт
Продолжительность                        : 1 ч. 2 м.
Режим общего битрейта                    : Переменный
Общий поток                              : 113 бит/сек

Видео
Идентификатор                            : 224 (0xE0)
Формат                                   : MPEG Video
Версия формата                           : Version 2
Продолжительность                        : 1 ч. 2 м.
Вид битрейта                             : Переменный
Ширина                                   : 720 пикселей
Высота                                   : 576 пикселей
Соотношение сторон                       : 16:9
Частота кадров                           : 25,000 кадров/сек
Стандарт вещания                         : PAL
Метод сжатия                             : С потерями

Аудио
Идентификатор                            : 128 (0x80)
Формат                                   : AC-3
Формат/Информация                        : Audio Coding 3
Продолжительность                        : 1 ч. 2 м.
Каналы                                   : 6 каналов
Частота                                  : 48,0 КГц
Метод сжатия                             : С потерями
Язык                                     : English

Меню
Продолжительность                        : 1 ч. 2 м.
00:00:00.000                             : Chapter 1
00:02:52.920                             : Chapter 2
00:06:11.520                             : Chapter 3
00:09:22.880                             : Chapter 4
00:12:23.720                             : Chapter 5
00:15:59.640                             : Chapter 6
00:19:19.000                             : Chapter 7
00:22:47.240                             : Chapter 8
00:25:50.800                             : Chapter 9
00:29:50.080                             : Chapter 10
00:32:49.000                             : Chapter 11
00:35:59.560                             : Chapter 12
00:38:59.800                             : Chapter 13
00:42:48.960                             : Chapter 14
00:46:15.440                             : Chapter 15
00:50:25.560                             : Chapter 16
00:53:17.760                             : Chapter 17
List (Audio)                             : 0

Общее
Полное имя                               : D:\ARMIN_MUSICVIDEOS_97_09\VIDEO_TS\VTS_01_0.IFO
Формат                                   : DVD Video
Профиль формата                          : Program
Размер файла                             : 52,0 Кбайт
Продолжительность                        : 1 ч. 2 м.
Режим общего битрейта                    : Переменный
Общий поток                              : 113 бит/сек

Видео
Идентификатор                            : 224 (0xE0)
Формат                                   : MPEG Video
Версия формата                           : Version 2
Продолжительность                        : 1 ч. 2 м.
Вид битрейта                             : Переменный
Ширина                                   : 720 пикселей
Высота                                   : 576 пикселей
Соотношение сторон                       : 16:9
Частота кадров                           : 25,000 кадров/сек
Стандарт вещания                         : PAL
Метод сжатия                             : С потерями

Аудио
Идентификатор                            : 128 (0x80)
Формат                                   : AC-3
Формат/Информация                        : Audio Coding 3
Продолжительность                        : 1 ч. 2 м.
Каналы                                   : 6 каналов
Частота                                  : 48,0 КГц
Метод сжатия                             : С потерями
Язык                                     : English

Меню
Продолжительность                        : 1 ч. 2 м.
00:00:00.000                             : Chapter 1
00:02:52.920                             : Chapter 2
00:06:11.520                             : Chapter 3
00:09:22.880                             : Chapter 4
00:12:23.720                             : Chapter 5
00:15:59.640                             : Chapter 6
00:19:19.000                             : Chapter 7
00:22:47.240                             : Chapter 8
00:25:50.800                             : Chapter 9
00:29:50.080                             : Chapter 10
00:32:49.000                             : Chapter 11
00:35:59.560                             : Chapter 12
00:38:59.800                             : Chapter 13
00:42:48.960                             : Chapter 14
00:46:15.440                             : Chapter 15
00:50:25.560                             : Chapter 16
00:53:17.760                             : Chapter 17
List (Audio)                             : 0

Общее
Полное имя                               : D:\ARMIN_MUSICVIDEOS_97_09\VIDEO_TS\VTS_01_0.VOB
Формат                                   : MPEG-PS
Размер файла                             : 152 Мбайт
Продолжительность                        : 1 м. 0 с.
Общий поток                              : 21,2 Мбит/сек

Видео
Идентификатор                            : 224 (0xE0)
Формат                                   : MPEG Video
Версия формата                           : Version 2
Профиль формата                          : Main@Main
Параметр BVOP формата                    : Да
Параметр матрицы формата                 : По умолчанию
Параметр GOP формата                     : M=2, N=14
Продолжительность                        : 1 м. 0 с.
Битрейт                                  : 20,3 Мбит/сек
Максимальный битрейт                     : 6500 Кбит/сек
Ширина                                   : 720 пикселей
Высота                                   : 576 пикселей
Соотношение сторон                       : 16:9
Частота кадров                           : 25,000 кадров/сек
Стандарт вещания                         : PAL
Цветовое пространство                    : YUV
Субдискретизация насыщенности            : 4:2:0
Битовая глубина                          : 8 бит
Тип развёртки                            : Прогрессивная
Метод сжатия                             : С потерями
Бит/(Пиксели*Кадры)                      : 1.961
Временной код первого кадра              : 00:00:00:00
Оригинал временного кода                 : Group of pictures header
GOP, открыто/закрыто                     : Открыто
GOP, открыто/закрыто на первом кадре     : Закрыто
Размер потока                            : 145 Мбайт (96%)

Аудио
Идентификатор                            : 189 (0xBD)-128 (0x80)
Формат                                   : AC-3
Формат/Информация                        : Audio Coding 3
Расширение режима                        : CM (complete main)
Параметр Endianness формата              : Big
Режим смешивания                         : DVD-Video
Продолжительность                        : 59 с.
Вид битрейта                             : Постоянный
Битрейт                                  : 448 Кбит/сек
Каналы                                   : 6 каналов
Расположение каналов                     : Front: L C R, Side: L R, LFE
Частота                                  : 48,0 КГц
Частота кадров                           : 31,250 кадров/сек (1536 spf)
Метод сжатия                             : С потерями
Размер потока                            : 3,20 Мбайт (2%)

Текст #1
Идентификатор                            : 189 (0xBD)-32 (0x20)
Формат                                   : RLE
Формат/Информация                        : Run-length encoding
Режим смешивания                         : DVD-Video

Текст #2
Идентификатор                            : 189 (0xBD)-33 (0x21)
Формат                                   : RLE
Формат/Информация                        : Run-length encoding
Режим смешивания                         : DVD-Video

Меню

Общее
Полное имя                               : D:\ARMIN_MUSICVIDEOS_97_09\VIDEO_TS\VTS_01_1.VOB
Формат                                   : MPEG-PS
Размер файла                             : 1024 Мбайт
Продолжительность                        : 55 с.
Общий поток                              : 155 Мбит/сек

Видео
Идентификатор                            : 224 (0xE0)
Формат                                   : MPEG Video
Версия формата                           : Version 2
Профиль формата                          : Main@Main
Параметр BVOP формата                    : Да
Параметр матрицы формата                 : По умолчанию
Параметр GOP формата                     : M=2, N=14
Продолжительность                        : 55 с.
Битрейт                                  : 151 Мбит/сек
Максимальный битрейт                     : 6500 Кбит/сек
Ширина                                   : 720 пикселей
Высота                                   : 576 пикселей
Соотношение сторон                       : 16:9
Частота кадров                           : 25,000 кадров/сек
Стандарт вещания                         : PAL
Цветовое пространство                    : YUV
Субдискретизация насыщенности            : 4:2:0
Битовая глубина                          : 8 бит
Тип развёртки                            : Прогрессивная
Метод сжатия                             : С потерями
Бит/(Пиксели*Кадры)                      : 14.610
Временной код первого кадра              : 00:00:00:00
Оригинал временного кода                 : Group of pictures header
GOP, открыто/закрыто                     : Открыто
GOP, открыто/закрыто на первом кадре     : Закрыто
Размер потока                            : 1000 Мбайт (98%)

Аудио
Идентификатор                            : 189 (0xBD)-128 (0x80)
Формат                                   : AC-3
Формат/Информация                        : Audio Coding 3
Расширение режима                        : CM (complete main)
Параметр Endianness формата              : Big
Режим смешивания                         : DVD-Video
Продолжительность                        : 55 с.
Вид битрейта                             : Постоянный
Битрейт                                  : 448 Кбит/сек
Каналы                                   : 6 каналов
Расположение каналов                     : Front: L C R, Side: L R, LFE
Частота                                  : 48,0 КГц
Частота кадров                           : 31,250 кадров/сек (1536 spf)
Метод сжатия                             : С потерями
Размер потока                            : 2,95 Мбайт (0%)

Меню

Общее
Полное имя                               : D:\ARMIN_MUSICVIDEOS_97_09\VIDEO_TS\VTS_01_2.VOB
Формат                                   : MPEG-PS
Размер файла                             : 1024 Мбайт
Продолжительность                        : 33 с.
Общий поток                              : 256 Мбит/сек

Видео
Идентификатор                            : 224 (0xE0)
Формат                                   : MPEG Video
Версия формата                           : Version 2
Профиль формата                          : Main@Main
Параметр BVOP формата                    : Да
Параметр матрицы формата                 : По умолчанию
Параметр GOP формата                     : M=2, N=14
Продолжительность                        : 33 с.
Битрейт                                  : 250 Мбит/сек
Максимальный битрейт                     : 6500 Кбит/сек
Ширина                                   : 720 пикселей
Высота                                   : 576 пикселей
Соотношение сторон                       : 16:9
Частота кадров                           : 25,000 кадров/сек
Стандарт вещания                         : PAL
Цветовое пространство                    : YUV
Субдискретизация насыщенности            : 4:2:0
Битовая глубина                          : 8 бит
Тип развёртки                            : Прогрессивная
Метод сжатия                             : С потерями
Бит/(Пиксели*Кадры)                      : 24.142
Временной код первого кадра              : 00:00:55:10
Оригинал временного кода                 : Group of pictures header
GOP, открыто/закрыто                     : Открыто
Размер потока                            : 1001 Мбайт (98%)

Аудио
Идентификатор                            : 189 (0xBD)-128 (0x80)
Формат                                   : AC-3
Формат/Информация                        : Audio Coding 3
Расширение режима                        : CM (complete main)
Параметр Endianness формата              : Big
Режим смешивания                         : DVD-Video
Продолжительность                        : 33 с.
Вид битрейта                             : Постоянный
Битрейт                                  : 448 Кбит/сек
Каналы                                   : 6 каналов
Расположение каналов                     : Front: L C R, Side: L R, LFE
Частота                                  : 48,0 КГц
Частота кадров                           : 31,250 кадров/сек (1536 spf)
Метод сжатия                             : С потерями
Задержка видео                           : -240 мс.
Размер потока                            : 1,79 Мбайт (0%)

Меню

Общее
Полное имя                               : D:\ARMIN_MUSICVIDEOS_97_09\VIDEO_TS\VTS_01_3.VOB
Формат                                   : MPEG-PS
Размер файла                             : 1024 Мбайт
Продолжительность                        : 5 м. 56 с.
Общий поток                              : 24,1 Мбит/сек

Видео
Идентификатор                            : 224 (0xE0)
Формат                                   : MPEG Video
Версия формата                           : Version 2
Профиль формата                          : Main@Main
Параметр BVOP формата                    : Да
Параметр матрицы формата                 : По умолчанию
Параметр GOP формата                     : M=2, N=14
Продолжительность                        : 5 м. 56 с.
Битрейт                                  : 23,2 Мбит/сек
Максимальный битрейт                     : 6500 Кбит/сек
Ширина                                   : 720 пикселей
Высота                                   : 576 пикселей
Соотношение сторон                       : 16:9
Частота кадров                           : 25,000 кадров/сек
Стандарт вещания                         : PAL
Цветовое пространство                    : YUV
Субдискретизация насыщенности            : 4:2:0
Битовая глубина                          : 8 бит
Тип развёртки                            : Прогрессивная
Метод сжатия                             : С потерями
Бит/(Пиксели*Кадры)                      : 2.236
Временной код первого кадра              : 00:01:29:00
Оригинал временного кода                 : Group of pictures header
GOP, открыто/закрыто                     : Открыто
Размер потока                            : 984 Мбайт (96%)

Аудио
Идентификатор                            : 189 (0xBD)-128 (0x80)
Формат                                   : AC-3
Формат/Информация                        : Audio Coding 3
Расширение режима                        : CM (complete main)
Параметр Endianness формата              : Big
Режим смешивания                         : DVD-Video
Продолжительность                        : 5 м. 56 с.
Вид битрейта                             : Постоянный
Битрейт                                  : 448 Кбит/сек
Каналы                                   : 6 каналов
Расположение каналов                     : Front: L C R, Side: L R, LFE
Частота                                  : 48,0 КГц
Частота кадров                           : 31,250 кадров/сек (1536 spf)
Метод сжатия                             : С потерями
Задержка видео                           : -240 мс.
Размер потока                            : 19,0 Мбайт (2%)

Меню

Общее
Полное имя                               : D:\ARMIN_MUSICVIDEOS_97_09\VIDEO_TS\VTS_01_4.VOB
Формат                                   : MPEG-PS
Размер файла                             : 108 Мбайт
Продолжительность                        : 2 м. 8 с.
Общий поток                              : 7062 Кбит/сек

Видео
Идентификатор                            : 224 (0xE0)
Формат                                   : MPEG Video
Версия формата                           : Version 2
Профиль формата                          : Main@Main
Параметр BVOP формата                    : Да
Параметр матрицы формата                 : По умолчанию
Параметр GOP формата                     : M=2, N=14
Продолжительность                        : 2 м. 8 с.
Битрейт                                  : 6500 Кбит/сек
Ширина                                   : 720 пикселей
Высота                                   : 576 пикселей
Соотношение сторон                       : 16:9
Частота кадров                           : 25,000 кадров/сек
Стандарт вещания                         : PAL
Цветовое пространство                    : YUV
Субдискретизация насыщенности            : 4:2:0
Битовая глубина                          : 8 бит
Тип развёртки                            : Прогрессивная
Метод сжатия                             : С потерями
Бит/(Пиксели*Кадры)                      : 0.627
Временной код первого кадра              : 00:07:25:04
Оригинал временного кода                 : Group of pictures header
GOP, открыто/закрыто                     : Открыто
Размер потока                            : 99,0 Мбайт (92%)

Аудио
Идентификатор                            : 189 (0xBD)-128 (0x80)
Формат                                   : AC-3
Формат/Информация                        : Audio Coding 3
Расширение режима                        : CM (complete main)
Параметр Endianness формата              : Big
Режим смешивания                         : DVD-Video
Продолжительность                        : 2 м. 8 с.
Вид битрейта                             : Постоянный
Битрейт                                  : 448 Кбит/сек
Каналы                                   : 6 каналов
Расположение каналов                     : Front: L C R, Side: L R, LFE
Частота                                  : 48,0 КГц
Частота кадров                           : 31,250 кадров/сек (1536 spf)
Метод сжатия                             : С потерями
Задержка видео                           : -240 мс.
Размер потока                            : 6,86 Мбайт (6%)

Меню
Скриншоты:

Время раздачи: 24/7
 
Не забывайте говорить Спасибо. Не уходите с раздачи!   
Торрент: Зарегистрирован [26 фев 2016, 15:04] Скачать торрент
Скачать торрент
[ Размер 17.51 КБ / Просмотров 42 ]
Статус:
Проверен
 
.torrent скачан: 0 раз
Хэш: 017c1ca2ee3f3bd7f5414e9f153d2433edb4f99a
Размер: 3.26 ГБ (3 500 868 383 байт)
Стать Автором раздачи
 
Аватара пользователя
Главный редактор
Главный редактор
 
Раздал: 15.43 ТБ
Скачал: 13.78 ТБ
Ратио: 1.120
Сообщения: 65446
Зарегистрирован: 01 мар 2011, 23:07


  • Похожие торренты
    Ответы
    Просмотры
    Последнее сообщение

Вернуться в Музыкальные клипы (транзит)

Ресурс не предоставляет электронные версии произведений, а занимается лишь коллекционированием и каталогизацией ссылок, присылаемых и публикуемых на форуме нашими читателями. Если вы являетесь правообладателем какого-либо представленного материала и не желаете чтобы ссылка на него находилась в нашем каталоге, свяжитесь с нами и мы незамедлительно удалим её. Файлы для обмена на трекере предоставлены пользователями сайта, и администрация не несёт ответственности за их содержание. Просьба не заливать файлы, защищенные авторскими правами, а также файлы нелегального содержания!
cron