Супердевушка / Supergirl (2015) WEB-DLRip [H.264] (Сезон 1, серии 1-14 из 20) BaibaKo [MP4|720x400]

 
 Статистика раздачи 
Размер: 8.02 ГБ   |  Зарегистрирован: 26 фев 2016, 14:35   |   .torrent скачан: 0 раз
Сидеров: 1  [ 0 байт/сек ]     Личеров: 17  [ 0 байт/сек ]  
  

Супердевушка / Supergirl (2015) WEB-DLRip [H.264] (Сезон 1, серии 1-14 из 20) BaibaKo [MP4|720x400]

Сообщение i926 » 26 фев 2016, 14:35

Супердевушка / Supergirl (2015) WEB-DLRip (Сезон 1, серии 1-14 из 20) BaibaKo
«It's not a bird. It's not a plane. It's not a man. It's Supergirl»

Производство: США
Жанр: фантастика, боевик, приключения

Режиссер: Глен Винтер
Актеры: Мелисса Бенойст, Дерек Мио, Бен Бегли, Лаура Бенанти, Мехкад Брукс, Дин Кэйн, Калиста Флокхарт, Тони Френч, Роберт Гант, Дэвид Хэрвуд и др.

Описание:
В двенадцать лет Кара Зор-Эл была вынуждена покинуть родную планету Криптон. На Земле ее приютила семья Дэнверс. Всю свою земную жизнь она тщательно скрывала свои сверхспособности. Сейчас Каре 24 года, она работает в крупной медийной корпорации помощником руководителя. Никто из ее знакомых не знает о том, кто она на самом деле, и девушку это вполне устраивает. Но однажды появляется новый злодей, и Кара вынуждена вновь учиться управлять своей силой, чтобы противостоять могущественному врагу и спасти мир от разрушения.



Продолжительность: ~00:45:00 серия
Качество видео: WEB-DLRip
Перевод: Многоголосый закадровый, профессиональный - BaibaKo
Автор перевода: Янина Галицкая
Озвучка: Юлия Котурбаш, Светлана Доманова, Артемий Мирон, Сергей Корчак и Алексей Кузнецов

Видео: AVC/H.264 (Baseline@L3.0), 720x400 (16:9), ~1536 Кбит/сек
Аудио #1: AAC, 2 канала, 163 Кбит/сек - русский (многоголосый закадровый)
Аудио #2: AAC, 2 канала, 163 Кбит/сек - английский (оригинальный)
Код:
Код: Выделить всё
Полное имя                               : E:\Supergirl_s1_WEB-DLRip_x264_BaibaKo_[NNM-CLUB]\Supergirl.s01e01.Aired.Pilot.WEB-DLRip.x264.Rus.Eng.BaibaKo.tv.mp4
Формат                                   : MPEG-4
Профиль формата                          : Base Media
Идентификатор кодека                     : isom
Размер файла                             : 604 Мбайт
Продолжительность                        : 45 м.
Режим общего битрейта                    : Переменный
Общий поток                              : 1866 Кбит/сек
Дата кодирования                         : UTC 2015-10-27 13:31:03
Дата пометки                             : UTC 2015-10-27 13:31:03

Видео
Идентификатор                            : 1
Формат                                   : AVC
Формат/Информация                        : Advanced Video Codec
Профиль формата                          :
Параметр CABAC формата                   : Нет
Параметр ReFrames формата                : 1 кадр
Идентификатор кодека                     : avc1
Идентификатор кодека/Информация          : Advanced Video Coding
Продолжительность                        : 45 м.
Битрейт                                  : 1536 Кбит/сек
Максимальный битрейт                     : 5937 Кбит/сек
Ширина                                   : 720 пикселей
Высота                                   : 400 пикселей
Соотношение сторон                       : 16:9
Режим частоты кадров                     : Переменный
Частота кадров                           : 23,976 кадра/сек
Минимальная частота кадров               : 23,974 кадра/сек
Максимальная частота кадров              : 23,981 кадра/сек
Цветовое пространство                    : YUV
Субдискретизация насыщенности            : 4:2:0
Битовая глубина                          : 8 бит
Тип развёртки                            : Прогрессивная
Бит/(Пиксели*Кадры)                      : 0.222
Размер потока                            : 497 Мбайт (82%)
Библиотека кодирования                   : x264 core 142 r2479 dd79a61
Настройки программы                      : cabac=0 / ref=1 / deblock=1:0:0 / analyse=0x1:0x111 / me=hex / subme=2 / psy=1 / psy_rd=1.00:0.00 / mixed_ref=0 / me_range=16 / chroma_me=1 / trellis=0 / 8x8dct=0 / cqm=0 / deadzone=21,11 / fast_pskip=1 / chroma_qp_offset=0 / threads=12 / lookahead_threads=3 / sliced_threads=0 / nr=0 / decimate=1 / interlaced=0 / bluray_compat=0 / constrained_intra=0 / bframes=0 / weightp=0 / keyint=240 / keyint_min=24 / scenecut=40 / intra_refresh=0 / rc_lookahead=10 / rc=2pass / mbtree=1 / bitrate=1536 / ratetol=1.0 / qcomp=0.60 / qpmin=0 / qpmax=69 / qpstep=4 / cplxblur=20.0 / qblur=0.5 / vbv_maxrate=10000 / vbv_bufsize=10000 / nal_hrd=none / filler=0 / ip_ratio=1.40 / aq=1:1.00
Дата кодирования                         : UTC 2036-02-06 06:28:16
Дата пометки                             : UTC 2015-10-27 13:31:26
Основные цвета                           : BT.709
Характеристики трансфера                 : BT.709
Коэффициенты матрицы                     : BT.709

Аудио #1
Идентификатор                            : 2
Формат                                   : AAC
Формат/Информация                        : Advanced Audio Codec
Профиль формата                          : LC
Идентификатор кодека                     : 40
Продолжительность                        : 45 м.
Вид битрейта                             : Переменный
Битрейт                                  : 163 Кбит/сек
Максимальный битрейт                     : 219 Кбит/сек
Каналы                                   : 2 канала
Расположение каналов                     : Front: L R
Частота                                  : 48,0 КГц
Метод сжатия                             : С потерями
Размер потока                            : 52,7 Мбайт (9%)
Язык                                     : Russian
Дата кодирования                         : UTC 2015-10-27 13:31:12
Дата пометки                             : UTC 2015-10-27 13:31:26

Аудио #2
Идентификатор                            : 3
Формат                                   : AAC
Формат/Информация                        : Advanced Audio Codec
Профиль формата                          : LC
Идентификатор кодека                     : 40
Продолжительность                        : 45 м.
Вид битрейта                             : Переменный
Битрейт                                  : 163 Кбит/сек
Максимальный битрейт                     : 212 Кбит/сек
Каналы                                   : 2 канала
Расположение каналов                     : Front: L R
Частота                                  : 48,0 КГц
Метод сжатия                             : С потерями
Размер потока                            : 52,7 Мбайт (9%)
Язык                                     : English
Дата кодирования                         : UTC 2015-10-27 13:31:20
Дата пометки                             : UTC 2015-10-27 13:31:26
01. Pilot / Пилот (эфирный вариант)
02. Stronger Together / Вместе сильнее
03. Fight or Flight / Сражайся или улетай
04. How Does She Do It? / Как она это делает?
05. Livewire / Лайвваер
06. Red Faced / Красный торнадо
07. Human for a Day / Один день побыть человеком
08. Hostile Takeover / Переворот
09. Blood Bonds / Кровные узы
10. Childish Things / Детские игрушки
11. Strange Visitor from Another Planet / Странный гость с другой планеты
12. Bizarro / Бизарро
13. For the Girl Who Has Everything / Для той, у которой всё есть
Внимание! Раздача ведётся путём добавления новых серий; при каждом добавлении создаётся новый торрент.
Чтобы начать докачку новой серии, пользователям необходимо сделать следующее:
1. Остановить скачивание;
2. Удалить старый торрент у себя из клиента (старые серии удалять не надо);
3. Скачать новый торрент и запустить его у себя в клиенте вместо старого, при этом указать клиенту путь в старую папку куда и должно происходить скачивание новых серий. Ваш клиент при этом должен произвести хеширование (проверку) старой папки и будет докачивать только те серии, которых у вас ещё нет. Старые серии при этом не удаляются, а продолжают раздаваться! Eсли вы уже удалили старые серии, то предотвратить повторную закачку старых серий можно, отжав галочку в соответствующих местах при запуске нового торрента.

Скриншоты:




Время раздачи:
24/7 - круглосуточно
(до первых 5-ти сидов - потом по возможности)

 
Не забывайте говорить Спасибо. Не уходите с раздачи!   
Торрент: Зарегистрирован [26 фев 2016, 14:35] Для скачивания .torrent
необходима регистрация
Или скачать с помощью
MediaGet
Статус:
Проверен
 
.torrent скачан: 0 раз
Хэш: 224c8da22ccd43f452c7179f99b86ee43862364a
Размер: 8.02 ГБ (8 615 672 456 байт)
Стать Автором раздачи
 
Аватара пользователя
Главный редактор
Главный редактор
 
Раздал: 15.43 ТБ
Скачал: 13.78 ТБ
Ратио: 1.120
Сообщения: 65091
Зарегистрирован: 01 мар 2011, 23:07


  • Похожие торренты
    Ответы
    Просмотры
    Последнее сообщение

Вернуться в Видео для мобильных устройств

Ресурс не предоставляет электронные версии произведений, а занимается лишь коллекционированием и каталогизацией ссылок, присылаемых и публикуемых на форуме нашими читателями. Если вы являетесь правообладателем какого-либо представленного материала и не желаете чтобы ссылка на него находилась в нашем каталоге, свяжитесь с нами и мы незамедлительно удалим её. Файлы для обмена на трекере предоставлены пользователями сайта, и администрация не несёт ответственности за их содержание. Просьба не заливать файлы, защищенные авторскими правами, а также файлы нелегального содержания!
cron