Dj Antonio - XIII - Deja Vu. 1 Year Together (2007) [FLAC|Lossless|tracks + .cue] <House>

 
 Статистика раздачи 
Размер: 554.04 МБ   |  Зарегистрирован: 24 фев 2016, 19:15   |   .torrent скачан: 0 раз
Сидеров: 1  [ 0 байт/сек ]     Личеров: 0  [ 0 байт/сек ]  
  

Dj Antonio - XIII - Deja Vu. 1 Year Together (2007) [FLAC|Lossless|tracks + .cue] <House>

Сообщение i926 » 24 фев 2016, 19:15

Dj Antonio - XIII - Deja Vu. 1 Year Together (2007)

Год: 2007
Жанр: House
Продолжительность: 01:14:22
Источник (релизер): ss01®

Кодек: FLAC
Битрейт: Lossless
Тип рипа: tracks + .cue

Треклист:
Not Available
XIII впервые открылся в марте 1999 года. Для Москвы 90-х концепция этого заведения была во многом уникальна.
В первую очередь это касалось новаторской концепции тематических вечеринок.
Для каждого клубного уикэнда промоутеры XIII придумывали свою историю, которая потом обыгрывалась специально построенными для вечеринки декорациями, особым дизайном помещения и костюмированным шоу.
XIII стал первым клубом, решившимся устраивать в Москве гастроли западных диджеев. Гостями XIII были такие знаменитости как Sasha, Boy George, Dave Seaman, Anthony Pappa, Futureshock и многие другие. Сет Deep Dish в XIII лег в основу компиляции Global Undeground: Moscow, разошедшейся по миру миллионными тиражами.
XIII устраивал поездки российских клабберов на Ибицу и стал первым русским клубом организовавшим на Ибице собственную вечеринку.
Пять раз клуб XIII становился лауреатом престижной премии Nightlife Awards.
На протяжении трех лет XIII являлся флагманом с толичной ночной жизни. Каждый уикэнд в клубе собирались сливки столичной клубной публики. Среди посетителей клуба встречались и иностранные звезды - Гаррисон Форд, Мэрлин Мэнсон, Fatboy Slim и многие другие.
В мае 2005 года, после почти трехлетнего перерыва, XIII вновь открыл свои двери для публики.
XIII предлагает публике необычную идею концептуального клуба, меняющегося каждую неделю согласно заявленной теме. Дизайн помещения, световое решение, постановочные шоу, музыкальная политика и костюмы персонала подчиняются одной общей идее, превращая обычную клубную вечеринку в настоящий карнавал.
На протяжении 2007 года субботами в клубе занималась промо группа The Brand Production, в честь дня рождения которой 10 ноября 2007 года была проведена вечеринка, а гостям был подарен этот замечательный альбом.
Код:
Код: Выделить всё
Exact Audio Copy V1.1 from 23. June 2015

EAC extraction logfile from 24. February 2016, 2:35

Dj Antonio / XIII Deja Vu Special Birthday Edition

Used drive  : PIONEER DVD-RW  DVR-221   Adapter: 1  ID: 0

Read mode               : Secure
Utilize accurate stream : Yes
Defeat audio cache      : Yes
Make use of C2 pointers : No

Read offset correction                      : 6
Overread into Lead-In and Lead-Out          : No
Fill up missing offset samples with silence : Yes
Delete leading and trailing silent blocks   : No
Null samples used in CRC calculations       : Yes
Used interface                              : Native Win32 interface for Win NT & 2000
Gap handling                                : Appended to previous track

Used output format              : User Defined Encoder
Selected bitrate                : 768 kBit/s
Quality                         : High
Add ID3 tag                     : No
Command line compressor         : C:\Program Files (x86)\Exact Audio Copy\FLAC\FLAC.EXE
Additional command line options : -8 -V -T "TITLE=%title%" -T "ARTIST=%artist%" -T "ALBUMARTIST=%albumartist%" -T "ALBUM=%albumtitle%" -T "DATE=%year%" -T "TRACKNUMBER=%tracknr%" -T "TRACKTOTAL=%numtracks%" -T "GENRE=%genre%" -T "COMMENT=%comment%" -T "PERFORMER=%albuminterpret%" -T "COMPOSER=%composer%" %source% -o %dest%

TOC of the extracted CD

     Track |   Start  |  Length  | Start sector | End sector
    ---------------------------------------------------------
        1  |  0:00.00 |  0:41.00 |         0    |     3074
        2  |  0:41.00 |  6:32.16 |      3075    |    32490
        3  |  7:13.16 |  3:14.39 |     32491    |    47079
        4  | 10:27.55 |  5:16.42 |     47080    |    70821
        5  | 15:44.22 |  2:45.34 |     70822    |    83230
        6  | 18:29.56 |  2:29.31 |     83231    |    94436
        7  | 20:59.12 |  1:45.68 |     94437    |   102379
        8  | 22:45.05 |  4:30.72 |    102380    |   122701
        9  | 27:16.02 |  2:16.14 |    122702    |   132915
       10  | 29:32.16 |  2:47.02 |    132916    |   145442
       11  | 32:19.18 |  2:30.35 |    145443    |   156727
       12  | 34:49.53 |  3:15.64 |    156728    |   171416
       13  | 38:05.42 |  2:19.10 |    171417    |   181851
       14  | 40:24.52 |  5:07.31 |    181852    |   204907
       15  | 45:32.08 |  3:22.73 |    204908    |   220130
       16  | 48:55.06 |  4:29.69 |    220131    |   240374
       17  | 53:25.00 |  3:00.23 |    240375    |   253897
       18  | 56:25.23 |  4:41.10 |    253898    |   274982
       19  | 61:06.33 |  4:07.28 |    274983    |   293535
       20  | 65:13.61 |  3:37.27 |    293536    |   309837
       21  | 68:51.13 |  5:31.46 |    309838    |   334708

Track  1

     Filename D:\!!!MUSIC!!!\LOSSLESS\XIII\01. Dj Antonio - Трек01.wav

     Pre-gap length  0:00:02.00

     Peak level 100.0 %
     Extraction speed 2.7 X
     Track quality 100.0 %
     Test CRC 15428779
     Copy CRC 15428779
     Track not present in AccurateRip database
     Copy OK

Track  2

     Filename D:\!!!MUSIC!!!\LOSSLESS\XIII\02. Dj Antonio - Трек02.wav

     Peak level 100.0 %
     Extraction speed 5.4 X
     Track quality 100.0 %
     Test CRC 5BD66604
     Copy CRC 5BD66604
     Track not present in AccurateRip database
     Copy OK

Track  3

     Filename D:\!!!MUSIC!!!\LOSSLESS\XIII\03. Dj Antonio - Трек03.wav

     Peak level 100.0 %
     Extraction speed 4.3 X
     Track quality 99.9 %
     Test CRC C7710A7E
     Copy CRC C7710A7E
     Track not present in AccurateRip database
     Copy OK

Track  4

     Filename D:\!!!MUSIC!!!\LOSSLESS\XIII\04. Dj Antonio - Трек04.wav

     Peak level 100.0 %
     Extraction speed 4.1 X
     Track quality 99.9 %
     Test CRC 57FF309D
     Copy CRC A5EE47E4
     Track not present in AccurateRip database
     Copy OK

Track  5

     Filename D:\!!!MUSIC!!!\LOSSLESS\XIII\05. Dj Antonio - Трек05.wav

     Peak level 100.0 %
     Extraction speed 6.1 X
     Track quality 100.0 %
     Test CRC 586C2E6E
     Copy CRC 586C2E6E
     Track not present in AccurateRip database
     Copy OK

Track  6

     Filename D:\!!!MUSIC!!!\LOSSLESS\XIII\06. Dj Antonio - Трек06.wav

     Peak level 100.0 %
     Extraction speed 4.5 X
     Track quality 99.9 %
     Test CRC 23EF7C42
     Copy CRC 23EF7C42
     Track not present in AccurateRip database
     Copy OK

Track  7

     Filename D:\!!!MUSIC!!!\LOSSLESS\XIII\07. Dj Antonio - Трек07.wav

     Peak level 100.0 %
     Extraction speed 4.0 X
     Track quality 99.8 %
     Test CRC 9E067DEB
     Copy CRC 9E067DEB
     Track not present in AccurateRip database
     Copy OK

Track  8

     Filename D:\!!!MUSIC!!!\LOSSLESS\XIII\08. Dj Antonio - Трек08.wav

     Peak level 100.0 %
     Extraction speed 7.2 X
     Track quality 100.0 %
     Test CRC 8C182203
     Copy CRC 8C182203
     Track not present in AccurateRip database
     Copy OK

Track  9

     Filename D:\!!!MUSIC!!!\LOSSLESS\XIII\09. Dj Antonio - Трек09.wav

     Peak level 100.0 %
     Extraction speed 6.6 X
     Track quality 100.0 %
     Test CRC 2AB2A8A3
     Copy CRC 2AB2A8A3
     Track not present in AccurateRip database
     Copy OK

Track 10

     Filename D:\!!!MUSIC!!!\LOSSLESS\XIII\10. Dj Antonio - Трек10.wav

     Peak level 100.0 %
     Extraction speed 7.0 X
     Track quality 100.0 %
     Test CRC 9ACF42D8
     Copy CRC 9ACF42D8
     Track not present in AccurateRip database
     Copy OK

Track 11

     Filename D:\!!!MUSIC!!!\LOSSLESS\XIII\11. Dj Antonio - Трек11.wav

     Peak level 100.0 %
     Extraction speed 7.1 X
     Track quality 100.0 %
     Test CRC 07FA626A
     Copy CRC 07FA626A
     Track not present in AccurateRip database
     Copy OK

Track 12

     Filename D:\!!!MUSIC!!!\LOSSLESS\XIII\12. Dj Antonio - Трек12.wav

     Peak level 100.0 %
     Extraction speed 5.9 X
     Track quality 99.9 %
     Test CRC E2DC1E24
     Copy CRC E2DC1E24
     Track not present in AccurateRip database
     Copy OK

Track 13

     Filename D:\!!!MUSIC!!!\LOSSLESS\XIII\13. Dj Antonio - Трек13.wav

     Peak level 100.0 %
     Extraction speed 5.4 X
     Track quality 99.9 %
     Test CRC 9333F9C2
     Copy CRC 9333F9C2
     Track not present in AccurateRip database
     Copy OK

Track 14

     Filename D:\!!!MUSIC!!!\LOSSLESS\XIII\14. Dj Antonio - Трек14.wav

     Peak level 100.0 %
     Extraction speed 7.1 X
     Track quality 99.9 %
     Test CRC 36E8E47D
     Copy CRC 36E8E47D
     Track not present in AccurateRip database
     Copy OK

Track 15

     Filename D:\!!!MUSIC!!!\LOSSLESS\XIII\15. Dj Antonio - Трек15.wav

     Suspicious position 0:02:18 - 0:02:23
     Suspicious position 0:02:25 - 0:02:30
     Suspicious position 0:02:32 - 0:02:33
     Suspicious position 0:02:35 - 0:02:43

     Peak level 100.0 %
     Extraction speed 0.0 X
     Track quality 94.1 %
     Test CRC 29C139ED
     Copy CRC CFB8AF18
     Track not present in AccurateRip database
     Copy finished

Track 16

     Filename D:\!!!MUSIC!!!\LOSSLESS\XIII\16. Dj Antonio - Трек16.wav

     Peak level 100.0 %
     Extraction speed 7.3 X
     Track quality 99.9 %
     Test CRC 357BFADD
     Copy CRC 357BFADD
     Track not present in AccurateRip database
     Copy OK

Track 17

     Filename D:\!!!MUSIC!!!\LOSSLESS\XIII\17. Dj Antonio - Трек17.wav

     Peak level 100.0 %
     Extraction speed 8.6 X
     Track quality 100.0 %
     Test CRC 777D2D8D
     Copy CRC 777D2D8D
     Track not present in AccurateRip database
     Copy OK

Track 18

     Filename D:\!!!MUSIC!!!\LOSSLESS\XIII\18. Dj Antonio - Трек18.wav

     Suspicious position 0:00:21 - 0:00:23

     Peak level 100.0 %
     Extraction speed 0.2 X
     Track quality 98.7 %
     Test CRC 4E2CE73A
     Copy CRC 438514C2
     Track not present in AccurateRip database
     Copy finished

Track 19

     Filename D:\!!!MUSIC!!!\LOSSLESS\XIII\19. Dj Antonio - Трек19.wav

     Suspicious position 0:03:18

     Peak level 100.0 %
     Extraction speed 0.2 X
     Track quality 98.6 %
     Test CRC 2418149F
     Copy CRC F74A4649
     Track not present in AccurateRip database
     Copy finished

Track 20

     Filename D:\!!!MUSIC!!!\LOSSLESS\XIII\20. Dj Antonio - Трек20.wav

     Suspicious position 0:02:05 - 0:02:09

     Peak level 100.0 %
     Extraction speed 0.1 X
     Track quality 97.5 %
     Test CRC 68180B3B
     Copy CRC BD3E9DD7
     Track not present in AccurateRip database
     Copy finished

Track 21

     Filename D:\!!!MUSIC!!!\LOSSLESS\XIII\21. Dj Antonio - Трек21.wav

     Peak level 100.0 %
     Extraction speed 0.6 X
     Track quality 99.1 %
     Test CRC A9629D23
     Copy CRC 71202163
     Track not present in AccurateRip database
     Copy OK

None of the tracks are present in the AccurateRip database

There were errors

End of status report

---- CUETools DB Plugin V2.1.6

[CTDB TOCID: o9u800vL8Io00bjx9wr.2BiXSLk-] found
Submit result: insufficient quality
Track | CTDB Status
  1   | (1/1) Accurately ripped
  2   | (1/1) Accurately ripped
  3   | (1/1) Accurately ripped
  4   | (1/1) Accurately ripped
  5   | (1/1) Accurately ripped
  6   | (1/1) Accurately ripped
  7   | (1/1) Accurately ripped
  8   | (1/1) Accurately ripped
  9   | (1/1) Accurately ripped
 10   | (1/1) Accurately ripped
 11   | (1/1) Accurately ripped
 12   | (1/1) Accurately ripped
 13   | (1/1) Accurately ripped
 14   | (1/1) Accurately ripped
 15   | (0/1) No match
 16   | (1/1) Accurately ripped
 17   | (1/1) Accurately ripped
 18   | (0/1) No match
 19   | (0/1) No match
 20   | (0/1) No match
 21   | (0/1) No match

==== Log checksum DD1311884F2D936D25AF91579D7240A761019E070D5F08FEB9B060D5D31F7A7F ====
Код:
Код: Выделить всё
-----------------------

DON'T MODIFY THIS FILE

-----------------------

PERFORMER: auCDtect Task Manager, ver. 1.6.0 RC1 build 1.6.0.1
Copyright (c) 2008-2010 y-soft. All rights reserved
http:/y-soft.org

ANALYZER: auCDtect: CD records authenticity detector, version 0.8.2
Copyright (c) 2004 Oleg Berngardt. All rights reserved.
Copyright (c) 2004 Alexander Djourik. All rights reserved.

FILE: 21. Dj Antonio - Трек21.flac
  Size: 39617202 Hash: 1BDA5F3A87D644A6701590DB63F100C3 Accuracy: -m0
  Conclusion: CDDA 92%
  Signature: 485BE373648F713DC7E56BC41ADDAAD35667DA17
FILE: 20. Dj Antonio - Трек20.flac
  Size: 26453034 Hash: 97CB7C30BE3DB000C980A6CBBF480BDA Accuracy: -m0
  Conclusion: CDDA 100%
  Signature: A5B5F81518CC32A8AE7EDF179361DD1DE005FD4E
FILE: 19. Dj Antonio - Трек19.flac
  Size: 34179855 Hash: 165F5ABE6B2DECB175B591FCC970E496 Accuracy: -m0
  Conclusion: MPEG 95%
  Signature: F3FD812AF7CCB45E39272E5CA4352302F3ABF485
FILE: 18. Dj Antonio - Трек18.flac
  Size: 33853682 Hash: D2F10EBB250449D44EE61B7E6C118392 Accuracy: -m0
  Conclusion: CDDA 94%
  Signature: 4B464E3A4C1DA134C4128DA823A3922FB08E4E6C
FILE: 17. Dj Antonio - Трек17.flac
  Size: 22528230 Hash: C449A8AED6AD9B4CB0D29498405826F5 Accuracy: -m0
  Conclusion: MPEG 95%
  Signature: 3B378D38FC336001C9B9B6055942C671B533D0BB
FILE: 16. Dj Antonio - Трек16.flac
  Size: 31273814 Hash: 89D0C68508DA2B1659DBF9033A179DC9 Accuracy: -m0
  Conclusion: CDDA 87%
  Signature: 17E99C391E196E36B84182AD491555895D0925DC
FILE: 15. Dj Antonio - Трек15.flac
  Size: 25283393 Hash: DDF291FCB2147931C8E61E88EB79EEDB Accuracy: -m0
  Conclusion: CDDA 100%
  Signature: 9922BC9F460E592935F7B8D2ACAAA1CDBD98416C
FILE: 14. Dj Antonio - Трек14.flac
  Size: 38355467 Hash: 97504207F841EB5A93DA3DEB14CF32D5 Accuracy: -m0
  Conclusion: MPEG 95%
  Signature: 4C29BAC1963F87C9465AD6DC4DE381FEA0743C4E
FILE: 13. Dj Antonio - Трек13.flac
  Size: 17750386 Hash: 43BE5D607A7079CB1FD5B0C2E4364EF1 Accuracy: -m0
  Conclusion: MPEG 95%
  Signature: 6CB7BFAE7D60DDB9934E7276B1B6FA540AEDD179
FILE: 12. Dj Antonio - Трек12.flac
  Size: 24659519 Hash: A3117810D6A4A36634AB793B322C457F Accuracy: -m0
  Conclusion: CDDA 99%
  Signature: 5B2F935E94FA30C246B367229856242630A42165
FILE: 11. Dj Antonio - Трек11.flac
  Size: 19462222 Hash: 50F2D29E5933781A81EEAA1F21892533 Accuracy: -m0
  Conclusion: MPEG 95%
  Signature: 0607ADDEDBE7EEBC45C368FCEF22E72E58BF0653
FILE: 10. Dj Antonio - Трек10.flac
  Size: 22604273 Hash: 9A9652C6A516FC664BF3A3177A7284D4 Accuracy: -m0
  Conclusion: CDDA 100%
  Signature: 1DC527EDFB4259FD400C6FD477739FF83185303C
FILE: 09. Dj Antonio - Трек09.flac
  Size: 16939312 Hash: FE1ED3C7316C4E2D3FB851937DDCB017 Accuracy: -m0
  Conclusion: CDDA 100%
  Signature: 0791D8F227FC9A64740491AC0C8FB47C90E325D8
FILE: 08. Dj Antonio - Трек08.flac
  Size: 33668193 Hash: 9DDECBBE5338641AF9230F6952345447 Accuracy: -m0
  Conclusion: MPEG 95%
  Signature: 2FA593BCE24E0C2C75474DB618B6F1E8FC54AA41
FILE: 07. Dj Antonio - Трек07.flac
  Size: 14850700 Hash: 0A390864A4B6FA776CE2FDCD620AA0D2 Accuracy: -m0
  Conclusion: CDDA 100%
  Signature: C76722247054A31F7685CA35D262B5980BE9B161
FILE: 06. Dj Antonio - Трек06.flac
  Size: 21987337 Hash: 2A25999D0DB33CA7C562A5045D4C4393 Accuracy: -m0
  Conclusion: MPEG 95%
  Signature: 4A8E7FE1211DE6D343C9EFD6206E399681342F46
FILE: 05. Dj Antonio - Трек05.flac
  Size: 23045799 Hash: 13564A43DADC8F21475AF11C646AC6E5 Accuracy: -m0
  Conclusion: CDDA 100%
  Signature: 2D7611D2182C4D926AABFC77B8E91B4E36205292
FILE: 04. Dj Antonio - Трек04.flac
  Size: 42331225 Hash: 574EA1D6E0B1334F6CD4A7B69702D6E9 Accuracy: -m0
  Conclusion: MPEG 95%
  Signature: 0B564BCCF7C13E5CCA124E4EC41A821ABBACB740
FILE: 03. Dj Antonio - Трек03.flac
  Size: 25290648 Hash: C8C3C1C841A695F9D3FF35081281694F Accuracy: -m0
  Conclusion: MPEG 95%
  Signature: 7116B7197165435CB2FC3253BD13909A7D3BE2EE
FILE: 02. Dj Antonio - Трек02.flac
  Size: 47858014 Hash: DDC39496E6CD520A2DF1551D1B41E797 Accuracy: -m0
  Conclusion: CDDA 86%
  Signature: 37858DFD72847CDBE1B040E284BDD2F5122B6FE5
FILE: 01. Dj Antonio - Трек01.flac
  Size: 6549937 Hash: 39FE67DC80383A6BBDE2AD758B61372F Accuracy: -m0
  Conclusion: CDDA 100%
  Signature: 3B54B1224CBB8DC1589DAE1A08AD21238EBB7BDC
Время раздачи: 24/7 (до появления первых 3-5 скачавших)
 
Не забывайте говорить Спасибо. Не уходите с раздачи!   
Торрент: Зарегистрирован [24 фев 2016, 19:15] Скачать торрент
Скачать торрент
[ Размер 13.31 КБ / Просмотров 18 ]
Статус:
Проверен
 
.torrent скачан: 0 раз
Хэш: b66c8ede3005c3192adb022979fa339bdfea463d
Размер: 554.04 МБ (580 951 638 байт)
Стать Автором раздачи
 
Аватара пользователя
Главный редактор
Главный редактор
 
Раздал: 15.43 ТБ
Скачал: 13.78 ТБ
Ратио: 1.120
Сообщения: 65451
Зарегистрирован: 01 мар 2011, 23:07


  • Похожие торренты
    Ответы
    Просмотры
    Последнее сообщение

Вернуться в House, Techno, Electro, Minimal (транзит Lossless)

Ресурс не предоставляет электронные версии произведений, а занимается лишь коллекционированием и каталогизацией ссылок, присылаемых и публикуемых на форуме нашими читателями. Если вы являетесь правообладателем какого-либо представленного материала и не желаете чтобы ссылка на него находилась в нашем каталоге, свяжитесь с нами и мы незамедлительно удалим её. Файлы для обмена на трекере предоставлены пользователями сайта, и администрация не несёт ответственности за их содержание. Просьба не заливать файлы, защищенные авторскими правами, а также файлы нелегального содержания!
cron