Хранители земли леопарда (2016) WEB-DL [H.264] (серии 1-5 из 5) [MP4|1280x720]

 
 Статистика раздачи 
Размер: 2.4 ГБ   |  Зарегистрирован: 16 фев 2016, 01:24   |   .torrent скачан: 0 раз
Сидеров: 1  [ 0 байт/сек ]     Личеров: 0  [ 0 байт/сек ]  
  

Хранители земли леопарда (2016) WEB-DL [H.264] (серии 1-5 из 5) [MP4|1280x720]

Сообщение ExaByte » 16 фев 2016, 01:24

Хранители земли леопарда (2016) WEB-DL [720p]

Телекомпания: Россия, RTD
Жанр: документальный, научно-познавательный, флора, фауна

Режиссер: Айк Ордян

Описание:
Тревожный звонок – и инспекторы национального парка вновь выезжают в тайгу. Браконьеры, охотящиеся на дальневосточного леопарда, не дают покоя ни днём, ни ночью. До середины ХХ века ареал обитания этого редчайшего представителя семейства кошачьих был весьма велик: весь Корейский полуостров, Приморье и две провинции Китая. Сегодня леопард водится только в России. В природе сохранилось всего несколько десятков особей, из них большая часть – на территории парка. Нелёгкой работе его сотрудников, которые изучают и самоотверженно оберегают этих уникальных кошек, посвящён сериал «Хранители земли леопарда».

Продолжительность: ~ 00:26:00 серия
Качество видео: WEB-DL

Видео: AVC/H.264, 1280x720, ~2187 Кбит/сек
Аудио: AAC, 2 канала, 192 Кбит/сек, VBR
Код:
Код: Выделить всё
Общее
Полное имя                               : E:\КИНО\Хранители земли леопарда\Хранители.земли.леопарда.1 серия.mp4
Формат                                   : MPEG-4
Профиль формата                          : Base Media / Version 2
Идентификатор кодека                     : mp42 (isom/mp42)
Размер файла                             : 449 Мбайт
Продолжительность                        : 26 м.
Режим общего битрейта                    : Переменный
Общий поток                              : 2382 Кбит/сек
Дата кодирования                         : UTC 2016-01-25 13:11:46
Дата пометки                             : UTC 2016-01-25 13:11:46
gsst                                     : 0
gstd                                     : 1582903

Видео
Идентификатор                            : 1
Формат                                   : AVC
Формат/Информация                        : Advanced Video Codec
Профиль формата                          :
Параметр CABAC формата                   : Да
Параметр ReFrames формата                : 1 кадр
Идентификатор кодека                     : avc1
Идентификатор кодека/Информация          : Advanced Video Coding
Продолжительность                        : 26 м.
Битрейт                                  : 2187 Кбит/сек
Максимальный битрейт                     : 9429 Кбит/сек
Ширина                                   : 1280 пикселей
Высота                                   : 720 пикселей
Соотношение сторон                       : 16:9
Режим частоты кадров                     : Постоянный
Частота кадров                           : 25,000 кадров/сек
Цветовое пространство                    : YUV
Субдискретизация насыщенности            : 4:2:0
Битовая глубина                          : 8 бит
Тип развёртки                            : Прогрессивная
Бит/(Пиксели*Кадры)                      : 0.095
Размер потока                            : 413 Мбайт (92%)
Дата пометки                             : UTC 2016-01-25 13:12:26
Цветовой диапазон                        : Limited
Основные цвета                           : BT.709
Характеристики трансфера                 : BT.709
Коэффициенты матрицы                     : BT.709

Аудио
Идентификатор                            : 2
Формат                                   : AAC
Формат/Информация                        : Advanced Audio Codec
Профиль формата                          : LC
Идентификатор кодека                     : 40
Продолжительность                        : 26 м.
Вид битрейта                             : Переменный
Битрейт                                  : 192 Кбит/сек
Максимальный битрейт                     : 201 Кбит/сек
Каналы                                   : 2 канала
Расположение каналов                     : Front: L R
Частота                                  : 44,1 КГц
Частота кадров                           : 43,066 кадра/сек (1024 spf)
Метод сжатия                             : С потерями
Размер потока                            : 36,2 Мбайт (8%)
Заголовок                                : IsoMedia File Produced by Google, 5-11-2011
Язык                                     : English
Дата кодирования                         : UTC 2016-01-25 13:12:05
Дата пометки                             : UTC 2016-01-25 13:12:26

Скриншоты:


Время раздачи: с 18.00 до 23.00 (до появления первых 3-5 скачавших)
 
Не забывайте говорить Спасибо. Не уходите с раздачи!   
Торрент: Зарегистрирован [16 фев 2016, 01:24] Для скачивания .torrent
необходима регистрация
Или скачать с помощью
MediaGet
Статус:
Проверен
 
.torrent скачан: 0 раз
Хэш: 443e982e39705b1b9c486f83ac30e54d7e2e5dd5
Размер: 2.4 ГБ (2 578 685 169 байт)
Стать Автором раздачи
 
 
Раздал: 2.54 ГБ
Скачал: 0 байт
Ратио: Seed.
Сообщения: 236702
Зарегистрирован: 05 июл 2013, 10:11


  • Похожие торренты
    Ответы
    Просмотры
    Последнее сообщение

Вернуться в Видео для мобильных устройств

Ресурс не предоставляет электронные версии произведений, а занимается лишь коллекционированием и каталогизацией ссылок, присылаемых и публикуемых на форуме нашими читателями. Если вы являетесь правообладателем какого-либо представленного материала и не желаете чтобы ссылка на него находилась в нашем каталоге, свяжитесь с нами и мы незамедлительно удалим её. Файлы для обмена на трекере предоставлены пользователями сайта, и администрация не несёт ответственности за их содержание. Просьба не заливать файлы, защищенные авторскими правами, а также файлы нелегального содержания!
cron