Снупи и мелочь пузатая в кино / The Peanuts Movie (2015) WEBRip [H.264] [MP4|960х512]

 
 Статистика раздачи 
Размер: 884.46 МБ   |  Зарегистрирован: 16 фев 2016, 01:05   |   .torrent скачан: 0 раз
Сидеров: 1  [ 0 байт/сек ]     Личеров: 0  [ 0 байт/сек ]  
  

Снупи и мелочь пузатая в кино / The Peanuts Movie (2015) WEBRip [H.264] [MP4|960х512]

Сообщение ExaByte » 16 фев 2016, 01:05

Снупи и мелочь пузатая в кино / The Peanuts Movie (2015) WEBRip

Производство: США
Жанр: Анимация, Комедия, Приключения

Режиссер: Стив Мартино
Актеры: Тромбоун Шорти, Ребекка Блум, Анастасия Бредихина, Франческа Капальди, Кристин Ченоуэт, Александр Гарфин, Ной Джонстон, Билл Мелендес, Хэдли Белль Миллер, Мика Ревелли

Описание:
Чарли Браун, Снупи, Люси, Линус и другие полюбившиеся персонажи комиксов «Мелочь пузатая» впервые появятся на большом экране в полнометражном анимационном фильме, снятом с использованием последних достижений 3D-анимации. Снупи – самый симпатичный пес в мире - к тому же, классный пилот - отправляется в невероятные воздушные приключения в погоне за главным злодеем Красным Бароном. В это время у его приятеля Чарли Брауна начинаются поистине эпические приключения!


Дата мировой премьеры: 19 октября 2015
Дата премьеры в России: 24 декабря 2015, «Двадцатый Век Фокс СНГ»

Продолжительность: 01:28:38
Качество видео: WEBRip
Перевод: Дублированный (iTunes Russia)

Видео: AVC/H.264, 960х512, ~1234 Kbps
Аудио: AAC, 2 ch, 160 Kbps - Русский (дублированный)
Чаптеры: Есть
Код:
Код: Выделить всё
General
Complete name                            : Снупи и мелочь пузатая в кино (2015).mp4
Format                                   : MPEG-4
Format profile                           : Base Media
Codec ID                                 : isom
File size                                : 884 MiB
Duration                                 : 1h 28mn
Overall bit rate                         : 1 395 Kbps
Movie name                               : The Peanuts Movie (2015) [NoNaMe-Club rip by alien.09]

Video
ID                                       : 1
Format                                   : AVC
Format/Info                              : Advanced Video Codec
Format profile                           :
Format settings, CABAC                   : Yes
Format settings, ReFrames                : 3 frames
Codec ID                                 : avc1
Codec ID/Info                            : Advanced Video Coding
Duration                                 : 1h 28mn
Bit rate                                 : 1 234 Kbps
Width                                    : 960 pixels
Height                                   : 512 pixels
Display aspect ratio                     : 1.85:1
Frame rate mode                          : Constant
Frame rate                               : 23.976 fps
Color space                              : YUV
Chroma subsampling                       : 4:2:0
Bit depth                                : 8 bits
Scan type                                : Progressive
Bits/(Pixel*Frame)                       : 0.105
Stream size                              : 780 MiB (88%)
Title                                    : The Peanuts Movie (2015)
Writing library                          : x264 core 148 r2665M a01e339
Encoding settings                        : cabac=1 / ref=3 / deblock=1:1:1 / analyse=0x1:0x131 / me=umh / subme=10 / psy=1 / psy_rd=0.40:0.10 / mixed_ref=1 / me_range=16 / chroma_me=1 / trellis=2 / 8x8dct=0 / cqm=0 / deadzone=21,11 / fast_pskip=0 / chroma_qp_offset=-3 / threads=9 / lookahead_threads=1 / sliced_threads=0 / nr=0 / decimate=1 / interlaced=0 / bluray_compat=0 / constrained_intra=0 / bframes=3 / b_pyramid=0 / b_adapt=2 / b_bias=0 / direct=3 / weightb=1 / open_gop=0 / weightp=0 / keyint=230 / keyint_min=23 / scenecut=40 / intra_refresh=0 / rc_lookahead=40 / rc=2pass / mbtree=1 / bitrate=1234 / ratetol=1.0 / qcomp=0.70 / qpmin=3 / qpmax=69 / qpstep=4 / cplxblur=20.0 / qblur=0.5 / vbv_maxrate=5000 / vbv_bufsize=1835 / nal_hrd=none / filler=0 / ip_ratio=1.40 / aq=2:0.60
Language                                 : English
Color primaries                          : BT.709
Transfer characteristics                 : BT.709
Matrix coefficients                      : BT.709

Audio
ID                                       : 2
Format                                   : AAC
Format/Info                              : Advanced Audio Codec
Format profile                           : LC
Codec ID                                 : 40
Duration                                 : 1h 28mn
Bit rate mode                            : Constant
Bit rate                                 : 160 Kbps
Channel count                            : 2 channels
Channel positions                        : Front: L R
Sampling rate                            : 48.0 KHz
Compression mode                         : Lossy
Stream size                              : 101 MiB (11%)
Title                                    : DUB, iTunes
Language                                 : Russian

Menu #1
ID                                       : 3
Codec ID                                 : text
Duration                                 : 1h 28mn
Language                                 : English
Bit rate mode                            : VBR

Menu #2
00:00:00.000                             : 1
00:05:17.000                             : 2
00:07:56.000                             : 3
00:11:01.000                             : 4
00:13:33.000                             : 5
00:17:47.000                             : 6
00:20:53.000                             : 7
00:23:25.000                             : 8
00:25:33.000                             : 9
00:28:05.000                             : 10
00:32:33.000                             : 11
00:36:20.000                             : 12
00:41:10.000                             : 13
00:44:16.000                             : 14
00:47:53.000                             : 15
00:51:43.000                             : 16
00:55:25.000                             : 17
01:00:10.000                             : 18
01:03:22.000                             : 19
01:04:48.000                             : 20
01:08:54.000                             : 21
01:12:19.000                             : 22
01:16:09.000                             : 23
01:17:15.000                             : 24

Скриншоты:




Время раздачи:
24/7 до трёх скачавших (до появления первых 3-5 скачавших)
 
Не забывайте говорить Спасибо. Не уходите с раздачи!   
Торрент: Зарегистрирован [16 фев 2016, 01:05] Для скачивания .torrent
необходима регистрация
Или скачать с помощью
MediaGet
Статус:
Проверен
 
.torrent скачан: 0 раз
Хэш: a4effb447e3bab011266da02e9365d661e7b4196
Размер: 884.46 МБ (927 420 013 байт)
Стать Автором раздачи
 
 
Раздал: 2.54 ГБ
Скачал: 0 байт
Ратио: Seed.
Сообщения: 236702
Зарегистрирован: 05 июл 2013, 10:11


  • Похожие торренты
    Ответы
    Просмотры
    Последнее сообщение

Вернуться в Видео для мобильных устройств

Ресурс не предоставляет электронные версии произведений, а занимается лишь коллекционированием и каталогизацией ссылок, присылаемых и публикуемых на форуме нашими читателями. Если вы являетесь правообладателем какого-либо представленного материала и не желаете чтобы ссылка на него находилась в нашем каталоге, свяжитесь с нами и мы незамедлительно удалим её. Файлы для обмена на трекере предоставлены пользователями сайта, и администрация не несёт ответственности за их содержание. Просьба не заливать файлы, защищенные авторскими правами, а также файлы нелегального содержания!
cron