На десять лет моложе / Первый канал [2015-2016, Реалити-шоу, DVB]

 
 Статистика раздачи 
Размер: 4 ГБ   |  Зарегистрирован: 14 фев 2016, 20:05   |   .torrent скачан: 1 раз
Сидеров: 1  [ 0 байт/сек ]     Личеров: 0  [ 0 байт/сек ]  
  

На десять лет моложе / Первый канал [2015-2016, Реалити-шоу, DVB]

Сообщение Master Chief » 14 фев 2016, 20:05

Год выпуска:2015-2016
Страна
: Россия
Жанр: реалити-шоу
Продолжительность: 00:40:00
Перевод: Не требуется
Русские субтитры: нет
Оригинальная аудиодорожка: русский
Телеканал: Первый канал

Проект «На 10 лет моложе» с успехом идет в Англии с 2004 года. Сегодня аналоги шоу можно увидеть во многих странах — от Новой Зеландии до Соединенных Штатов Америки. Тысячи женщин по всему миру смогли изменить себя, благодаря этой программе. Наконец, и у россиянок появилась возможность стать участницей грандиозного проекта.
Сегодня на российском телевидении много программ по перевоплощению женщин. У проекта «На 10 лет моложе» есть одно принципиальное отличие — в этом шоу с героинями одновременно работает целая команда профессионалов — пластический хирург, дантист, стилист и специалист по волосам и макияжу. Участниц проекта ожидает серьезная программа по преображению с использованием инновационных технологий в области пластической хирургии, косметологии и стоматологии. Кроме того, каждая героиня сможет окунуться в мир моды — стилист по одежде и специалист по макияжу и волосам подберут гардероб и подарят новый образ. Суперпрофессионалы своего дела во главе с ведущей Светланой Абрамовой знают, как сделать так, чтобы к концу шоу каждая героиня выглядела, как минимум на 10 ЛЕТ МОЛОЖЕ!
Качество: DVB
Формат
: TS
Видео: AVC; 720x576; 16:9, 2600kbps, 25fps [PAL Widescreen SD]
Аудио: MP2; 192kbps; 48kHz [MPEG Stereo]
001 - Лариса Лубинец (23 мая 2015)
002 - Лариса Сытова (30 мая 2015)
003 - Елена Борзова (6 июня 2015)
004 - Елена Швабауэр (6 февраля 2016)
005 - Ирина Никеева (13 февраля 2016)
Код: Выделить всё
General
ID                          : 0 (0x0)
Complete name               : F:\!Порядок\Видео\Передачи\На 10 лет моложе (DVB)\2015-05-23 - Лариса Лубинец.ts
Format                      : MPEG-TS
File size                   : 845 MiB
Duration                    : 39mn 19s
Overall bit rate mode       : Variable
Overall bit rate            : 3 004 Kbps

Video
ID                          : 301 (0x12D)
Menu ID                     : 1 (0x1)
Format                      : AVC
Format/Info                 : Advanced Video Codec
Format profile              : [email protected]
Format settings, CABAC      : Yes
Format settings, ReFrames   : 3 frames
Format settings, GOP        : M=4, N=28
Codec ID                    : 27
Duration                    : 39mn 19s
Bit rate                    : 2 662 Kbps
Width                       : 720 pixels
Height                      : 576 pixels
Display aspect ratio        : 16:9
Frame rate                  : 25.000 fps
Standard                    : Component
Color space                 : YUV
Chroma subsampling          : 4:2:0
Bit depth                   : 8 bits
Scan type                   : Interlaced
Scan order                  : Top Field First
Bits/(Pixel*Frame)          : 0.257
Stream size                 : 749 MiB (89%)
Color primaries             : BT.601 PAL
Transfer characteristics    : BT.470 System B, BT.470 System G
Matrix coefficients         : BT.601
Color range                 : Limited

Audio
ID                          : 302 (0x12E)
Menu ID                     : 1 (0x1)
Format                      : MPEG Audio
Format version              : Version 1
Format profile              : Layer 2
Codec ID                    : 3
Duration                    : 39mn 19s
Bit rate mode               : Constant
Bit rate                    : 192 Kbps
Channel(s)                  : 2 channels
Sampling rate               : 48.0 KHz
Compression mode            : Lossy
Stream size                 : 54.0 MiB (6%)
001

002

003

004

005
 
Не забывайте говорить Спасибо. Не уходите с раздачи!   
Торрент: Зарегистрирован [14 фев 2016, 20:05] Для скачивания .torrent
необходима регистрация
Или скачать с помощью
MediaGet
Статус:
Проверен
 
.torrent скачан: 1 раз
Хэш: 3204665f8d84a354e16c010fdf59145c8a58fbe8
Размер: 4 ГБ (4 294 558 260 байт)
Стать Автором раздачи
 
Аватара пользователя
Администратор
Администратор
 
Раздал: 41.4 ТБ
Скачал: 64.75 ТБ
Ратио: 0.639
Сообщения: 76573
Зарегистрирован: 07 янв 2011, 16:36


  • Похожие торренты
    Ответы
    Просмотры
    Последнее сообщение

Вернуться в Социальные ток-шоу

Кто сейчас на конференции

Сейчас эту тему просматривают: нет зарегистрированных пользователей и гости: 1

Ресурс не предоставляет электронные версии произведений, а занимается лишь коллекционированием и каталогизацией ссылок, присылаемых и публикуемых на форуме нашими читателями. Если вы являетесь правообладателем какого-либо представленного материала и не желаете чтобы ссылка на него находилась в нашем каталоге, свяжитесь с нами и мы незамедлительно удалим её. Файлы для обмена на трекере предоставлены пользователями сайта, и администрация не несёт ответственности за их содержание. Просьба не заливать файлы, защищенные авторскими правами, а также файлы нелегального содержания!