[DVDA][QU] Joan Baez - Diamonds and Rust - 1975 (Folk Rock)

 
 Статистика раздачи 
Размер: 2.01 ГБ   |  Зарегистрирован: 12 фев 2016, 23:13   |   .torrent скачан: 1 раз
Сидеров: 1  [ 0 байт/сек ]     Личеров: 0  [ 0 байт/сек ]  
  

[DVDA][QU] Joan Baez - Diamonds and Rust - 1975 (Folk Rock)

Сообщение Master Chief » 12 фев 2016, 23:13

Joan Baez / Diamonds and Rust

Формат записи/Источник записи: [DVDA][QU]
Наличие водяных знаков: Нет
Год издания/переиздания диска: 1975
Жанр: Folk Rock
Издатель(лейбл): A&M Records
Продолжительность: 0:43:24
Наличие сканов в содержимом раздачи: Да

Треклист:
A1 Diamonds & Rust
A2 Fountain Of Sorrow
A3 Never Dreamed You'd Leave In Summer
A4 Children And All That Jazz
A5 Simple Twist Of Fate
B1 Blue Sky
B2 Hello In There
B3 Jesse
B4 Winds Of The Old Days
B5 Dida
B6 I Dream Of Jeannie / Dannie Boy

Контейнер: ISO (*.iso)
Тип рипа: image

Разрядность: 24/96
Формат: MLP(PPCM)
Количество каналов: 4.0

Другие дорожки звука: 24/96 4.0 lossless MLP (DVD-Audio).
16/48 4.0 DTS @ 1536kbps (DVD-Video) for compatibility with standard DVD players.
Код: Выделить всё
foobar2000 1.3.8 / Dynamic Range Meter 1.1.1
log date: 2015-09-10 21:52:00

--------------------------------------------------------------------------------
Analyzed: ? / JOANBAEZ
--------------------------------------------------------------------------------

DR         Peak         RMS     Duration Track
--------------------------------------------------------------------------------
DR13      -2.52 dB   -19.64 dB      4:55 01-Lf-Rf 24/96000 + Ls-Rs 24/96000
DR14      -0.89 dB   -17.82 dB      4:30 02-Lf-Rf 24/96000 + Ls-Rs 24/96000
DR12      -2.26 dB   -21.35 dB      2:47 03-Lf-Rf 24/96000 + Ls-Rs 24/96000
DR13      -3.08 dB   -19.23 dB      3:10 04-Lf-Rf 24/96000 + Ls-Rs 24/96000
DR13      -1.11 dB   -20.36 dB      4:44 05-Lf-Rf 24/96000 + Ls-Rs 24/96000
DR14      -2.22 dB   -19.34 dB      2:47 06-Lf-Rf 24/96000 + Ls-Rs 24/96000
DR13      -1.24 dB   -19.41 dB      3:06 07-Lf-Rf 24/96000 + Ls-Rs 24/96000
DR14      -0.21 dB   -20.38 dB      4:32 08-Lf-Rf 24/96000 + Ls-Rs 24/96000
DR13      -0.23 dB   -18.27 dB      3:56 09-Lf-Rf 24/96000 + Ls-Rs 24/96000
DR13      -4.37 dB   -20.09 dB      3:27 10-Lf-Rf 24/96000 + Ls-Rs 24/96000
DR11      -9.39 dB   -28.69 dB      4:10 11-Lf-Rf 24/96000 + Ls-Rs 24/96000
--------------------------------------------------------------------------------

Number of tracks:  11
Official DR value: DR13

Samplerate:        96000 Hz
Channels:          4
Bits per sample:   24
Bitrate:           9216 kbps
Codec:             MLP
Источник (релизер): Demonoid
 
Не забывайте говорить Спасибо. Не уходите с раздачи!   
Торрент: Зарегистрирован [12 фев 2016, 23:13] Скачать торрент
Скачать торрент
[ Размер 10.96 КБ / Просмотров 84 ]
Статус:
Проверен
 
.torrent скачан: 1 раз
Хэш: be2eb3d3fef5b236cffb41e9956d3f26db96e14d
Размер: 2.01 ГБ (2 157 455 811 байт)
Стать Автором раздачи
 
Аватара пользователя
Администратор
Администратор
 
Раздал: 56.73 ТБ
Скачал: 79.93 ТБ
Ратио: 0.710
Сообщения: 76590
Зарегистрирован: 07 янв 2011, 16:36


  • Похожие торренты
    Ответы
    Просмотры
    Последнее сообщение

Вернуться в Конверсии Quadraphonic (многоканальная музыка)

Ресурс не предоставляет электронные версии произведений, а занимается лишь коллекционированием и каталогизацией ссылок, присылаемых и публикуемых на форуме нашими читателями. Если вы являетесь правообладателем какого-либо представленного материала и не желаете чтобы ссылка на него находилась в нашем каталоге, свяжитесь с нами и мы незамедлительно удалим её. Файлы для обмена на трекере предоставлены пользователями сайта, и администрация не несёт ответственности за их содержание. Просьба не заливать файлы, защищенные авторскими правами, а также файлы нелегального содержания!