Голос Финляндии / The Voice Of Finland (2016) SATRip [H.264] (выпуски 5-10) [MP4|1920х1080] [EN, FN, ES]

 
 Статистика раздачи 
Размер: 24 ГБ   |  Зарегистрирован: 12 фев 2016, 15:47   |   .torrent скачан: 0 раз
Сидеров: 1  [ 0 байт/сек ]     Личеров: 0  [ 0 байт/сек ]  
  

Голос Финляндии / The Voice Of Finland (2016) SATRip [H.264] (выпуски 5-10) [MP4|1920х1080] [EN, FN, ES]

Сообщение i926 » 12 фев 2016, 15:47

Голос Финляндии / The Voice Of Finland (2016) SATRip [H.264] (выпуски 5-10)

Телекомпания: Nelonen 4
Жанр: Телепередача

Наставники: Tarja Turunen, Michael Monroe, Redrama, Olli Lindholm
Ведущий: Axl Smith

Описание:
The Voice of Finland (сезон 5) это пятый сезон финского реалити конкурса песен в формате международной франшизы Голос. Премьера сезона прошла 8 января 2016 года на телеканале "Nelonen 4".

Наставники и члены жюри: Tarja Turunen, Olli Lindholm, Redrama и Michael Monroe.
Ведущий передачи: Axl Smith.

Доп. информация: В раздачу добавлено 6 эпизодов 5 сезона.
До финального шоу, которое состоится в конце апреля раздача будет пополняться новыми эпизодами.
Также каждый эпизод кроме телеканала "Nelonen 4" выходит в прямом эфире на сайте официального российского фэн-клуба Тарьи Турунен

Продолжительность: ~ 00:43:00 выпуск
Качество видео: SATRip

Перевод: Отсутствует
Язык: Английский, Финский, Испанский

Видео: AVC/H.264, 1920х1080, 12300 Kbps
Аудио: AAC, 2 ch, 128 Kbps, CBR

ВНИМАНИЕ!!! Раздача обновлена, добавлен эпизод 10 от 11 февраля 2016 года, перекачайте торрент-файл!
Код:
Код: Выделить всё
General
Complete name                            : E:\Voice Of Finland\The Voice Of Finland 2016\The Voice Of Finland 21-01-2016.mp4
Format                                   : MPEG-4
Format profile                           : Base Media / Version 2
Codec ID                                 : mp42 (mp42/isom)
File size                                : 3.66 GiB
Duration                                 : 41mn 59s
Overall bit rate mode                    : Variable
Overall bit rate                         : 12.5 Mbps
Encoded date                             : UTC 2016-01-23 19:31:48
Tagged date                              : UTC 2016-01-23 19:31:48

Video
ID                                       : 2
Format                                   : AVC
Format/Info                              : Advanced Video Codec
Format profile                           : High@L4
Format settings, CABAC                   : Yes
Format settings, ReFrames                : 2 frames
Muxing mode                              : Container profile=Baseline@4.0
Codec ID                                 : avc1
Codec ID/Info                            : Advanced Video Coding
Duration                                 : 41mn 59s
Bit rate mode                            : Variable
Bit rate                                 : 12.3 Mbps
Maximum bit rate                         : 22.0 Mbps
Width                                    : 1 920 pixels
Height                                   : 1 080 pixels
Display aspect ratio                     : 16:9
Frame rate mode                          : Constant
Frame rate                               : 25.000 fps
Color space                              : YUV
Chroma subsampling                       : 4:2:0
Bit depth                                : 8 bits
Scan type                                : Progressive
Bits/(Pixel*Frame)                       : 0.238
Stream size                              : 3.62 GiB (99%)
Language                                 : English
Encoded date                             : UTC 2016-01-23 19:31:48
Tagged date                              : UTC 2016-01-23 19:31:48

Audio
ID                                       : 1
Format                                   : AAC
Format/Info                              : Advanced Audio Codec
Format profile                           : LC
Codec ID                                 : 40
Duration                                 : 41mn 59s
Bit rate mode                            : Constant
Bit rate                                 : 128 Kbps
Channel(s)                               : 2 channels
Channel positions                        : Front: L R
Sampling rate                            : 48.0 KHz
Frame rate                               : 46.875 fps (1024 spf)
Compression mode                         : Lossy
Stream size                              : 38.4 MiB (1%)
Внимание! Раздача ведётся путём добавления новых серий; при каждом добавлении создаётся новый торрент.
Чтобы начать докачку новой серии, пользователям необходимо сделать следующее:
1. Остановить скачивание;
2. Удалить старый торрент у себя из клиента (старые серии удалять не надо);
3. Скачать новый торрент и запустить его у себя в клиенте вместо старого, при этом указать клиенту путь в старую папку куда и должно происходить скачивание новых серий. Ваш клиент при этом должен произвести хеширование (проверку) старой папки и будет докачивать только те серии, которых у вас ещё нет. Старые серии при этом не удаляются, а продолжают раздаваться! Eсли вы уже удалили старые серии, то предотвратить повторную закачку старых серий можно, отжав галочку в соответствующих местах при запуске нового торрента.

Скриншоты:



Время раздачи: c 9.00 до 0.00
 
Не забывайте говорить Спасибо. Не уходите с раздачи!   
Торрент: Зарегистрирован [12 фев 2016, 15:47] Для скачивания .torrent
необходима регистрация
Или скачать с помощью
MediaGet
Статус:
Проверен
 
.torrent скачан: 0 раз
Хэш: f5b205f51f53fe18caf86ed2cd9c8ed7d9c0dd7a
Размер: 24 ГБ (25 773 632 279 байт)
Стать Автором раздачи
 
Аватара пользователя
Главный редактор
Главный редактор
 
Раздал: 15.43 ТБ
Скачал: 13.78 ТБ
Ратио: 1.120
Сообщения: 65091
Зарегистрирован: 01 мар 2011, 23:07


  • Похожие торренты
    Ответы
    Просмотры
    Последнее сообщение

Вернуться в Видео для мобильных устройств

Ресурс не предоставляет электронные версии произведений, а занимается лишь коллекционированием и каталогизацией ссылок, присылаемых и публикуемых на форуме нашими читателями. Если вы являетесь правообладателем какого-либо представленного материала и не желаете чтобы ссылка на него находилась в нашем каталоге, свяжитесь с нами и мы незамедлительно удалим её. Файлы для обмена на трекере предоставлены пользователями сайта, и администрация не несёт ответственности за их содержание. Просьба не заливать файлы, защищенные авторскими правами, а также файлы нелегального содержания!
cron