VA - Танцевальный рай - The Best (2007) DVDRip

 
 Статистика раздачи 
Размер: 3.1 ГБ   |  Зарегистрирован: 10 фев 2016, 12:51   |   .torrent скачан: 0 раз
Сидеров: 1  [ 0 байт/сек ]     Личеров: 0  [ 0 байт/сек ]  
  

VA - Танцевальный рай - The Best (2007) DVDRip

Сообщение Thelver1947 » 10 фев 2016, 12:51

VA - Танцевальный рай - The Best (2007) DVDRip

Год: 2007
Жанр: Pop
Издание: Танцевальный рай – ТР-455
Продолжительность: 02:11:00
Источник (релизер): blandrew®

Треклист:
01. Eric Pryzd vs. Floyd - Proper Education
02. Scooter - Shake That
03. Holly Dolly - Dolly Song (leva's Pofka)
04. Arash - Boro Boro
05. Danzel - Put Your Hands Up In the Air!
06. Bob Sinclar feat. Gollarman & Big Ali - Rock This Party (Everybody Dance Now)
07. VinilShakerz - One Night In Bangkok
08. Scooter vs. Marc Acardipane & Dick Rules - Maria (I like it Loud)
09. Pakito - Living On Video
10. Toni Braxton - Please
11. The Rasmus - In The Shadows
12. The Underdog Project - Winter Jam
13. Jo Jo - Leave (Get Out)
14. Aneela feat. Arash - Chori Chori
15. The Servant - Orchestra
16. Blank & Jones with Elles - Catch
17. Bob Sinclar feat. Steve Edwards - Wold, Hold On
18. Scooter - Jigga Jigga!
19. Eric Prydz - Call On Me
20. Danzel - Pump it Up
21. Supafly Inc - Moving Too Fast
22. N'Evergreen - Since You've Been Gone
23. ATB - Hold You
24. The Rasmus - No Fear
25. Paul Cless feat. Brixx - Suavemente
26. Arash feat. Rebecca - Temptation
27. Scooter - Weekend!
28. Frank Ti-Aya feat. Yardi Don - One Love, World Love
29. TwoFace - Fire In Your Eyes (Ay Ay)
30. Pakito - Moving On Stereo
31. 2Play - It Can't Be Right
32. VinylShakers - Club Trapicana
33. Venice Beat feat. Tess Timony - In The Year 2525
34. Kash vs. INXS - Dream On Black Girl
35. Hot Banditoz - Theo Theo (Veo Veo)
36. Scooter - Hello! (Good To Be Back)
Качество видео: DVDRip
Перевод: Отсутствует

Видео: AVC/H.264, 720х576, ~2671 Kbps
Аудио: AC-3, 2 ch, 192 Kbps, CBR
Аудио: AC-3, 6 ch, 448 Kbps, CBR
Код:
Код: Выделить всё
General
Complete name                            : D:\Кинофильмы_1\2007 - Танцевальный рай - The Best\2007 - Танцевальный рай - The Best.mkv
Format                                   : Matroska
File size                                : 3.10 GiB
Duration                                 : 2h 11mn
Overall bit rate mode                    : Variable
Overall bit rate                         : 3 378 Kbps
Writing application                      : Nero MKV Muxer
Writing library                          : Nero MKV Muxer

Video
ID                                       : 1
Format                                   : AVC
Format/Info                              : Advanced Video Codec
Format profile                           : Main@L3
Format settings, CABAC                   : Yes
Format settings, ReFrames                : 2 frames
Codec ID                                 : V_MPEG4/ISO/AVC
Duration                                 : 2h 11mn
Bit rate mode                            : Variable
Bit rate                                 : 2 671 Kbps
Maximum bit rate                         : 10 000 Kbps
Width                                    : 720 pixels
Height                                   : 576 pixels
Display aspect ratio                     : 4:3
Original display aspect ratio            : 4:3
Frame rate mode                          : Constant
Frame rate                               : 25.000 fps
Standard                                 : PAL
Color space                              : YUV
Chroma subsampling                       : 4:2:0
Bit depth                                : 8 bits
Scan type                                : Progressive
Bits/(Pixel*Frame)                       : 0.258
Stream size                              : 2.45 GiB (79%)
Language                                 : English
Default                                  : Yes
Forced                                   : No

Audio #1
ID                                       : 2
Format                                   : AC-3
Format/Info                              : Audio Coding 3
Mode extension                           : CM (complete main)
Format settings, Endianness              : Big
Codec ID                                 : A_AC3
Duration                                 : 2h 11mn
Bit rate mode                            : Constant
Bit rate                                 : 192 Kbps
Channel(s)                               : 2 channels
Channel positions                        : Front: L R
Sampling rate                            : 48.0 KHz
Frame rate                               : 31.250 fps (1536 spf)
Compression mode                         : Lossy
Stream size                              : 180 MiB (6%)
Language                                 : English
Default                                  : Yes
Forced                                   : No

Audio #2
ID                                       : 3
Format                                   : AC-3
Format/Info                              : Audio Coding 3
Mode extension                           : CM (complete main)
Format settings, Endianness              : Big
Codec ID                                 : A_AC3
Duration                                 : 2h 11mn
Bit rate mode                            : Constant
Bit rate                                 : 448 Kbps
Channel(s)                               : 2 channels
Channel(s)_Original                      : 6 channels
Channel positions                        : Front: L C R, Side: L R, LFE
Sampling rate                            : 48.0 KHz
Frame rate                               : 31.250 fps (1536 spf)
Compression mode                         : Lossy
Stream size                              : 421 MiB (13%)
Language                                 : English
Default                                  : No
Forced                                   : No

Menu
00:00:00.000                             : en:
00:03:35.520                             : en:
00:06:59.520                             : en:
00:09:57.960                             : en:
00:13:30.000                             : en:
00:17:04.440                             : en:
00:20:56.760                             : en:
00:24:27.360                             : en:
00:28:08.360                             : en:
00:31:27.320                             : en:
00:35:31.760                             : en:
00:39:21.920                             : en:
00:43:22.640                             : en:
00:47:28.760                             : en:
00:51:36.920                             : en:
00:55:14.720                             : en:
00:58:38.240                             : en:
01:02:15.600                             : en:
01:06:14.600                             : en:
01:09:12.920                             : en:
01:12:59.600                             : en:
01:16:08.000                             : en:
01:19:53.600                             : en:
01:23:23.120                             : en:
01:27:22.880                             : en:
01:31:12.680                             : en:
01:34:51.920                             : en:
01:38:28.920                             : en:
01:42:30.240                             : en:
01:46:39.960                             : en:
01:50:00.240                             : en:
01:53:39.960                             : en:
01:57:03.720                             : en:
02:00:33.360                             : en:
02:04:08.880                             : en:
02:07:51.240                             : en:


Скриншоты:


Время раздачи: 24/7 (круглосуточно) - до появления первых 3-5 скачавших
 
Не забывайте говорить Спасибо. Не уходите с раздачи!   
Торрент: Зарегистрирован [10 фев 2016, 12:51] Скачать торрент
Скачать торрент
[ Размер 124.88 КБ / Просмотров 35 ]
Статус:
Проверен
 
.torrent скачан: 0 раз
Хэш: 4ff6ba17bac160b2d978bb4bec983e5a1ddec7c6
Размер: 3.1 ГБ (3 329 313 346 байт)
Стать Автором раздачи
 
 
Раздал: 690.52 МБ
Скачал: 0 байт
Ратио: Seed.
Сообщения: 218210
Зарегистрирован: 14 июн 2014, 21:11


  • Похожие торренты
    Ответы
    Просмотры
    Последнее сообщение

Вернуться в Музыкальные клипы (транзит)

Ресурс не предоставляет электронные версии произведений, а занимается лишь коллекционированием и каталогизацией ссылок, присылаемых и публикуемых на форуме нашими читателями. Если вы являетесь правообладателем какого-либо представленного материала и не желаете чтобы ссылка на него находилась в нашем каталоге, свяжитесь с нами и мы незамедлительно удалим её. Файлы для обмена на трекере предоставлены пользователями сайта, и администрация не несёт ответственности за их содержание. Просьба не заливать файлы, защищенные авторскими правами, а также файлы нелегального содержания!
cron