VA - Best of pop 2003 (2003) DVDRip

 
 Статистика раздачи 
Размер: 3.06 ГБ   |  Зарегистрирован: 09 фев 2016, 08:14   |   .torrent скачан: 0 раз
Сидеров: 1  [ 0 байт/сек ]     Личеров: 0  [ 0 байт/сек ]  
  

VA - Best of pop 2003 (2003) DVDRip

Сообщение bagouser » 09 фев 2016, 08:14

VA - Best of pop 2003 (2003) DVDRip

Год: 2003
Жанр: Pop
Издание: EMI – 7243 5 99047 9 5
Продолжительность: 02:25:00
Источник (релизер): blandrew®

Треклист:

01. Martin Kesici - Angel Of Berlin
02. Pink - Family Portrait
03. Christina Aguilera - Fighter
04. Jennier Lopez feat Jadakis & Styles P - Jenny From The Block
05. Stacie Orrico - Stuck
06. Sarah Connor - Bounce
07. Justin Timberlake - Cry Me A River
08. Kelly Rowland - Stole
09. Outlandish - Aicha
10. Alexander - Take Me Tonight
11. Yvonne Catterfeld - Fur- dich
12. Xavier Naidoo - Abschied nehmen
13. DJ Tommek feat Kurupt - Ganxtaville Pt. III
14. Trooper Da Don featuring Vanessa - Ride Or Die ( I Need You).
15. ASD - Sneak Preview
16. D.J Bobo - Chihuahua
17. Daniel Kublbock - You Drive Me Crazy
18. Gareth Gates - Spirit In The Sky
19. Deutschland Sucht Den Superstart - We Have A Dream
20. Gracia - I Don't Think So!
21. Guano Apes - You Can't Stop Me
22. HIM - The Funeral Of Hearts
23. Sertab - Every Way That I Can
24. In-Grid - Tu Es Foutu
25. Kate Ryan - Desenchantee
26. Master Blaster - Hypnotic Tango
27. Mandy & Randy - Nothing's Gonna Stop Us Now
28. SNAP! - Rhythm Is A Dancer £003
29. Modern Talking - TV Makes The Superstar
30. Simply Red - Fake
31. Aaliyah - Miss You
32. Reamonn - Alright
33. Dave Gahan - Dirty Sticky Floors
34. RZA feat. Xavier Naidoo - Ich kenne nichts (das so schon ist wie du)
35. Wolfsheim - Kein Zuruck
36. Wir Sind Helden - Guten Tag (Die Reklamation)
37. Coldplay - Clocks

Bonus Track:
38. Kylie Minogue - Slow
Качество видео: DVDRip
Перевод: Отсутствует

Видео: AVC/H.264, 720х576, ~2319 Kbps
Аудио: AC-3, 2 ch, 192 Kbps, CBR
Аудио: AC-3, 6 ch, 448 Kbps, CBR
Код:
Код: Выделить всё
General
Complete name                            : D:\Кинофильмы_1\2003 - Best of pop 2003\2003 - Best of pop 2003.mkv
Format                                   : Matroska
File size                                : 3.06 GiB
Duration                                 : 2h 25mn
Overall bit rate mode                    : Variable
Overall bit rate                         : 3 019 Kbps
Writing application                      : Nero MKV Muxer
Writing library                          : Nero MKV Muxer

Video
ID                                       : 1
Format                                   : AVC
Format/Info                              : Advanced Video Codec
Format profile                           : Main@L3
Format settings, CABAC                   : Yes
Format settings, ReFrames                : 2 frames
Codec ID                                 : V_MPEG4/ISO/AVC
Duration                                 : 2h 25mn
Bit rate mode                            : Variable
Bit rate                                 : 2 319 Kbps
Maximum bit rate                         : 10 000 Kbps
Width                                    : 720 pixels
Height                                   : 576 pixels
Display aspect ratio                     : 4:3
Original display aspect ratio            : 4:3
Frame rate mode                          : Constant
Frame rate                               : 25.000 fps
Standard                                 : PAL
Color space                              : YUV
Chroma subsampling                       : 4:2:0
Bit depth                                : 8 bits
Scan type                                : Progressive
Bits/(Pixel*Frame)                       : 0.224
Stream size                              : 2.35 GiB (77%)
Language                                 : English
Default                                  : Yes
Forced                                   : No

Audio #1
ID                                       : 2
Format                                   : AC-3
Format/Info                              : Audio Coding 3
Mode extension                           : CM (complete main)
Format settings, Endianness              : Big
Codec ID                                 : A_AC3
Duration                                 : 2h 25mn
Bit rate mode                            : Constant
Bit rate                                 : 192 Kbps
Channel(s)                               : 2 channels
Channel positions                        : Front: L R
Sampling rate                            : 48.0 KHz
Frame rate                               : 31.250 fps (1536 spf)
Compression mode                         : Lossy
Stream size                              : 199 MiB (6%)
Language                                 : English
Default                                  : Yes
Forced                                   : No

Audio #2
ID                                       : 3
Format                                   : AC-3
Format/Info                              : Audio Coding 3
Mode extension                           : CM (complete main)
Format settings, Endianness              : Big
Codec ID                                 : A_AC3
Duration                                 : 2h 25mn
Bit rate mode                            : Constant
Bit rate                                 : 448 Kbps
Channel(s)                               : 2 channels
Channel(s)_Original                      : 6 channels
Channel positions                        : Front: L C R, Side: L R, LFE
Sampling rate                            : 48.0 KHz
Frame rate                               : 31.250 fps (1536 spf)
Compression mode                         : Lossy
Stream size                              : 465 MiB (15%)
Language                                 : English
Default                                  : No
Forced                                   : No

Menu
00:00:00.000                             : en:
00:03:52.800                             : en:
00:07:44.840                             : en:
00:11:50.280                             : en:
00:15:40.680                             : en:
00:19:28.440                             : en:
00:22:43.280                             : en:
00:27:32.400                             : en:
00:31:45.360                             : en:
00:35:55.360                             : en:
00:40:00.280                             : en:
00:43:47.160                             : en:
00:49:11.160                             : en:
00:53:01.440                             : en:
00:56:26.840                             : en:
01:00:14.200                             : en:
01:03:16.960                             : en:
01:06:18.400                             : en:
01:10:26.160                             : en:
01:14:27.320                             : en:
01:17:24.280                             : en:
01:21:16.280                             : en:
01:24:55.120                             : en:
01:27:43.280                             : en:
01:31:20.160                             : en:
01:34:59.240                             : en:
01:37:56.360                             : en:
01:41:19.200                             : en:
01:44:36.240                             : en:
01:48:21.000                             : en:
01:52:00.360                             : en:
01:56:19.200                             : en:
02:00:14.360                             : en:
02:03:47.000                             : en:
02:09:18.920                             : en:
02:13:10.200                             : en:
02:16:46.200                             : en:
02:21:05.160                             : en:


Скриншоты:


Время раздачи: 24/7 (круглосуточно) - до появления первых 3-5 скачавших
 
Не забывайте говорить Спасибо. Не уходите с раздачи!   
Торрент: Зарегистрирован [09 фев 2016, 08:14] Скачать торрент
Скачать торрент
[ Размер 123.11 КБ / Просмотров 31 ]
Статус:
Проверен
 
.torrent скачан: 0 раз
Хэш: 7103545647f681f1319e9cc9b81c638659a2bfeb
Размер: 3.06 ГБ (3 284 375 459 байт)
Стать Автором раздачи
 
Аватара пользователя
 
Раздал: 3.77 ТБ
Скачал: 406.3 ГБ
Ратио: 9.496
Сообщения: 468709
Зарегистрирован: 20 янв 2011, 21:15


  • Похожие торренты
    Ответы
    Просмотры
    Последнее сообщение

Вернуться в Музыкальные клипы (транзит)

Ресурс не предоставляет электронные версии произведений, а занимается лишь коллекционированием и каталогизацией ссылок, присылаемых и публикуемых на форуме нашими читателями. Если вы являетесь правообладателем какого-либо представленного материала и не желаете чтобы ссылка на него находилась в нашем каталоге, свяжитесь с нами и мы незамедлительно удалим её. Файлы для обмена на трекере предоставлены пользователями сайта, и администрация не несёт ответственности за их содержание. Просьба не заливать файлы, защищенные авторскими правами, а также файлы нелегального содержания!
cron