История усадеб (Усадьба ТВ) [2015, архитектура, документальный, история, SATRip] 5 выпусков из ?

 
 Статистика раздачи 
Размер: 1.74 ГБ   |  Зарегистрирован: 07 фев 2016, 16:47   |   .torrent скачан: 3 раз
Сидеров: 1  [ 0 байт/сек ]     Личеров: 0  [ 0 байт/сек ]  
  

История усадеб (Усадьба ТВ) [2015, архитектура, документальный, история, SATRip] 5 выпусков из ?

Сообщение i926 » 07 фев 2016, 16:47

История усадеб

Дата/Год выпуска: 2015
Страна: Россия
Жанр: архитектура, документальный, история
Продолжительность: 5x29 мин.
Перевод: Не требуется
Русские субтитры: нет

Ведущая: Лейла Агирбова
Телеканал: Усадьба ТВОписание: Великолепное наследие истории, вотчина имперской аристократии, колыбель русской культуры, красочные аранжереи, живописные парки, роскошные особняки... Программа об усадебных комплексах и архитектурно-парковых ансамблях Москвы и ближнего Подмосковья.Сэмпл: https://www.sendspace.com/file/54f33p

качество: SATRip
формат: AVI
Видео: Xvid 704x400 (16:9) 25fps ~1536kbps
Аудио: MP3 48000Hz stereo 192kbps
Эпизод 21. Территория этого усадебного комплекса занимает более 260 гектаров. Его архитектурный ансамбль бережно хранит черты загородной царской резиденции XVII века. Находясь на высоком берегу Москвы-реки, это место из века в век притягивает внимание гостей со всего света. Программа "История усадеб" отправляется в одно из первых поселений человека на территории современной Москвы - в Коломенское.

Эпизод 22. Мы приехали в Истринский район Московской Области. В этих местах более ста лет назад часто бывали композиторы Мусоргский и Чайковский. Здесь, на небольшом расстоянии друг от друга, находятся две усадьбы XIX века Глебово-Брусилово и Филатово, точнее, то, что от них осталось. Что это за усадьбы и почему их судьба так трагична? Узнаем в программе.

Эпизод 23. Лейла Агирбова продолжает изучать две усадьбы XIX века, расположенные в Истринском районе. Точнее, изучать то, что от них осталось... Как местные жители возрождают усадьбы и что можно сделать, чтобы сберечь наследие русского искусства?

Эпизод 24. Усадьба Лопасня-Зачатьевское - памятник архитектуры и садово-паркового искусства XVII-XIX веков.

Эпизод 25. Московская область, город Чехов. Музей-усадьба Лопасня-Зачатьевское и государственный литературно-мемориальный музей-заповедник А.П. Чехова Мелихово.
Код: Выделить всё
General
Complete name                  : J:\Мои раздачи\История усадеб\22 - Глебово-Брусилово и Филатово.avi
Format                         : AVI
Format/Info                    : Audio Video Interleave
File size                      : 354 MiB
Duration                       : 28mn 37s
Overall bit rate               : 1 731 Kbps

Video
ID                             : 0
Format                         : MPEG-4 Visual
Format profile                 : Advanced [email protected]
Format settings, BVOP          : Yes
Format settings, QPel          : No
Format settings, GMC           : No warppoints
Format settings, Matrix        : Default (H.263)
Codec ID                       : XVID
Codec ID/Hint                  : XviD
Duration                       : 28mn 37s
Bit rate                       : 1 529 Kbps
Width                          : 704 pixels
Height                         : 400 pixels
Display aspect ratio           : 16:9
Frame rate                     : 25.000 fps
Color space                    : YUV
Chroma subsampling             : 4:2:0
Bit depth                      : 8 bits
Scan type                      : Progressive
Compression mode               : Lossy
Bits/(Pixel*Frame)             : 0.217
Stream size                    : 313 MiB (88%)
Writing library                : XviD 64

Audio
ID                             : 1
Format                         : MPEG Audio
Format version                 : Version 1
Format profile                 : Layer 3
Mode                           : Joint stereo
Mode extension                 : MS Stereo
Codec ID                       : 55
Codec ID/Hint                  : MP3
Duration                       : 28mn 37s
Bit rate mode                  : Constant
Bit rate                       : 192 Kbps
Channel(s)                     : 2 channels
Sampling rate                  : 48.0 KHz
Compression mode               : Lossy
Stream size                    : 39.3 MiB (11%)
Alignment                      : Split accross interleaves
Interleave, duration           : 40 ms (1.00 video frame)
Interleave, preload duration   : 500 ms
Внимание! Раздача ведётся путём добавления новых выпусков; при каждом добавлении создаётся новый торрент. Чтобы начать докачку нового выпуска, пользователям необходимо сделать следующее:
(1) остановить скачивание,
(2) удалить старый торрент у себя из клиента (старые серии удалять не надо),
(3) скачать новый торрент и запустить его у себя в клиенте вместо старого, при этом указать клиенту путь в старую папку куда и должно происходить скачивание новых выпусков.

Ваш клиент при этом должен произвести хеширование (проверку) старой папки (если не производит сам - помогите ему сделать это). В результате он будет докачивать только те выпуски, которых у Вас ещё нет. Старые выпуски при этом не удаляются, а продолжают раздаваться!

Eсли Вы уже удалили старые выпуски, то предотвратить их повторную закачку можно, сняв галочки в соответствующих местах при запуске нового торрента. По возможности, желательно не удалять старые выпуски как можно дольше, чтобы релизёр не только продолжал раздавать старые выпуски, но и смог сконцентрироваться на новых.
 
Не забывайте говорить Спасибо. Не уходите с раздачи!   
Торрент: Зарегистрирован [07 фев 2016, 16:47] Для скачивания .torrent
необходима регистрация
Или скачать с помощью
MediaGet
Статус:
Проверен
 
.torrent скачан: 3 раз
Хэш: ee7f350bd9eea58489bdb032449ab87db03c8a33
Размер: 1.74 ГБ (1 869 075 624 байт)
Стать Автором раздачи
 
Аватара пользователя
Главный редактор
Главный редактор
 
Раздал: 10.31 ТБ
Скачал: 11.61 ТБ
Ратио: 0.888
Сообщения: 64378
Зарегистрирован: 01 мар 2011, 23:07


  • Похожие торренты
    Ответы
    Просмотры
    Последнее сообщение

Вернуться в Архитектура и строительство (видео)

Кто сейчас на конференции

Сейчас эту тему просматривают: нет зарегистрированных пользователей и гости: 1

Ресурс не предоставляет электронные версии произведений, а занимается лишь коллекционированием и каталогизацией ссылок, присылаемых и публикуемых на форуме нашими читателями. Если вы являетесь правообладателем какого-либо представленного материала и не желаете чтобы ссылка на него находилась в нашем каталоге, свяжитесь с нами и мы незамедлительно удалим её. Файлы для обмена на трекере предоставлены пользователями сайта, и администрация не несёт ответственности за их содержание. Просьба не заливать файлы, защищенные авторскими правами, а также файлы нелегального содержания!