Sade – Life Promise Pride Love (1993) DVDRip

 
 Статистика раздачи 
Размер: 2.11 ГБ   |  Зарегистрирован: 04 фев 2016, 16:49   |   .torrent скачан: 1 раз
Сидеров: 1  [ 0 байт/сек ]     Личеров: 0  [ 0 байт/сек ]  
  

Sade – Life Promise Pride Love (1993) DVDRip

Сообщение i926 » 04 фев 2016, 16:49

Sade – Life Promise Pride Love (1993) DVDRip

Год: 1993
Жанр: Smooth Jazz, Downtempo
Издание: SMV Enterprises – 200523 0
Продолжительность: 01:05:00
Источник (релизер): blandrew®

Треклист:

01. Programme Start (0:10)
02. Your Love Is King (3:37)
03. Smooth Operator (Red Eye) (8:27)
04. Hang On To Your Love (3:59)
05. Never As Good As The First Time (3:55)
06. Sweetest Taboo (5:03)
07. Is It A Crime (7:02)
08. Paradise (3:36)
09. Nothing Can Come Between Us (3:52)
10. Turn My Back (4:05)
11. Love Is Stronger Than Pride (4:23)
12. No Ordinary Love (4:01)
13. Cherish The Day (4:24)
14. Kiss Of Life (4:12)
15. Feel No Pain (3:47)
16. Closing Credits (0:57)

Bonus Video:
17. By Your Side (4:38)

Качество видео: DVDRip
Перевод: Отсутствует

Видео: AVC/H.264, 720х576, ~ 2,1 Mbps
Аудио: AC-3, 6 ch, 448 Kbps, CBR
Аудио: PCM, 2 ch, 1411 Kbps, CBR
Код:
Код: Выделить всё
General
Unique ID                   : 242770348468472060784573597123691590701 (0xB6A3DE4DA896B40A8BE1F5384992B42D)
Complete name               : D:\Кинофильмы_1\1993 - Sade – Life Promise Pride Love\1993 - Sade – Life Promise Pride Love .mkv
Format                      : Matroska
Format version              : Version 4 / Version 2
File size                   : 1.99 GiB
Duration                    : 1h 5mn
Overall bit rate mode       : Variable
Overall bit rate            : 4 338 Kbps
Encoded date                : UTC 2016-02-03 15:15:53
Writing application         : mkvmerge v8.8.0 ('Wind at my back') 64bit
Writing library             : libebml v1.3.3 + libmatroska v1.4.4
DURATION                    : 01:05:41.330000000
NUMBER_OF_FRAMES            : 19707
NUMBER_OF_BYTES             : 695250612
_STATISTICS_WRITING_APP     : mkvmerge v8.8.0 ('Wind at my back') 64bit
_STATISTICS_WRITING_DATE_UT : 2016-02-03 15:15:53
_STATISTICS_TAGS            : BPS DURATION NUMBER_OF_FRAMES NUMBER_OF_BYTES

Video
ID                          : 1
Format                      : AVC
Format/Info                 : Advanced Video Codec
Format profile              : Main@L3
Format settings, CABAC      : Yes
Format settings, ReFrames   : 2 frames
Codec ID                    : V_MPEG4/ISO/AVC
Duration                    : 1h 5mn
Bit rate mode               : Variable
Maximum bit rate            : 10 000 Kbps
Width                       : 720 pixels
Height                      : 576 pixels
Display aspect ratio        : 4:3
Original display aspect rat : 4:3
Frame rate mode             : Constant
Frame rate                  : 25.000 fps
Standard                    : PAL
Color space                 : YUV
Chroma subsampling          : 4:2:0
Bit depth                   : 8 bits
Scan type                   : Progressive
Language                    : English
Default                     : Yes
Forced                      : No

Audio #1
ID                          : 2
Format                      : AC-3
Format/Info                 : Audio Coding 3
Mode extension              : CM (complete main)
Format settings, Endianness : Big
Codec ID                    : A_AC3
Duration                    : 1h 5mn
Bit rate mode               : Constant
Bit rate                    : 448 Kbps
Channel(s)                  : 6 channels
Channel positions           : Front: L C R, Side: L R, LFE
Sampling rate               : 48.0 KHz
Compression mode            : Lossy
Stream size                 : 210 MiB (10%)
Title                       : AC-3 5.1
Language                    : English
Default                     : Yes
Forced                      : No

Audio #2
ID                          : 3
Format                      : PCM
Codec ID                    : A_PCM/INT/LIT
Duration                    : 1h 5mn
Bit rate mode               : Constant
Channel(s)                  : 2 channels
Sampling rate               : 44.1 KHz
Bit depth                   : 16 bits
Title                       : PCM 2.0
Language                    : English
Default                     : No
Forced                      : No

Menu
00:00:00.000                : en:
00:00:10.800                : en:
00:03:49.000                : en:
00:12:16.400                : en:
00:16:16.120                : en:
00:20:12.000                : en:
00:25:15.360                : en:
00:32:18.720                : en:
00:35:55.160                : en:
00:39:48.000                : en:
00:43:53.800                : en:
00:48:17.800                : en:
00:52:19.000                : en:
00:56:43.400                : en:
01:00:56.160                : en:
01:04:44.000                : en:

General
Unique ID                   : 207395762611741720428516558602529559554 (0x9C06F89086C2D4C0B2D7DEFF23A25402)
Complete name               : D:\Кинофильмы_1\1993 - Sade – Life Promise Pride Love\1993 - Sade – Life Promise Pride Love (bonus).mkv
Format                      : Matroska
Format version              : Version 4 / Version 2
File size                   : 126 MiB
Duration                    : 4mn 38s
Overall bit rate mode       : Variable
Overall bit rate            : 3 815 Kbps
Encoded date                : UTC 2016-02-03 15:41:44
Writing application         : mkvmerge v8.8.0 ('Wind at my back') 64bit
Writing library             : libebml v1.3.3 + libmatroska v1.4.4
DURATION                    : 00:04:38.038000000
NUMBER_OF_FRAMES            : 1391
NUMBER_OF_BYTES             : 49045964
_STATISTICS_WRITING_APP     : mkvmerge v8.8.0 ('Wind at my back') 64bit
_STATISTICS_WRITING_DATE_UT : 2016-02-03 15:41:44
_STATISTICS_TAGS            : BPS DURATION NUMBER_OF_FRAMES NUMBER_OF_BYTES

Video
ID                          : 1
Format                      : AVC
Format/Info                 : Advanced Video Codec
Format profile              : Main@L3
Format settings, CABAC      : Yes
Format settings, ReFrames   : 2 frames
Codec ID                    : V_MPEG4/ISO/AVC
Duration                    : 4mn 38s
Bit rate mode               : Variable
Maximum bit rate            : 10 000 Kbps
Width                       : 720 pixels
Height                      : 576 pixels
Display aspect ratio        : 4:3
Original display aspect rat : 4:3
Frame rate mode             : Constant
Frame rate                  : 25.000 fps
Standard                    : PAL
Color space                 : YUV
Chroma subsampling          : 4:2:0
Bit depth                   : 8 bits
Scan type                   : Progressive
Language                    : English
Default                     : Yes
Forced                      : No

Audio #1
ID                          : 2
Format                      : AC-3
Format/Info                 : Audio Coding 3
Mode extension              : CM (complete main)
Format settings, Endianness : Big
Codec ID                    : A_AC3
Duration                    : 4mn 38s
Bit rate mode               : Constant
Bit rate                    : 448 Kbps
Channel(s)                  : 6 channels
Channel positions           : Front: L C R, Side: L R, LFE
Sampling rate               : 48.0 KHz
Compression mode            : Lossy
Delay relative to video     : 8ms
Stream size                 : 14.8 MiB (12%)
Title                       : AC-3 5.1
Language                    : English
Default                     : Yes
Forced                      : No

Audio #2
ID                          : 3
Format                      : PCM
Codec ID                    : A_PCM/INT/LIT
Duration                    : 4mn 38s
Bit rate mode               : Constant
Channel(s)                  : 2 channels
Sampling rate               : 44.1 KHz
Bit depth                   : 16 bits
Title                       : PCM 2.0
Language                    : English
Default                     : No
Forced                      : No

Menu
00:00:00.000                : en:


Скриншоты:



Скриншоты:


Время раздачи: 24/7 (круглосуточно) - до появления первых 3-5 скачавших
 
Не забывайте говорить Спасибо. Не уходите с раздачи!   
Торрент: Зарегистрирован [04 фев 2016, 16:49] Скачать торрент
Скачать торрент
[ Размер 85.67 КБ / Просмотров 34 ]
Статус:
Проверен
 
.torrent скачан: 1 раз
Хэш: 70c96d72d1a6cd02b7097100f035a13a566c37d3
Размер: 2.11 ГБ (2 269 565 910 байт)
Стать Автором раздачи
 
Аватара пользователя
Главный редактор
Главный редактор
 
Раздал: 15.43 ТБ
Скачал: 13.78 ТБ
Ратио: 1.120
Сообщения: 65446
Зарегистрирован: 01 мар 2011, 23:07


  • Похожие торренты
    Ответы
    Просмотры
    Последнее сообщение

Вернуться в Музыкальные клипы (транзит)

Ресурс не предоставляет электронные версии произведений, а занимается лишь коллекционированием и каталогизацией ссылок, присылаемых и публикуемых на форуме нашими читателями. Если вы являетесь правообладателем какого-либо представленного материала и не желаете чтобы ссылка на него находилась в нашем каталоге, свяжитесь с нами и мы незамедлительно удалим её. Файлы для обмена на трекере предоставлены пользователями сайта, и администрация не несёт ответственности за их содержание. Просьба не заливать файлы, защищенные авторскими правами, а также файлы нелегального содержания!
cron