Мумий Тролль – Grand Collection (2005) DVDRip

 
 Статистика раздачи 
Размер: 1.8 ГБ   |  Зарегистрирован: 01 фев 2016, 01:57   |   .torrent скачан: 0 раз
Сидеров: 1  [ 0 байт/сек ]     Личеров: 0  [ 0 байт/сек ]  
  

Мумий Тролль – Grand Collection (2005) DVDRip

Сообщение Seepas » 01 фев 2016, 01:57

More Images Мумий Тролль – Grand Collection (2005) DVDRip

Год: 2005
Жанр: Pop Rock
Издание: Квадро-Диск – KVD07-519
Продолжительность: 01:31:00
Источник (релизер): blandrew®

Треклист:
01. Утекай
02. Кот Кота
03. Не Звезда
04. Дельфины
05. Владивосток 2000
06. Ранетка
07. Утекай 2 ( Манга )
08. Инопланетный Гость
09. Невеста?
10. Карнавала Нет
11. Без Обмана
12. Клубничная
13. Моя Певица
14. Обещания
15. Это По Любви
16. Морская Капуста
17. Доброе Утро, Планета!
18. Медведица
19. Где Такой Я?
20. Такие Девчонки
21. Иди, Я Буду ( Версия Под Гитару )
22. Приватизация
23. Здравствуйдосвидания ( DJ IVAN SCRATCHIN' Ремикс )
24. Хищник
25. Страху Нет

Качество видео: DVDRip
Перевод: Отсутствует

Видео: AVC/H.264, 720х480, ~ 2569 Kbps
Аудио: AC-3, 2 ch, 192 Kbps, CBR
Код:
Код: Выделить всё
General
Complete name               : D:\Video&Music&Books\2007 - Мумий Тролль – Grand Collection\2007 - Мумий Тролль – Grand Collection.mkv
Format                      : Matroska
File size                   : 1.80 GiB
Duration                    : 1h 31mn
Overall bit rate mode       : Variable
Overall bit rate            : 2 817 Kbps
Writing application         : Nero MKV Muxer
Writing library             : Nero MKV Muxer

Video
ID                          : 1
Format                      : AVC
Format/Info                 : Advanced Video Codec
Format profile              : Main@L3
Format settings, CABAC      : Yes
Format settings, ReFrames   : 2 frames
Codec ID                    : V_MPEG4/ISO/AVC
Duration                    : 1h 31mn
Bit rate mode               : Variable
Bit rate                    : 2 569 Kbps
Maximum bit rate            : 10 000 Kbps
Width                       : 720 pixels
Height                      : 576 pixels
Display aspect ratio        : 4:3
Original display aspect rat : 4:3
Frame rate mode             : Constant
Frame rate                  : 25.000 fps
Standard                    : PAL
Color space                 : YUV
Chroma subsampling          : 4:2:0
Bit depth                   : 8 bits
Scan type                   : Progressive
Bits/(Pixel*Frame)          : 0.248
Stream size                 : 1.64 GiB (91%)
Language                    : English
Default                     : Yes
Forced                      : No

Audio
ID                          : 2
Format                      : AC-3
Format/Info                 : Audio Coding 3
Mode extension              : CM (complete main)
Format settings, Endianness : Big
Codec ID                    : A_AC3
Duration                    : 1h 31mn
Bit rate mode               : Constant
Bit rate                    : 192 Kbps
Channel(s)                  : 2 channels
Channel positions           : Front: L R
Sampling rate               : 48.0 KHz
Compression mode            : Lossy
Stream size                 : 126 MiB (7%)
Language                    : Russian
Default                     : Yes
Forced                      : No

Menu
00:00:00.000                : en:
00:02:24.400                : en:
00:05:37.360                : en:
00:09:20.080                : en:
00:14:12.880                : en:
00:17:07.600                : en:
00:20:29.200                : en:
00:22:55.600                : en:
00:26:51.760                : en:
00:30:11.440                : en:
00:33:42.640                : en:
00:37:09.040                : en:
00:40:10.480                : en:
00:44:21.520                : en:
00:48:32.560                : en:
00:51:43.120                : en:
00:54:16.240                : en:
00:57:58.000                : en:
01:01:52.720                : en:
01:08:13.840                : en:
01:12:57.040                : en:
01:16:57.040                : en:
01:20:29.200                : en:
01:24:12.880                : en:
01:28:10.960                : en:


Скриншоты:



Время раздачи: 24/7 (круглосуточно) - до появления первых 3-5 скачавших
 
Не забывайте говорить Спасибо. Не уходите с раздачи!   
Торрент: Зарегистрирован [01 фев 2016, 01:57] Скачать торрент
Скачать торрент
[ Размер 73 КБ / Просмотров 28 ]
Статус:
Проверен
 
.torrent скачан: 0 раз
Хэш: ef875a0850cbb75928e555edc1b7a4ac167e419c
Размер: 1.8 ГБ (1 936 846 678 байт)
Стать Автором раздачи
 
 
Раздал: 0 байт
Скачал: 0 байт
Ратио: Inf.
Сообщения: 188877
Зарегистрирован: 14 июн 2014, 20:46


  • Похожие торренты
    Ответы
    Просмотры
    Последнее сообщение

Вернуться в Музыкальные клипы (транзит)

Ресурс не предоставляет электронные версии произведений, а занимается лишь коллекционированием и каталогизацией ссылок, присылаемых и публикуемых на форуме нашими читателями. Если вы являетесь правообладателем какого-либо представленного материала и не желаете чтобы ссылка на него находилась в нашем каталоге, свяжитесь с нами и мы незамедлительно удалим её. Файлы для обмена на трекере предоставлены пользователями сайта, и администрация не несёт ответственности за их содержание. Просьба не заливать файлы, защищенные авторскими правами, а также файлы нелегального содержания!
cron