Большой скачок. Подземное строительство [2011, Документальный, HDTV 1080i]

 
 Статистика раздачи 
Размер: 1.35 ГБ   |  Зарегистрирован: 27 янв 2016, 18:25   |   .torrent скачан: 0 раз
Сидеров: 1  [ 0 байт/сек ]     Личеров: 0  [ 0 байт/сек ]  
  

Большой скачок. Подземное строительство [2011, Документальный, HDTV 1080i]

Сообщение i926 » 27 янв 2016, 18:25

Большой скачок. Подземное строительство

Год выпуска: 2011
Страна: Россия
Жанр: Документальный
Продолжительность: 00:25:07
Перевод: Не требуется
Описание: Недостаток свободного места на земле заставляет современных инженеров и строителей спускаться глубоко под землю. Яркий тому пример – дорожная развязка на Ленинградском шоссе в Москве. Большинство проезжающих здесь водителей и пассажиров даже не подозревают, что под ними, на глубине 25 метров, идет масштабная стройка.

Доп. информация: IPTV Remux (запись потока без перекодирования)

Тип релиза: HDTV 1080i
Контейнер: TS

Видео: AVC H.264, 1920x1080i (16:9), 25 fps, 7097 kbps , 0.137 bits/pixel
Аудио: MPEG Audio, 2 channels, 192 kbps, 48KHz
Код: Выделить всё
General
ID                                       : 1 (0x1)
Complete name                            : Большой скачок. Подземное строительство.ts
Format                                   : MPEG-TS
File size                                : 1.35 GiB
Duration                                 : 25mn 7s
Overall bit rate mode                    : Variable
Overall bit rate                         : 7 670 Kbps

Video
ID                                       : 1012 (0x3F4)
Menu ID                                  : 1 (0x1)
Format                                   : AVC
Format/Info                              : Advanced Video Codec
Format profile                           : [email protected]
Format settings, CABAC                   : Yes
Format settings, ReFrames                : 4 frames
Codec ID                                 : 27
Duration                                 : 25mn 7s
Bit rate                                 : 7 097 Kbps
Width                                    : 1 920 pixels
Height                                   : 1 080 pixels
Display aspect ratio                     : 16:9
Frame rate                               : 25.000 fps
Color space                              : YUV
Chroma subsampling                       : 4:2:0
Bit depth                                : 8 bits
Scan type                                : MBAFF
Bits/(Pixel*Frame)                       : 0.137
Stream size                              : 1.25 GiB (93%)

Audio
ID                                       : 1102 (0x44E)
Menu ID                                  : 1 (0x1)
Format                                   : MPEG Audio
Format version                           : Version 1
Format profile                           : Layer 2
Codec ID                                 : 3
Duration                                 : 25mn 7s
Bit rate mode                            : Constant
Bit rate                                 : 192 Kbps
Channel(s)                               : 2 channels
Sampling rate                            : 48.0 KHz
Compression mode                         : Lossy
Stream size                              : 34.5 MiB (3%)
Language                                 : English
 
Не забывайте говорить Спасибо. Не уходите с раздачи!   
Торрент: Зарегистрирован [27 янв 2016, 18:25] Для скачивания .torrent
необходима регистрация
Или скачать с помощью
MediaGet
Статус:
Проверен
 
.torrent скачан: 0 раз
Хэш: f151d715edb4a41183e2f9b9e76a1377ac5fbeb5
Размер: 1.35 ГБ (1 445 824 152 байт)
Стать Автором раздачи
 
Аватара пользователя
Главный редактор
Главный редактор
 
Раздал: 15.29 ТБ
Скачал: 12.43 ТБ
Ратио: 1.230
Сообщения: 64471
Зарегистрирован: 01 мар 2011, 23:07


  • Похожие торренты
    Ответы
    Просмотры
    Последнее сообщение

Вернуться в Естествознание, наука и техника (HD Video)

Кто сейчас на конференции

Сейчас эту тему просматривают: нет зарегистрированных пользователей и гости: 1

Ресурс не предоставляет электронные версии произведений, а занимается лишь коллекционированием и каталогизацией ссылок, присылаемых и публикуемых на форуме нашими читателями. Если вы являетесь правообладателем какого-либо представленного материала и не желаете чтобы ссылка на него находилась в нашем каталоге, свяжитесь с нами и мы незамедлительно удалим её. Файлы для обмена на трекере предоставлены пользователями сайта, и администрация не несёт ответственности за их содержание. Просьба не заливать файлы, защищенные авторскими правами, а также файлы нелегального содержания!