R.E.M. – In View: The Best Of R.E.M. 1988-2003 (2003) DVDRip

 
 Статистика раздачи 
Размер: 4.93 ГБ   |  Зарегистрирован: 26 янв 2016, 16:45   |   .torrent скачан: 0 раз
Сидеров: 1  [ 0 байт/сек ]     Личеров: 0  [ 0 байт/сек ]  
  

R.E.M. – In View: The Best Of R.E.M. 1988-2003 (2003) DVDRip

Сообщение i926 » 26 янв 2016, 16:45

R.E.M. – In View: The Best Of R.E.M. 1988-2003 (2003) DVDRip

Год: 2003
Жанр: Alternative Rock, Pop Rock
Издание: Warner Reprise Video – 7599 38596-2, Warner Reprise Video – 7599-38596-2
Продолжительность: 02:04:47

Источник (релизер): blandrew®

Треклист:

Videos (With Optional Interview Footage):

01.Bad Day - Film Director: Tim Hope (4:02)
02.All The Way To Reno (You're Gonna Be A Star) - Film Director: Michael Moore (4:24)
03.Imitation Of Life - Film Director: Garth Jennings (3:58)
04.The Great Beyond - Film Director: Liz Friedlander (4:18)
05.At My Most Beautiful - Film Director: Nigel Dick (3:36)
06.Daysleeper - Film Director: Snorri Bros.* (3:49)
07.Electrolite - Film Director: Peter Care, Spike Jonze (4:09)
08.E-Bow The Letter - Film Director: Jem Cohen (5:24)
09.What's The Frequency, Kenneth? - Film Director: Peter Care (4:01)
10.Nightswimming - Film Director: Jem Cohen (8:16)
11.The Sidewinder Sleeps Tonite - Film Director: Robert Duffy (4:08)
12.Everybody Hurts - Film Director: Jake Scott (2) (5:38)
13.Man On The Moon - Film Director: Peter Care (4:46)
14.Losing My Religion - Film Director: Tarsem* (4:45)
15.Stand - Film Director: Katherine Diekmann* (3:14)
16.Orange Crush - Film Director: Matt Mahurin (3:53)
Bonus Videos:

17.Tongue - Film Director: Jonathan Dayton, Valerie Faris (4:09)
18.How The West Was Won And Where It Got Us - Film Director: Lance Bangs (4:58)
19.New Test Leper - Film Director: Dominic DeJoseph, Lance Bangs (5:30)
20.Bittersweet Me - Film Director: Dominic DeJoseph (4:48)
21.Lotus - Film Director: Stephane Sednaoui* (4:36)
22.I'll Take The Rain - Film Director: David Weir, Yoshitomo Nara (4:37)

Trafalgar Square Performance Footage:

23.Imitation Of Life (4:10)
24.Losing My Religion (4:28)
25.Man On The Moon(5:35)
Качество видео: DVDRip
Перевод: Отсутствует

Видео: AVC/H.264, 768х576, 1024x526, 3 901 ~ 6 166 Kbps
Аудио: DTS, 6 ch, 755 Kbps, CBR
Аудио: AC-3, 2 ch, 256 Kbps, CBR
Аудио: AC-3, 6 ch, 443 Kbps, CBR
Код:
Код: Выделить всё
General
Unique ID                   : 221444914329699041958386151052080492286 (0xA698BD393209307BA74E6AF053BEAEFE)
Complete name               : D:\Кинофильмы_2\2003 – In View The Best Of R.E.M. 1988-2003\2003 – In View The Best Of R.E.M. 1988-2003.mkv
Format                      : Matroska
Format version              : Version 4 / Version 2
File size                   : 3.14 GiB
Duration                    : 1h 22mn
Overall bit rate mode       : Variable
Overall bit rate            : 5 468 Kbps
Encoded date                : UTC 2016-01-26 07:04:00
Writing application         : mkvmerge v8.8.0 ('Wind at my back') 64bit
Writing library             : libebml v1.3.3 + libmatroska v1.4.4
DURATION                    : 01:22:13.312000000
NUMBER_OF_FRAMES            : 462498
NUMBER_OF_BYTES             : 465272988
_STATISTICS_WRITING_APP     : mkvmerge v8.8.0 ('Wind at my back') 64bit
_STATISTICS_WRITING_DATE_UT : 2016-01-26 07:04:00
_STATISTICS_TAGS            : BPS DURATION NUMBER_OF_FRAMES NUMBER_OF_BYTES

Video
ID                          : 1
Format                      : AVC
Format/Info                 : Advanced Video Codec
Format profile              :
Format settings, CABAC      : Yes
Format settings, ReFrames   : 3 frames
Codec ID                    : V_MPEG4/ISO/AVC
Duration                    : 1h 22mn
Bit rate mode               : Variable
Bit rate                    : 3 901 Kbps
Maximum bit rate            : 4 044 Kbps
Width                       : 768 pixels
Height                      : 576 pixels
Display aspect ratio        : 4:3
Frame rate mode             : Constant
Frame rate                  : 25.000 fps
Standard                    : PAL
Color space                 : YUV
Chroma subsampling          : 4:2:0
Bit depth                   : 8 bits
Scan type                   : Progressive
Bits/(Pixel*Frame)          : 0.353
Stream size                 : 2.24 GiB (71%)
Language                    : English
Default                     : Yes
Forced                      : No
Color range                 : Full
Color primaries             : BT.709
Transfer characteristics    : BT.709
Matrix coefficients         : BT.709

Audio #1
ID                          : 2
Format                      : DTS
Format/Info                 : Digital Theater Systems
Mode                        : 16
Format settings, Endianness : Big
Codec ID                    : A_DTS
Duration                    : 1h 22mn
Bit rate mode               : Constant
Bit rate                    : 755 Kbps
Channel(s)                  : 6 channels
Channel positions           : Front: L C R, Side: L R, LFE
Sampling rate               : 48.0 KHz
Bit depth                   : 24 bits
Compression mode            : Lossy
Stream size                 : 444 MiB (14%)
Title                       : DTS 5.1
Language                    : English
Default                     : Yes
Forced                      : Yes

Audio #2
ID                          : 3
Format                      : AC-3
Format/Info                 : Audio Coding 3
Mode extension              : CM (complete main)
Format settings, Endianness : Big
Codec ID                    : A_AC3
Duration                    : 1h 22mn
Bit rate mode               : Constant
Bit rate                    : 256 Kbps
Channel(s)                  : 2 channels
Channel positions           : Front: L R
Sampling rate               : 48.0 KHz
Compression mode            : Lossy
Stream size                 : 151 MiB (5%)
Title                       : AC-3 2.0
Language                    : English
Default                     : No
Forced                      : No

Audio #3
ID                          : 4
Format                      : AC-3
Format/Info                 : Audio Coding 3
Mode extension              : CM (complete main)
Format settings, Endianness : Big
Codec ID                    : A_AC3
Duration                    : 1h 22mn
Bit rate mode               : Constant
Bit rate                    : 448 Kbps
Channel(s)                  : 6 channels
Channel positions           : Front: L C R, Side: L R, LFE
Sampling rate               : 48.0 KHz
Compression mode            : Lossy
Stream size                 : 263 MiB (8%)
Title                       : AC-3 5.1
Language                    : English
Default                     : No
Forced                      : No

General
Unique ID                   : 190299118161236851459723676016684192633 (0x8F2A46E9D8D0E46EB3FFDE46C51A5379)
Complete name               : D:\Кинофильмы_2\2003 – In View The Best Of R.E.M. 1988-2003\2003 – In View The Best Of R.E.M. 1988-2003_bonus.mkv
Format                      : Matroska
Format version              : Version 4 / Version 2
File size                   : 1.12 GiB
Duration                    : 28mn 37s
Overall bit rate mode       : Variable
Overall bit rate            : 5 609 Kbps
Encoded date                : UTC 2016-01-26 10:03:50
Writing application         : mkvmerge v8.8.0 ('Wind at my back') 64bit
Writing library             : libebml v1.3.3 + libmatroska v1.4.4
DURATION                    : 00:28:37.376000000
NUMBER_OF_FRAMES            : 53668
NUMBER_OF_BYTES             : 96173056
_STATISTICS_WRITING_APP     : mkvmerge v8.8.0 ('Wind at my back') 64bit
_STATISTICS_WRITING_DATE_UT : 2016-01-26 10:03:50
_STATISTICS_TAGS            : BPS DURATION NUMBER_OF_FRAMES NUMBER_OF_BYTES

Video
ID                          : 1
Format                      : AVC
Format/Info                 : Advanced Video Codec
Format profile              :
Format settings, CABAC      : Yes
Format settings, ReFrames   : 3 frames
Codec ID                    : V_MPEG4/ISO/AVC
Duration                    : 28mn 37s
Bit rate mode               : Variable
Bit rate                    : 5 049 Kbps
Maximum bit rate            : 5 278 Kbps
Width                       : 768 pixels
Height                      : 576 pixels
Display aspect ratio        : 4:3
Frame rate mode             : Constant
Frame rate                  : 25.000 fps
Standard                    : PAL
Color space                 : YUV
Chroma subsampling          : 4:2:0
Bit depth                   : 8 bits
Scan type                   : Progressive
Bits/(Pixel*Frame)          : 0.457
Stream size                 : 1.01 GiB (90%)
Language                    : English
Default                     : Yes
Forced                      : No
Color range                 : Full
Color primaries             : BT.709
Transfer characteristics    : BT.709
Matrix coefficients         : BT.709

Audio
ID                          : 2
Format                      : AC-3
Format/Info                 : Audio Coding 3
Mode extension              : CM (complete main)
Format settings, Endianness : Big
Codec ID                    : A_AC3
Duration                    : 28mn 37s
Bit rate mode               : Constant
Bit rate                    : 448 Kbps
Channel(s)                  : 6 channels
Channel positions           : Front: L C R, Side: L R, LFE
Sampling rate               : 48.0 KHz
Compression mode            : Lossy
Stream size                 : 91.7 MiB (8%)
Title                       : AC-3 5.1
Language                    : English
Default                     : Yes
Forced                      : No

General
Unique ID                   : 190426035318381335263201776754406475928 (0x8F42B869951F27C1B537503E72704898)
Complete name               : D:\Кинофильмы_2\2003 – In View The Best Of R.E.M. 1988-2003\2003 – In View The Best Of R.E.M. 1988-2003_performance.mkv
Format                      : Matroska
Format version              : Version 4 / Version 2
File size                   : 684 MiB
Duration                    : 14mn 10s
Overall bit rate mode       : Variable
Overall bit rate            : 6 748 Kbps
Encoded date                : UTC 2016-01-26 10:13:01
Writing application         : mkvmerge v8.8.0 ('Wind at my back') 64bit
Writing library             : libebml v1.3.3 + libmatroska v1.4.4
DURATION                    : 00:14:10.720000000
NUMBER_OF_FRAMES            : 26585
NUMBER_OF_BYTES             : 47640320
_STATISTICS_WRITING_APP     : mkvmerge v8.8.0 ('Wind at my back') 64bit
_STATISTICS_WRITING_DATE_UT : 2016-01-26 10:13:01
_STATISTICS_TAGS            : BPS DURATION NUMBER_OF_FRAMES NUMBER_OF_BYTES

Video
ID                          : 1
Format                      : AVC
Format/Info                 : Advanced Video Codec
Format profile              :
Format settings, CABAC      : Yes
Format settings, ReFrames   : 3 frames
Format settings, GOP        : M=3, N=33
Codec ID                    : V_MPEG4/ISO/AVC
Duration                    : 14mn 10s
Bit rate mode               : Variable
Bit rate                    : 6 166 Kbps
Maximum bit rate            : 6 308 Kbps
Width                       : 1 024 pixels
Height                      : 576 pixels
Display aspect ratio        : 16:9
Frame rate mode             : Constant
Frame rate                  : 25.000 fps
Standard                    : PAL
Color space                 : YUV
Chroma subsampling          : 4:2:0
Bit depth                   : 8 bits
Scan type                   : Progressive
Bits/(Pixel*Frame)          : 0.418
Stream size                 : 625 MiB (91%)
Language                    : English
Default                     : Yes
Forced                      : No
Color range                 : Full
Color primaries             : BT.709
Transfer characteristics    : BT.709
Matrix coefficients         : BT.709

Audio
ID                          : 2
Format                      : AC-3
Format/Info                 : Audio Coding 3
Mode extension              : CM (complete main)
Format settings, Endianness : Big
Codec ID                    : A_AC3
Duration                    : 14mn 10s
Bit rate mode               : Constant
Bit rate                    : 448 Kbps
Channel(s)                  : 6 channels
Channel positions           : Front: L C R, Side: L R, LFE
Sampling rate               : 48.0 KHz
Compression mode            : Lossy
Stream size                 : 45.4 MiB (7%)
Title                       : AC-3 5.1
Language                    : English
Default                     : Yes
Forced                      : No


Скриншоты:



Скриншоты:





Время раздачи: 24/7 (круглосуточно) - до появления первых 3-5 скачавших
 
Не забывайте говорить Спасибо. Не уходите с раздачи!   
Торрент: Зарегистрирован [26 янв 2016, 16:45] Скачать торрент
Скачать торрент
[ Размер 100.02 КБ / Просмотров 28 ]
Статус:
Проверен
 
.torrent скачан: 0 раз
Хэш: 8dcb111cdbaa5aee58a8ca4a8840aeaae8c168ae
Размер: 4.93 ГБ (5 293 804 559 байт)
Стать Автором раздачи
 
Аватара пользователя
Главный редактор
Главный редактор
 
Раздал: 15.43 ТБ
Скачал: 13.78 ТБ
Ратио: 1.120
Сообщения: 65446
Зарегистрирован: 01 мар 2011, 23:07


  • Похожие торренты
    Ответы
    Просмотры
    Последнее сообщение

Вернуться в Музыкальные клипы (транзит)

Ресурс не предоставляет электронные версии произведений, а занимается лишь коллекционированием и каталогизацией ссылок, присылаемых и публикуемых на форуме нашими читателями. Если вы являетесь правообладателем какого-либо представленного материала и не желаете чтобы ссылка на него находилась в нашем каталоге, свяжитесь с нами и мы незамедлительно удалим её. Файлы для обмена на трекере предоставлены пользователями сайта, и администрация не несёт ответственности за их содержание. Просьба не заливать файлы, защищенные авторскими правами, а также файлы нелегального содержания!
cron