Секретные материалы / The X-Files (2016) WEB-DLRip [H.264] (сезон 10, серии 1 из 6) Кравец [MP4|720x400]

 
 Статистика раздачи 
Размер: 585.81 МБ   |  Зарегистрирован: 26 янв 2016, 16:38   |   .torrent скачан: 0 раз
Сидеров: 1  [ 0 байт/сек ]     Личеров: 1  [ 0 байт/сек ]  
  

Секретные материалы / The X-Files (2016) WEB-DLRip [H.264] (сезон 10, серии 1 из 6) Кравец [MP4|720x400]

Сообщение i926 » 26 янв 2016, 16:38

Секретные материалы / The X-Files (2016) WEB-DLRip (сезон 10, серии 1 из 6) Кравец
«The truth is still out there»

Производство: США / 20th Century Fox Television, Ten Thirteen Productions
Жанр: фантастика, триллер, драма, детектив

Режиссер: Крис Картер, Дэрин Морган, Глен Морган
Актеры: Дэвид Духовны, Джиллиан Андерсон, Митч Пилледжи, Уильям Б. Дэвис, Робби Амелл, Джоэл МакХэйл, Эндрю Моргадо, Лорен Эмброуз, Ализа Веллани, Даниэла Диб и др.

Описание:
Специальные агенты ФБР, Фокс Малдер и Дана Скалли, снова работают вместе, чтобы расследовать странные и необъяснимые дела, связанные с паранормальными явлениями.


Дата премьеры в США: 24 января 2016
Дата премьеры в России: 26 января 2016

Продолжительность: ~00:43:00 серия
Качество видео: WEB-DLRip
Перевод: Многоголосый закадровый, профессиональный - Кравец

Видео: AVC/H.264 (Main@L3.0), 720x400 (16:9), ~1536 Кбит/сек
Аудио #1: AAC, 2 канала, 160 Кбит/сек - русский (многоголосый закадровый)
Аудио #2: AAC, 2 канала, 160 Кбит/сек - английский (оригинальный)
Код:
Код: Выделить всё
Полное имя                               : F:\The_X-Files_s10_WEB-DLRip_x264_Kravets_[NNM-CLUB]\The.X-Files.S10E01.WEB-DLRip.x264.Rus.Eng.Kravec.mp4
Формат                                   : MPEG-4
Профиль формата                          : Base Media
Идентификатор кодека                     : isom
Размер файла                             : 586 Мбайт
Продолжительность                        : 43 м.
Общий поток                              : 1864 Кбит/сек
Программа кодирования                    : XviD4PSP 7.0.129

Видео
Идентификатор                            : 1
Формат                                   : AVC
Формат/Информация                        : Advanced Video Codec
Профиль формата                          :
Параметр CABAC формата                   : Нет
Параметр ReFrames формата                : 3 кадра
Идентификатор кодека                     : avc1
Идентификатор кодека/Информация          : Advanced Video Coding
Продолжительность                        : 43 м.
Битрейт                                  : 1536 Кбит/сек
Ширина                                   : 720 пикселей
Высота                                   : 400 пикселей
Соотношение сторон                       : 16:9
Режим частоты кадров                     : Постоянный
Частота кадров                           : 25,000 кадров/сек
Цветовое пространство                    : YUV
Субдискретизация насыщенности            : 4:2:0
Битовая глубина                          : 8 бит
Тип развёртки                            : Прогрессивная
Бит/(Пиксели*Кадры)                      : 0.213
Размер потока                            : 483 Мбайт (82%)
Библиотека кодирования                   : x264 core 146 r2538M 121396c
Настройки программы                      : cabac=0 / ref=3 / deblock=1:0:0 / analyse=0x1:0x131 / me=hex / subme=7 / psy=1 / psy_rd=1,00:0,20 / mixed_ref=1 / me_range=16 / chroma_me=1 / trellis=1 / 8x8dct=0 / cqm=0 / deadzone=21,11 / fast_pskip=1 / chroma_qp_offset=-3 / threads=18 / lookahead_threads=3 / sliced_threads=0 / nr=0 / decimate=1 / interlaced=0 / bluray_compat=0 / constrained_intra=0 / bframes=0 / weightp=2 / keyint=250 / keyint_min=25 / scenecut=0 / intra_refresh=0 / rc_lookahead=250 / rc=2pass / mbtree=1 / bitrate=1536 / ratetol=1,0 / qcomp=0,60 / qpmin=10 / qpmax=51 / qpstep=4 / cplxblur=20,0 / qblur=0,5 / ip_ratio=1,40 / aq=1:1,00
Язык                                     : English
Основные цвета                           : BT.709
Характеристики трансфера                 : BT.709
Коэффициенты матрицы                     : BT.709

Аудио #1
Идентификатор                            : 2
Формат                                   : AAC
Формат/Информация                        : Advanced Audio Codec
Профиль формата                          : LC
Идентификатор кодека                     : 40
Продолжительность                        : 43 м.
Вид битрейта                             : Постоянный
Битрейт                                  : 160 Кбит/сек
Каналы                                   : 2 канала
Расположение каналов                     : Front: L R
Частота                                  : 48,0 КГц
Метод сжатия                             : С потерями
Размер потока                            : 50,3 Мбайт (9%)
Язык                                     : Russian

Аудио #2
Идентификатор                            : 3
Формат                                   : AAC
Формат/Информация                        : Advanced Audio Codec
Профиль формата                          : LC
Идентификатор кодека                     : 40
Продолжительность                        : 43 м.
Вид битрейта                             : Постоянный
Битрейт                                  : 160 Кбит/сек
Каналы                                   : 2 канала
Расположение каналов                     : Front: L R
Частота                                  : 48,0 КГц
Метод сжатия                             : С потерями
Размер потока                            : 50,3 Мбайт (9%)
Язык                                     : English
01. My Struggle / Моя борьба
02. Founder's Mutation / Мутация основателя
03. Mulder & Scully Meet the Were-Monster / Малдер и Скалли встречают двуликого монстра
04. Home Again / Снова дом
05. Babylon / Вавилон
06. My Struggle II / Моя борьба II
Внимание! Раздача ведётся путём добавления новых серий; при каждом добавлении создаётся новый торрент.
Чтобы начать докачку новой серии, пользователям необходимо сделать следующее:
1. Остановить скачивание;
2. Удалить старый торрент у себя из клиента (старые серии удалять не надо);
3. Скачать новый торрент и запустить его у себя в клиенте вместо старого, при этом указать клиенту путь в старую папку куда и должно происходить скачивание новых серий. Ваш клиент при этом должен произвести хеширование (проверку) старой папки и будет докачивать только те серии, которых у вас ещё нет. Старые серии при этом не удаляются, а продолжают раздаваться! Eсли вы уже удалили старые серии, то предотвратить повторную закачку старых серий можно, отжав галочку в соответствующих местах при запуске нового торрента.

Скриншоты:




Время раздачи:
24/7 - круглосуточно
(до первых 5-ти сидов - потом по возможности)

 
Не забывайте говорить Спасибо. Не уходите с раздачи!   
Торрент: Зарегистрирован [26 янв 2016, 16:38] Для скачивания .torrent
необходима регистрация
Или скачать с помощью
MediaGet
Статус:
Проверен
 
.torrent скачан: 0 раз
Хэш: 05eb1ca37be9801c4ec3a5c55295a6dc032f9276
Размер: 585.81 МБ (614 264 819 байт)
Стать Автором раздачи
 
Аватара пользователя
Главный редактор
Главный редактор
 
Раздал: 15.43 ТБ
Скачал: 13.78 ТБ
Ратио: 1.120
Сообщения: 65088
Зарегистрирован: 01 мар 2011, 23:07


  • Похожие торренты
    Ответы
    Просмотры
    Последнее сообщение

Вернуться в Видео для мобильных устройств

Ресурс не предоставляет электронные версии произведений, а занимается лишь коллекционированием и каталогизацией ссылок, присылаемых и публикуемых на форуме нашими читателями. Если вы являетесь правообладателем какого-либо представленного материала и не желаете чтобы ссылка на него находилась в нашем каталоге, свяжитесь с нами и мы незамедлительно удалим её. Файлы для обмена на трекере предоставлены пользователями сайта, и администрация не несёт ответственности за их содержание. Просьба не заливать файлы, защищенные авторскими правами, а также файлы нелегального содержания!
cron