Mylene Farmer – Music Videos II & III (2000) DVDRip (MPEG-2, PCM)

 
 Статистика раздачи 
Размер: 3.99 ГБ   |  Зарегистрирован: 26 янв 2016, 16:03   |   .torrent скачан: 0 раз
Сидеров: 1  [ 0 байт/сек ]     Личеров: 0  [ 0 байт/сек ]  
  

Mylene Farmer – Music Videos II & III (2000) DVDRip (MPEG-2, PCM)

Сообщение i926 » 26 янв 2016, 16:03

Mylene Farmer – Music Videos II & III (2000) DVDRip (MPEG-2, PCM)

Год: 2000
Жанр: Pop, Rock
Издание: Polydor – 0547069
Продолжительность: 01:07:98

Источник (релизер): blandrew®

Треклист:
01.Que Mon Coeur Lache (6:44)
02.XXL (4:34)
03.L'Instant X (4:22)
04.California (5:18)
05.Comme J'ai Mal (4:00)
06.L'Ame-Stram-Gram (7:50)
07.Je Te Rends Ton Amour (5:08)
08.Souviens-Toi Du Jour (5:07)
09.Optimistique-Moi (4:25)
10.Innamoramento(5:52)

Bonus:
11.Ainsi Soit-Je (Live) (5:04)
12.La Poupee Qui Fait Non (Live) (4:30)
13.Rever (Live) (6:05)

Качество видео: DVDRip
Перевод: Отсутствует

Видео: MPEG-2, 720х576, 5 929 ~ 6 834 Kbps
Аудио: PCM, 2 ch, 1 536 Kbps, CBR
Код:
Код: Выделить всё
General
Complete name               : D:\Video&Music&Books\2000 – Music Videos II & III\Mylene Farmer – Music Videos II & III.mpg
Format                      : MPEG-PS
File size                   : 3.15 GiB
Duration                    : 52mn 51s
Overall bit rate mode       : Variable
Overall bit rate            : 8 540 Kbps
Writing library             : (c) 1997-2004 Womble Multimedia, Inc. / MPEG Video Wizard (07/2004) / Oct 20 2004

Video
ID                          : 224 (0xE0)
Format                      : MPEG Video
Format version              : Version 2
Format profile              : Main@Main
Format settings, BVOP       : Yes
Format settings, Matrix     : Custom
Format settings, GOP        : M=3, N=12
Format settings, picture st : Frame
Duration                    : 52mn 51s
Bit rate mode               : Variable
Bit rate                    : 6 834 Kbps
Maximum bit rate            : 7 400 Kbps
Width                       : 720 pixels
Height                      : 576 pixels
Display aspect ratio        : 4:3
Frame rate                  : 25.000 fps
Standard                    : PAL
Color space                 : YUV
Chroma subsampling          : 4:2:0
Bit depth                   : 8 bits
Scan type                   : Interlaced
Scan order                  : Top Field First
Compression mode            : Lossy
Bits/(Pixel*Frame)          : 0.659
Time code of first frame    : 00:00:00:00
Time code source            : Group of pictures header
GOP, Open/Closed            : Open
Stream size                 : 2.52 GiB (80%)
Writing library             : (c) 1997-2004 Womble Multimedia, Inc. / MPEG Video Wizard (07/2004) / Oct 20 2004

Audio
ID                          : 189 (0xBD)-160 (0xA0)
Format                      : PCM
Format settings, Endianness : Big
Format settings, Sign       : Signed
Muxing mode                 : DVD-Video
Duration                    : 52mn 51s
Bit rate mode               : Constant
Bit rate                    : 1 536 Kbps
Channel(s)                  : 2 channels
Sampling rate               : 48.0 KHz
Bit depth                   : 16 bits
Stream size                 : 581 MiB (18%)

General
Complete name               : D:\Video&Music&Books\2000 – Music Videos II & III\Mylene Farmer – Music Videos II & III_bonus.mpg
Format                      : MPEG-PS
File size                   : 860 MiB
Duration                    : 15mn 47s
Overall bit rate mode       : Variable
Overall bit rate            : 7 616 Kbps
Writing library             : (c) 1997-2004 Womble Multimedia, Inc. / MPEG Video Wizard (07/2004) / Oct 20 2004

Video
ID                          : 224 (0xE0)
Format                      : MPEG Video
Format version              : Version 2
Format profile              : Main@Main
Format settings, BVOP       : Yes
Format settings, Matrix     : Custom
Format settings, GOP        : M=3, N=12
Format settings, picture st : Frame
Duration                    : 15mn 47s
Bit rate mode               : Variable
Bit rate                    : 5 929 Kbps
Maximum bit rate            : 7 400 Kbps
Width                       : 720 pixels
Height                      : 576 pixels
Display aspect ratio        : 4:3
Frame rate                  : 25.000 fps
Standard                    : PAL
Color space                 : YUV
Chroma subsampling          : 4:2:0
Bit depth                   : 8 bits
Scan type                   : Interlaced
Scan order                  : Top Field First
Compression mode            : Lossy
Bits/(Pixel*Frame)          : 0.572
Time code of first frame    : 00:00:00:00
Time code source            : Group of pictures header
GOP, Open/Closed            : Open
Stream size                 : 669 MiB (78%)
Writing library             : (c) 1997-2004 Womble Multimedia, Inc. / MPEG Video Wizard (07/2004) / Oct 20 2004

Audio
ID                          : 189 (0xBD)-160 (0xA0)
Format                      : PCM
Format settings, Endianness : Big
Format settings, Sign       : Signed
Muxing mode                 : DVD-Video
Duration                    : 15mn 46s
Bit rate mode               : Constant
Bit rate                    : 1 536 Kbps
Channel(s)                  : 2 channels
Sampling rate               : 48.0 KHz
Bit depth                   : 16 bits
Stream size                 : 173 MiB (20%)

Скриншоты:


Скриншоты:


Время раздачи: 24/7 (круглосуточно) - до появления первых 3-5 скачавших
 
Не забывайте говорить Спасибо. Не уходите с раздачи!   
Торрент: Зарегистрирован [26 янв 2016, 16:03] Скачать торрент
Скачать торрент
[ Размер 160.84 КБ / Просмотров 26 ]
Статус:
Проверен
 
.torrent скачан: 0 раз
Хэш: 65c6d3505519dde03b90b82b56f33b30af2c2b9c
Размер: 3.99 ГБ (4 287 078 408 байт)
Стать Автором раздачи
 
Аватара пользователя
Главный редактор
Главный редактор
 
Раздал: 15.43 ТБ
Скачал: 13.78 ТБ
Ратио: 1.120
Сообщения: 65451
Зарегистрирован: 01 мар 2011, 23:07


  • Похожие торренты
    Ответы
    Просмотры
    Последнее сообщение

Вернуться в Музыкальные клипы (транзит)

Ресурс не предоставляет электронные версии произведений, а занимается лишь коллекционированием и каталогизацией ссылок, присылаемых и публикуемых на форуме нашими читателями. Если вы являетесь правообладателем какого-либо представленного материала и не желаете чтобы ссылка на него находилась в нашем каталоге, свяжитесь с нами и мы незамедлительно удалим её. Файлы для обмена на трекере предоставлены пользователями сайта, и администрация не несёт ответственности за их содержание. Просьба не заливать файлы, защищенные авторскими правами, а также файлы нелегального содержания!
cron