VA - Зимний марафон № 221: Продвинутые Зимние Хиты (2015-2016) WEBRip [H.264/1080p-LQ]

 
 Статистика раздачи 
Размер: 3.09 ГБ   |  Зарегистрирован: 25 янв 2016, 17:31   |   .torrent скачан: 1 раз
Сидеров: 1  [ 0 байт/сек ]     Личеров: 0  [ 0 байт/сек ]  
  

VA - Зимний марафон № 221: Продвинутые Зимние Хиты (2015-2016) WEBRip [H.264/1080p-LQ]

Сообщение i926 » 25 янв 2016, 17:31

VA - Зимний марафон № 221: Продвинутые Зимние Хиты (2015-2016) WEBRip

Жанр: Pop, Dance, Latino, Reggaeton, House, Trance

Описание:
Зимние (25.01.2016) поп. новинки зарубежной и русской эстрады. Не пропустите, держите новые треки.

Кол-во клипов: 25
Продолжительность: 01:31:33
Качество видео: WEBRip

Видео: AVC/H.264, 1920x1080 (16:9), 25.000 fps, ~ 4496 kbps
Аудио: AAC, 2 ch, 139 - 152 Kbps avg, VBR
Треклист:
01. A.R.M.I.A - Independent (Official Video) (00:03:35)
02. Alekseev - Пьяное солнце (Official Video) (00:04:02)
03. Alvaro Soler ft. Jennifer Lopez - El Mismo Sol (Under The Same Sun) (B-Case Remix) (00:03:25)
04. Burak Yeter ft. Delaney Jane - Reckless (Official Video) (00:03:40)
05. Chris Young ft. Cassadee Pope - Think of You (Official Video) (00:03:40)
06. Eros Ramazzotti - Rosa Nata Ieri (Official Video) (00:04:03)
07. Josef Salvat - Paradise (Official Video) (00:03:58)
08. Kings ft. Katelyn Tarver - You (Official Video) (00:03:39)
09. Manufactured Superstars ft. Danni Rouge - Great Escape (Official Video) (00:03:54)
10. Misty - Hangover (Official Video) (00:03:19)
11. Pitbull ft. Shaggy and Gene Noble - Only Love (Official Video) (00:03:26)
12. Pitbull ft. Stephen Oaks and Qwote - If Its Love (Official Video) (00:04:16)
13. Pretty Pink feat. ARC - Run (Official Video) (00:02:59)
14. Prince Royce - Culpa al Corazón (Official Video) (00:04:52)
15. Reez ft. Mandy Jiroux - Fade Away (Official Video) (00:03:17)
16. Roberto Sansixto ft. Ruth Calixta - Phoenix (Official Video) (00:03:30)
17. Ruben de Ronde ft. Aelyn - By Your Side (Chill Mix) (Official Video) (00:04:13)
18. Sean Paul and Others - Love Song to the Earth (Official Video) (00:04:14)
19. Skreatch ft John Green - Roxanne's Lullaby (Official Video) (00:03:42)
20. Tim McGraw - Humble And Kind (Official Video) (00:04:29)
21. Анита Цой - Отпускала (Премьера!) (00:03:20)
22. Владислав Курасов - На глубине души (Премьера!) (00:04:13)
23. Наталья Ввк - Не поздно (Премьера!) (00:03:53)
24. Юлия Савичева - Мой Путь (Премьера!) (00:03:19)
25. Dean Aslett - I Could Almost Cry Now (Official Video) (00:05:15)
Код:
Код: Выделить всё
Общее
Полное имя                               : E:\VA - Зимний марафон № 221 (Продвинутые Зимние Хиты)\01. A.R.M.I.A - Independent (Official Video).mp4
Формат                                   : MPEG-4
Профиль формата                          : Base Media
Идентификатор кодека                     : isom (isom/iso2/avc1/mp41)
Размер файла                             : 124 Мбайт
Продолжительность                        : 3 м. 35 с.
Режим общего битрейта                    : Переменный
Общий поток                              : 4817 Кбит/сек
Дата кодирования                         : UTC 2016-01-22 06:23:45
Дата пометки                             : UTC 2016-01-22 06:23:45
Программа кодирования                    : Lavf54.63.104

Видео
Идентификатор                            : 1
Формат                                   : AVC
Формат/Информация                        : Advanced Video Codec
Профиль формата                          : Main@L4
Параметр CABAC формата                   : Да
Параметр ReFrames формата                : 1 кадр
Идентификатор кодека                     : avc1
Идентификатор кодека/Информация          : Advanced Video Coding
Продолжительность                        : 3 м. 35 с.
Битрейт                                  : 4496 Кбит/сек
Ширина                                   : 1920 пикселей
Высота                                   : 1080 пикселей
Соотношение сторон                       : 16:9
Режим частоты кадров                     : Постоянный
Частота кадров                           : 25,000 кадров/сек
Цветовое пространство                    : YUV
Субдискретизация насыщенности            : 4:2:0
Битовая глубина                          : 8 бит
Тип развёртки                            : Прогрессивная
Бит/(Пиксели*Кадры)                      : 0.087
Размер потока                            : 120 Мбайт (97%)
Библиотека кодирования                   : x264 core 129
Настройки программы                      : cabac=1 / ref=1 / deblock=1:0:0 / analyse=0x1:0x131 / me=dia / subme=2 / psy=1 / psy_rd=1.00:0.00 / mixed_ref=0 / me_range=16 / chroma_me=1 / trellis=0 / 8x8dct=0 / cqm=0 / deadzone=21,11 / fast_pskip=1 / chroma_qp_offset=0 / threads=2 / lookahead_threads=1 / sliced_threads=0 / nr=0 / decimate=1 / interlaced=0 / bluray_compat=0 / constrained_intra=0 / bframes=0 / weightp=2 / keyint=250 / keyint_min=25 / scenecut=40 / intra_refresh=0 / rc_lookahead=40 / rc=abr / mbtree=1 / bitrate=4496 / ratetol=1.0 / qcomp=0.60 / qpmin=10 / qpmax=51 / qpstep=4 / ip_ratio=1.41 / aq=1:1.00
Дата кодирования                         : UTC 2016-01-22 06:23:45
Дата пометки                             : UTC 2016-01-22 06:23:45

Аудио
Идентификатор                            : 2
Формат                                   : AAC
Формат/Информация                        : Advanced Audio Codec
Профиль формата                          : LC
Идентификатор кодека                     : 40
Продолжительность                        : 3 м. 35 с.
Duration_FirstFrame                      : 70 мс.
Вид битрейта                             : Переменный
Битрейт                                  : 152 Кбит/сек
Максимальный битрейт                     : 176 Кбит/сек
Каналы                                   : 2 канала
Расположение каналов                     : Front: L R
Частота                                  : 44,1 КГц
Частота кадров                           : 43,066 кадра/сек (1024 spf)
Метод сжатия                             : С потерями
Размер потока                            : 3,90 Мбайт (3%)
Default                                  : Да
Alternate group                          : 1
Дата кодирования                         : UTC 2016-01-22 06:23:45
Дата пометки                             : UTC 2016-01-22 06:23:45
Общее
Полное имя                               : E:\VA - Зимний марафон № 221 (Продвинутые Зимние Хиты)\02. Alekseev - Пьяное солнце (Official Video).mp4
Формат                                   : MPEG-4
Профиль формата                          : Base Media
Идентификатор кодека                     : isom (isom/iso2/avc1/mp41)
Размер файла                             : 138 Мбайт
Продолжительность                        : 4 м. 2 с.
Режим общего битрейта                    : Переменный
Общий поток                              : 4757 Кбит/сек
Дата кодирования                         : UTC 2015-11-25 06:52:52
Дата пометки                             : UTC 2015-11-25 06:52:52
Программа кодирования                    : Lavf54.63.104

Видео
Идентификатор                            : 1
Формат                                   : AVC
Формат/Информация                        : Advanced Video Codec
Профиль формата                          : Main@L4
Параметр CABAC формата                   : Да
Параметр ReFrames формата                : 1 кадр
Идентификатор кодека                     : avc1
Идентификатор кодека/Информация          : Advanced Video Coding
Продолжительность                        : 4 м. 2 с.
Битрейт                                  : 4496 Кбит/сек
Ширина                                   : 1920 пикселей
Высота                                   : 1080 пикселей
Соотношение сторон                       : 16:9
Режим частоты кадров                     : Постоянный
Частота кадров                           : 25,000 кадров/сек
Цветовое пространство                    : YUV
Субдискретизация насыщенности            : 4:2:0
Битовая глубина                          : 8 бит
Тип развёртки                            : Прогрессивная
Бит/(Пиксели*Кадры)                      : 0.087
Размер потока                            : 133 Мбайт (97%)
Библиотека кодирования                   : x264 core 129
Настройки программы                      : cabac=1 / ref=1 / deblock=1:0:0 / analyse=0x1:0x131 / me=dia / subme=2 / psy=1 / psy_rd=1.00:0.00 / mixed_ref=0 / me_range=16 / chroma_me=1 / trellis=0 / 8x8dct=0 / cqm=0 / deadzone=21,11 / fast_pskip=1 / chroma_qp_offset=0 / threads=2 / lookahead_threads=1 / sliced_threads=0 / nr=0 / decimate=1 / interlaced=0 / bluray_compat=0 / constrained_intra=0 / bframes=0 / weightp=2 / keyint=250 / keyint_min=25 / scenecut=40 / intra_refresh=0 / rc_lookahead=40 / rc=abr / mbtree=1 / bitrate=4496 / ratetol=1.0 / qcomp=0.60 / qpmin=10 / qpmax=51 / qpstep=4 / ip_ratio=1.41 / aq=1:1.00
Дата кодирования                         : UTC 2015-11-25 06:52:52
Дата пометки                             : UTC 2015-11-25 06:52:52

Аудио
Идентификатор                            : 2
Формат                                   : AAC
Формат/Информация                        : Advanced Audio Codec
Профиль формата                          : LC
Идентификатор кодека                     : 40
Продолжительность                        : 4 м. 2 с.
Duration_FirstFrame                      : 70 мс.
Вид битрейта                             : Переменный
Битрейт                                  : 150 Кбит/сек
Максимальный битрейт                     : 176 Кбит/сек
Каналы                                   : 2 канала
Расположение каналов                     : Front: L R
Частота                                  : 44,1 КГц
Частота кадров                           : 43,066 кадра/сек (1024 spf)
Метод сжатия                             : С потерями
Размер потока                            : 4,34 Мбайт (3%)
Default                                  : Да
Alternate group                          : 1
Дата кодирования                         : UTC 2015-11-25 06:52:52
Дата пометки                             : UTC 2015-11-25 06:52:52
Общее
Полное имя                               : E:\VA - Зимний марафон № 221 (Продвинутые Зимние Хиты)\03. Alvaro Soler ft. Jennifer Lopez - El Mismo Sol (Under The Same Sun) (B-Case Remix).mp4
Формат                                   : MPEG-4
Профиль формата                          : Base Media
Идентификатор кодека                     : isom (isom/iso2/avc1/mp41)
Размер файла                             : 108 Мбайт
Продолжительность                        : 3 м. 25 с.
Режим общего битрейта                    : Переменный
Общий поток                              : 4393 Кбит/сек
Дата кодирования                         : UTC 2016-01-17 06:43:43
Дата пометки                             : UTC 2016-01-17 06:43:43
Программа кодирования                    : Lavf54.63.104

Видео
Идентификатор                            : 1
Формат                                   : AVC
Формат/Информация                        : Advanced Video Codec
Профиль формата                          : Main@L4
Параметр CABAC формата                   : Да
Параметр ReFrames формата                : 1 кадр
Параметр GOP формата                     : N=1
Идентификатор кодека                     : avc1
Идентификатор кодека/Информация          : Advanced Video Coding
Продолжительность                        : 3 м. 25 с.
Битрейт                                  : 4246 Кбит/сек
Номинальный битрейт                      : 4496 Кбит/сек
Ширина                                   : 1920 пикселей
Высота                                   : 1080 пикселей
Соотношение сторон                       : 16:9
Режим частоты кадров                     : Постоянный
Частота кадров                           : 25,000 кадров/сек
Цветовое пространство                    : YUV
Субдискретизация насыщенности            : 4:2:0
Битовая глубина                          : 8 бит
Тип развёртки                            : Прогрессивная
Бит/(Пиксели*Кадры)                      : 0.082
Размер потока                            : 104 Мбайт (97%)
Библиотека кодирования                   : x264 core 129
Настройки программы                      : cabac=1 / ref=1 / deblock=1:0:0 / analyse=0x1:0x131 / me=dia / subme=2 / psy=1 / psy_rd=1.00:0.00 / mixed_ref=0 / me_range=16 / chroma_me=1 / trellis=0 / 8x8dct=0 / cqm=0 / deadzone=21,11 / fast_pskip=1 / chroma_qp_offset=0 / threads=2 / lookahead_threads=1 / sliced_threads=0 / nr=0 / decimate=1 / interlaced=0 / bluray_compat=0 / constrained_intra=0 / bframes=0 / weightp=2 / keyint=250 / keyint_min=25 / scenecut=40 / intra_refresh=0 / rc_lookahead=40 / rc=abr / mbtree=1 / bitrate=4496 / ratetol=1.0 / qcomp=0.60 / qpmin=10 / qpmax=51 / qpstep=4 / ip_ratio=1.41 / aq=1:1.00
Дата кодирования                         : UTC 2016-01-17 06:43:43
Дата пометки                             : UTC 2016-01-17 06:43:43

Аудио
Идентификатор                            : 2
Формат                                   : AAC
Формат/Информация                        : Advanced Audio Codec
Профиль формата                          : LC
Идентификатор кодека                     : 40
Продолжительность                        : 3 м. 25 с.
Duration_FirstFrame                      : 70 мс.
Вид битрейта                             : Переменный
Битрейт                                  : 144 Кбит/сек
Максимальный битрейт                     : 176 Кбит/сек
Каналы                                   : 2 канала
Расположение каналов                     : Front: L R
Частота                                  : 44,1 КГц
Частота кадров                           : 43,066 кадра/сек (1024 spf)
Метод сжатия                             : С потерями
Размер потока                            : 3,47 Мбайт (3%)
Default                                  : Да
Alternate group                          : 1
Дата кодирования                         : UTC 2016-01-17 06:43:43
Дата пометки                             : UTC 2016-01-17 06:43:43
Общее
Полное имя                               : E:\VA - Зимний марафон № 221 (Продвинутые Зимние Хиты)\04. Burak Yeter ft. Delaney Jane - Reckless (Official Video).mp4
Формат                                   : MPEG-4
Профиль формата                          : Base Media
Идентификатор кодека                     : isom (isom/iso2/avc1/mp41)
Размер файла                             : 116 Мбайт
Продолжительность                        : 3 м. 40 с.
Режим общего битрейта                    : Переменный
Общий поток                              : 4406 Кбит/сек
Дата кодирования                         : UTC 2016-01-23 05:30:46
Дата пометки                             : UTC 2016-01-23 05:30:46
Программа кодирования                    : Lavf54.63.104

Видео
Идентификатор                            : 1
Формат                                   : AVC
Формат/Информация                        : Advanced Video Codec
Профиль формата                          : Main@L4
Параметр CABAC формата                   : Да
Параметр ReFrames формата                : 1 кадр
Идентификатор кодека                     : avc1
Идентификатор кодека/Информация          : Advanced Video Coding
Продолжительность                        : 3 м. 40 с.
Битрейт                                  : 4256 Кбит/сек
Номинальный битрейт                      : 4496 Кбит/сек
Ширина                                   : 1920 пикселей
Высота                                   : 1080 пикселей
Соотношение сторон                       : 16:9
Режим частоты кадров                     : Постоянный
Частота кадров                           : 25,000 кадров/сек
Цветовое пространство                    : YUV
Субдискретизация насыщенности            : 4:2:0
Битовая глубина                          : 8 бит
Тип развёртки                            : Прогрессивная
Бит/(Пиксели*Кадры)                      : 0.082
Размер потока                            : 112 Мбайт (97%)
Библиотека кодирования                   : x264 core 129
Настройки программы                      : cabac=1 / ref=1 / deblock=1:0:0 / analyse=0x1:0x131 / me=dia / subme=2 / psy=1 / psy_rd=1.00:0.00 / mixed_ref=0 / me_range=16 / chroma_me=1 / trellis=0 / 8x8dct=0 / cqm=0 / deadzone=21,11 / fast_pskip=1 / chroma_qp_offset=0 / threads=2 / lookahead_threads=1 / sliced_threads=0 / nr=0 / decimate=1 / interlaced=0 / bluray_compat=0 / constrained_intra=0 / bframes=0 / weightp=2 / keyint=250 / keyint_min=25 / scenecut=40 / intra_refresh=0 / rc_lookahead=40 / rc=abr / mbtree=1 / bitrate=4496 / ratetol=1.0 / qcomp=0.60 / qpmin=10 / qpmax=51 / qpstep=4 / ip_ratio=1.41 / aq=1:1.00
Дата кодирования                         : UTC 2016-01-23 05:30:46
Дата пометки                             : UTC 2016-01-23 05:30:46

Аудио
Идентификатор                            : 2
Формат                                   : AAC
Формат/Информация                        : Advanced Audio Codec
Профиль формата                          : LC
Идентификатор кодека                     : 40
Продолжительность                        : 3 м. 40 с.
Duration_FirstFrame                      : 70 мс.
Вид битрейта                             : Переменный
Битрейт                                  : 144 Кбит/сек
Максимальный битрейт                     : 176 Кбит/сек
Каналы                                   : 2 канала
Расположение каналов                     : Front: L R
Частота                                  : 44,1 КГц
Частота кадров                           : 43,066 кадра/сек (1024 spf)
Метод сжатия                             : С потерями
Размер потока                            : 3,82 Мбайт (3%)
Default                                  : Да
Alternate group                          : 1
Дата кодирования                         : UTC 2016-01-23 05:30:46
Дата пометки                             : UTC 2016-01-23 05:30:46
Общее
Полное имя                               : E:\VA - Зимний марафон № 221 (Продвинутые Зимние Хиты)\05. Chris Young ft. Cassadee Pope - Think of You (Official Video).mp4
Формат                                   : MPEG-4
Профиль формата                          : Base Media
Идентификатор кодека                     : isom (isom/iso2/avc1/mp41)
Размер файла                             : 122 Мбайт
Продолжительность                        : 3 м. 40 с.
Режим общего битрейта                    : Переменный
Общий поток                              : 4618 Кбит/сек
Дата кодирования                         : UTC 2016-01-23 05:37:06
Дата пометки                             : UTC 2016-01-23 05:37:06
Программа кодирования                    : Lavf54.63.104

Видео
Идентификатор                            : 1
Формат                                   : AVC
Формат/Информация                        : Advanced Video Codec
Профиль формата                          : Main@L4
Параметр CABAC формата                   : Да
Параметр ReFrames формата                : 1 кадр
Идентификатор кодека                     : avc1
Идентификатор кодека/Информация          : Advanced Video Coding
Продолжительность                        : 3 м. 40 с.
Битрейт                                  : 4496 Кбит/сек
Ширина                                   : 1920 пикселей
Высота                                   : 1080 пикселей
Соотношение сторон                       : 16:9
Режим частоты кадров                     : Постоянный
Частота кадров                           : 25,000 кадров/сек
Цветовое пространство                    : YUV
Субдискретизация насыщенности            : 4:2:0
Битовая глубина                          : 8 бит
Тип развёртки                            : Прогрессивная
Бит/(Пиксели*Кадры)                      : 0.087
Размер потока                            : 117 Мбайт (97%)
Библиотека кодирования                   : x264 core 129
Настройки программы                      : cabac=1 / ref=1 / deblock=1:0:0 / analyse=0x1:0x131 / me=dia / subme=2 / psy=1 / psy_rd=1.00:0.00 / mixed_ref=0 / me_range=16 / chroma_me=1 / trellis=0 / 8x8dct=0 / cqm=0 / deadzone=21,11 / fast_pskip=1 / chroma_qp_offset=0 / threads=2 / lookahead_threads=1 / sliced_threads=0 / nr=0 / decimate=1 / interlaced=0 / bluray_compat=0 / constrained_intra=0 / bframes=0 / weightp=2 / keyint=250 / keyint_min=25 / scenecut=40 / intra_refresh=0 / rc_lookahead=40 / rc=abr / mbtree=1 / bitrate=4496 / ratetol=1.0 / qcomp=0.60 / qpmin=10 / qpmax=51 / qpstep=4 / ip_ratio=1.41 / aq=1:1.00
Дата кодирования                         : UTC 2016-01-23 05:37:06
Дата пометки                             : UTC 2016-01-23 05:37:06

Аудио
Идентификатор                            : 2
Формат                                   : AAC
Формат/Информация                        : Advanced Audio Codec
Профиль формата                          : LC
Идентификатор кодека                     : 40
Продолжительность                        : 3 м. 40 с.
Duration_FirstFrame                      : 70 мс.
Вид битрейта                             : Переменный
Битрейт                                  : 151 Кбит/сек
Максимальный битрейт                     : 176 Кбит/сек
Каналы                                   : 2 канала
Расположение каналов                     : Front: L R
Частота                                  : 44,1 КГц
Частота кадров                           : 43,066 кадра/сек (1024 spf)
Метод сжатия                             : С потерями
Размер потока                            : 3,99 Мбайт (3%)
Default                                  : Да
Alternate group                          : 1
Дата кодирования                         : UTC 2016-01-23 05:37:06
Дата пометки                             : UTC 2016-01-23 05:37:06
Общее
Полное имя                               : E:\VA - Зимний марафон № 221 (Продвинутые Зимние Хиты)\06. Eros Ramazzotti - Rosa Nata Ieri (Official Video).mp4
Формат                                   : MPEG-4
Профиль формата                          : Base Media
Идентификатор кодека                     : isom (isom/iso2/avc1/mp41)
Размер файла                             : 134 Мбайт
Продолжительность                        : 4 м. 3 с.
Режим общего битрейта                    : Переменный
Общий поток                              : 4606 Кбит/сек
Дата кодирования                         : UTC 2016-01-23 10:39:37
Дата пометки                             : UTC 2016-01-23 10:39:37
Программа кодирования                    : Lavf54.63.104

Видео
Идентификатор                            : 1
Формат                                   : AVC
Формат/Информация                        : Advanced Video Codec
Профиль формата                          : Main@L4
Параметр CABAC формата                   : Да
Параметр ReFrames формата                : 1 кадр
Идентификатор кодека                     : avc1
Идентификатор кодека/Информация          : Advanced Video Coding
Продолжительность                        : 4 м. 3 с.
Битрейт                                  : 4496 Кбит/сек
Ширина                                   : 1920 пикселей
Высота                                   : 1080 пикселей
Соотношение сторон                       : 16:9
Режим частоты кадров                     : Постоянный
Частота кадров                           : 25,000 кадров/сек
Цветовое пространство                    : YUV
Субдискретизация насыщенности            : 4:2:0
Битовая глубина                          : 8 бит
Тип развёртки                            : Прогрессивная
Бит/(Пиксели*Кадры)                      : 0.087
Размер потока                            : 129 Мбайт (97%)
Библиотека кодирования                   : x264 core 129
Настройки программы                      : cabac=1 / ref=1 / deblock=1:0:0 / analyse=0x1:0x131 / me=dia / subme=2 / psy=1 / psy_rd=1.00:0.00 / mixed_ref=0 / me_range=16 / chroma_me=1 / trellis=0 / 8x8dct=0 / cqm=0 / deadzone=21,11 / fast_pskip=1 / chroma_qp_offset=0 / threads=2 / lookahead_threads=1 / sliced_threads=0 / nr=0 / decimate=1 / interlaced=0 / bluray_compat=0 / constrained_intra=0 / bframes=0 / weightp=2 / keyint=250 / keyint_min=25 / scenecut=40 / intra_refresh=0 / rc_lookahead=40 / rc=abr / mbtree=1 / bitrate=4496 / ratetol=1.0 / qcomp=0.60 / qpmin=10 / qpmax=51 / qpstep=4 / ip_ratio=1.41 / aq=1:1.00
Дата кодирования                         : UTC 2016-01-23 10:39:37
Дата пометки                             : UTC 2016-01-23 10:39:37

Аудио
Идентификатор                            : 2
Формат                                   : AAC
Формат/Информация                        : Advanced Audio Codec
Профиль формата                          : LC
Идентификатор кодека                     : 40
Продолжительность                        : 4 м. 3 с.
Duration_FirstFrame                      : 70 мс.
Вид битрейта                             : Переменный
Битрейт                                  : 152 Кбит/сек
Максимальный битрейт                     : 176 Кбит/сек
Каналы                                   : 2 канала
Расположение каналов                     : Front: L R
Частота                                  : 44,1 КГц
Частота кадров                           : 43,066 кадра/сек (1024 spf)
Метод сжатия                             : С потерями
Размер потока                            : 4,40 Мбайт (3%)
Default                                  : Да
Alternate group                          : 1
Дата кодирования                         : UTC 2016-01-23 10:39:37
Дата пометки                             : UTC 2016-01-23 10:39:37
Общее
Полное имя                               : E:\VA - Зимний марафон № 221 (Продвинутые Зимние Хиты)\07. Josef Salvat - Paradise (Official Video).mp4
Формат                                   : MPEG-4
Профиль формата                          : Base Media
Идентификатор кодека                     : isom (isom/iso2/avc1/mp41)
Размер файла                             : 131 Мбайт
Продолжительность                        : 3 м. 58 с.
Режим общего битрейта                    : Переменный
Общий поток                              : 4592 Кбит/сек
Дата кодирования                         : UTC 2016-01-21 12:05:44
Дата пометки                             : UTC 2016-01-21 12:05:44
Программа кодирования                    : Lavf54.63.104

Видео
Идентификатор                            : 1
Формат                                   : AVC
Формат/Информация                        : Advanced Video Codec
Профиль формата                          : Main@L4
Параметр CABAC формата                   : Да
Параметр ReFrames формата                : 1 кадр
Идентификатор кодека                     : avc1
Идентификатор кодека/Информация          : Advanced Video Coding
Продолжительность                        : 3 м. 58 с.
Битрейт                                  : 4496 Кбит/сек
Ширина                                   : 1920 пикселей
Высота                                   : 1080 пикселей
Соотношение сторон                       : 16:9
Режим частоты кадров                     : Постоянный
Частота кадров                           : 25,000 кадров/сек
Цветовое пространство                    : YUV
Субдискретизация насыщенности            : 4:2:0
Битовая глубина                          : 8 бит
Тип развёртки                            : Прогрессивная
Бит/(Пиксели*Кадры)                      : 0.087
Размер потока                            : 126 Мбайт (97%)
Библиотека кодирования                   : x264 core 129
Настройки программы                      : cabac=1 / ref=1 / deblock=1:0:0 / analyse=0x1:0x131 / me=dia / subme=2 / psy=1 / psy_rd=1.00:0.00 / mixed_ref=0 / me_range=16 / chroma_me=1 / trellis=0 / 8x8dct=0 / cqm=0 / deadzone=21,11 / fast_pskip=1 / chroma_qp_offset=0 / threads=2 / lookahead_threads=1 / sliced_threads=0 / nr=0 / decimate=1 / interlaced=0 / bluray_compat=0 / constrained_intra=0 / bframes=0 / weightp=2 / keyint=250 / keyint_min=25 / scenecut=40 / intra_refresh=0 / rc_lookahead=40 / rc=abr / mbtree=1 / bitrate=4496 / ratetol=1.0 / qcomp=0.60 / qpmin=10 / qpmax=51 / qpstep=4 / ip_ratio=1.41 / aq=1:1.00
Дата кодирования                         : UTC 2016-01-21 12:05:44
Дата пометки                             : UTC 2016-01-21 12:05:44

Аудио
Идентификатор                            : 2
Формат                                   : AAC
Формат/Информация                        : Advanced Audio Codec
Профиль формата                          : LC
Идентификатор кодека                     : 40
Продолжительность                        : 3 м. 58 с.
Duration_FirstFrame                      : 70 мс.
Вид битрейта                             : Переменный
Битрейт                                  : 144 Кбит/сек
Максимальный битрейт                     : 176 Кбит/сек
Каналы                                   : 2 канала
Расположение каналов                     : Front: L R
Частота                                  : 44,1 КГц
Частота кадров                           : 43,066 кадра/сек (1024 spf)
Метод сжатия                             : С потерями
Размер потока                            : 4,15 Мбайт (3%)
Default                                  : Да
Alternate group                          : 1
Дата кодирования                         : UTC 2016-01-21 12:05:44
Дата пометки                             : UTC 2016-01-21 12:05:44
Общее
Полное имя                               : E:\VA - Зимний марафон № 221 (Продвинутые Зимние Хиты)\08. Lost Kings ft. Katelyn Tarver - You (Official Video).mp4
Формат                                   : MPEG-4
Профиль формата                          : Base Media
Идентификатор кодека                     : isom (isom/iso2/avc1/mp41)
Размер файла                             : 120 Мбайт
Продолжительность                        : 3 м. 39 с.
Режим общего битрейта                    : Переменный
Общий поток                              : 4590 Кбит/сек
Дата кодирования                         : UTC 2016-01-14 09:40:15
Дата пометки                             : UTC 2016-01-14 09:40:15
Программа кодирования                    : Lavf54.63.104

Видео
Идентификатор                            : 1
Формат                                   : AVC
Формат/Информация                        : Advanced Video Codec
Профиль формата                          : Main@L4
Параметр CABAC формата                   : Да
Параметр ReFrames формата                : 1 кадр
Идентификатор кодека                     : avc1
Идентификатор кодека/Информация          : Advanced Video Coding
Продолжительность                        : 3 м. 39 с.
Битрейт                                  : 4496 Кбит/сек
Ширина                                   : 1920 пикселей
Высота                                   : 1080 пикселей
Соотношение сторон                       : 16:9
Режим частоты кадров                     : Постоянный
Частота кадров                           : 25,000 кадров/сек
Цветовое пространство                    : YUV
Субдискретизация насыщенности            : 4:2:0
Битовая глубина                          : 8 бит
Тип развёртки                            : Прогрессивная
Бит/(Пиксели*Кадры)                      : 0.087
Размер потока                            : 116 Мбайт (97%)
Библиотека кодирования                   : x264 core 129
Настройки программы                      : cabac=1 / ref=1 / deblock=1:0:0 / analyse=0x1:0x131 / me=dia / subme=2 / psy=1 / psy_rd=1.00:0.00 / mixed_ref=0 / me_range=16 / chroma_me=1 / trellis=0 / 8x8dct=0 / cqm=0 / deadzone=21,11 / fast_pskip=1 / chroma_qp_offset=0 / threads=2 / lookahead_threads=1 / sliced_threads=0 / nr=0 / decimate=1 / interlaced=0 / bluray_compat=0 / constrained_intra=0 / bframes=0 / weightp=2 / keyint=250 / keyint_min=25 / scenecut=40 / intra_refresh=0 / rc_lookahead=40 / rc=abr / mbtree=1 / bitrate=4496 / ratetol=1.0 / qcomp=0.60 / qpmin=10 / qpmax=51 / qpstep=4 / ip_ratio=1.41 / aq=1:1.00
Дата кодирования                         : UTC 2016-01-14 09:40:15
Дата пометки                             : UTC 2016-01-14 09:40:15

Аудио
Идентификатор                            : 2
Формат                                   : AAC
Формат/Информация                        : Advanced Audio Codec
Профиль формата                          : LC
Идентификатор кодека                     : 40
Продолжительность                        : 3 м. 39 с.
Duration_FirstFrame                      : 70 мс.
Вид битрейта                             : Переменный
Битрейт                                  : 147 Кбит/сек
Максимальный битрейт                     : 176 Кбит/сек
Каналы                                   : 2 канала
Расположение каналов                     : Front: L R
Частота                                  : 44,1 КГц
Частота кадров                           : 43,066 кадра/сек (1024 spf)
Метод сжатия                             : С потерями
Размер потока                            : 3,85 Мбайт (3%)
Default                                  : Да
Alternate group                          : 1
Дата кодирования                         : UTC 2016-01-14 09:40:15
Дата пометки                             : UTC 2016-01-14 09:40:15
Общее
Полное имя                               : E:\VA - Зимний марафон № 221 (Продвинутые Зимние Хиты)\09. Manufactured Superstars ft. Danni Rouge - Great Escape (Official Video).mp4
Формат                                   : MPEG-4
Профиль формата                          : Base Media
Идентификатор кодека                     : isom (isom/iso2/avc1/mp41)
Размер файла                             : 126 Мбайт
Продолжительность                        : 3 м. 54 с.
Режим общего битрейта                    : Переменный
Общий поток                              : 4498 Кбит/сек
Дата кодирования                         : UTC 2016-01-23 10:41:24
Дата пометки                             : UTC 2016-01-23 10:41:24
Программа кодирования                    : Lavf54.63.104

Видео
Идентификатор                            : 1
Формат                                   : AVC
Формат/Информация                        : Advanced Video Codec
Профиль формата                          : Main@L4
Параметр CABAC формата                   : Да
Параметр ReFrames формата                : 1 кадр
Идентификатор кодека                     : avc1
Идентификатор кодека/Информация          : Advanced Video Coding
Продолжительность                        : 3 м. 54 с.
Битрейт                                  : 4496 Кбит/сек
Ширина                                   : 1920 пикселей
Высота                                   : 1080 пикселей
Соотношение сторон                       : 16:9
Режим частоты кадров                     : Постоянный
Частота кадров                           : 25,000 кадров/сек
Цветовое пространство                    : YUV
Субдискретизация насыщенности            : 4:2:0
Битовая глубина                          : 8 бит
Тип развёртки                            : Прогрессивная
Бит/(Пиксели*Кадры)                      : 0.087
Размер потока                            : 121 Мбайт (97%)
Библиотека кодирования                   : x264 core 129
Настройки программы                      : cabac=1 / ref=1 / deblock=1:0:0 / analyse=0x1:0x131 / me=dia / subme=2 / psy=1 / psy_rd=1.00:0.00 / mixed_ref=0 / me_range=16 / chroma_me=1 / trellis=0 / 8x8dct=0 / cqm=0 / deadzone=21,11 / fast_pskip=1 / chroma_qp_offset=0 / threads=2 / lookahead_threads=1 / sliced_threads=0 / nr=0 / decimate=1 / interlaced=0 / bluray_compat=0 / constrained_intra=0 / bframes=0 / weightp=2 / keyint=250 / keyint_min=25 / scenecut=40 / intra_refresh=0 / rc_lookahead=40 / rc=abr / mbtree=1 / bitrate=4496 / ratetol=1.0 / qcomp=0.60 / qpmin=10 / qpmax=51 / qpstep=4 / ip_ratio=1.41 / aq=1:1.00
Дата кодирования                         : UTC 2016-01-23 10:41:24
Дата пометки                             : UTC 2016-01-23 10:41:24

Аудио
Идентификатор                            : 2
Формат                                   : AAC
Формат/Информация                        : Advanced Audio Codec
Профиль формата                          : LC
Идентификатор кодека                     : 40
Продолжительность                        : 3 м. 54 с.
Duration_FirstFrame                      : 70 мс.
Вид битрейта                             : Переменный
Битрейт                                  : 151 Кбит/сек
Максимальный битрейт                     : 176 Кбит/сек
Каналы                                   : 2 канала
Расположение каналов                     : Front: L R
Частота                                  : 44,1 КГц
Частота кадров                           : 43,066 кадра/сек (1024 spf)
Метод сжатия                             : С потерями
Размер потока                            : 4,22 Мбайт (3%)
Default                                  : Да
Alternate group                          : 1
Дата кодирования                         : UTC 2016-01-23 10:41:24
Дата пометки                             : UTC 2016-01-23 10:41:24
Общее
Полное имя                               : E:\VA - Зимний марафон № 221 (Продвинутые Зимние Хиты)\10. Misty - Hangover (Official Video).mp4
Формат                                   : MPEG-4
Профиль формата                          : Base Media
Идентификатор кодека                     : isom (isom/iso2/avc1/mp41)
Размер файла                             : 109 Мбайт
Продолжительность                        : 3 м. 19 с.
Режим общего битрейта                    : Переменный
Общий поток                              : 4574 Кбит/сек
Дата кодирования                         : UTC 2016-01-23 06:59:43
Дата пометки                             : UTC 2016-01-23 06:59:43
Программа кодирования                    : Lavf54.63.104

Видео
Идентификатор                            : 1
Формат                                   : AVC
Формат/Информация                        : Advanced Video Codec
Профиль формата                          : Main@L4
Параметр CABAC формата                   : Да
Параметр ReFrames формата                : 1 кадр
Идентификатор кодека                     : avc1
Идентификатор кодека/Информация          : Advanced Video Coding
Продолжительность                        : 3 м. 19 с.
Битрейт                                  : 4496 Кбит/сек
Ширина                                   : 1920 пикселей
Высота                                   : 1080 пикселей
Соотношение сторон                       : 16:9
Режим частоты кадров                     : Постоянный
Частота кадров                           : 25,000 кадров/сек
Цветовое пространство                    : YUV
Субдискретизация насыщенности            : 4:2:0
Битовая глубина                          : 8 бит
Тип развёртки                            : Прогрессивная
Бит/(Пиксели*Кадры)                      : 0.087
Размер потока                            : 105 Мбайт (97%)
Библиотека кодирования                   : x264 core 129
Настройки программы                      : cabac=1 / ref=1 / deblock=1:0:0 / analyse=0x1:0x131 / me=dia / subme=2 / psy=1 / psy_rd=1.00:0.00 / mixed_ref=0 / me_range=16 / chroma_me=1 / trellis=0 / 8x8dct=0 / cqm=0 / deadzone=21,11 / fast_pskip=1 / chroma_qp_offset=0 / threads=2 / lookahead_threads=1 / sliced_threads=0 / nr=0 / decimate=1 / interlaced=0 / bluray_compat=0 / constrained_intra=0 / bframes=0 / weightp=2 / keyint=250 / keyint_min=25 / scenecut=40 / intra_refresh=0 / rc_lookahead=40 / rc=abr / mbtree=1 / bitrate=4496 / ratetol=1.0 / qcomp=0.60 / qpmin=10 / qpmax=51 / qpstep=4 / ip_ratio=1.41 / aq=1:1.00
Дата кодирования                         : UTC 2016-01-23 06:59:43
Дата пометки                             : UTC 2016-01-23 06:59:43

Аудио
Идентификатор                            : 2
Формат                                   : AAC
Формат/Информация                        : Advanced Audio Codec
Профиль формата                          : LC
Идентификатор кодека                     : 40
Продолжительность                        : 3 м. 19 с.
Duration_FirstFrame                      : 70 мс.
Вид битрейта                             : Переменный
Битрейт                                  : 152 Кбит/сек
Максимальный битрейт                     : 176 Кбит/сек
Каналы                                   : 2 канала
Расположение каналов                     : Front: L R
Частота                                  : 44,1 КГц
Частота кадров                           : 43,066 кадра/сек (1024 spf)
Метод сжатия                             : С потерями
Размер потока                            : 3,62 Мбайт (3%)
Default                                  : Да
Alternate group                          : 1
Дата кодирования                         : UTC 2016-01-23 06:59:43
Дата пометки                             : UTC 2016-01-23 06:59:43
Общее
Полное имя                               : E:\VA - Зимний марафон № 221 (Продвинутые Зимние Хиты)\11. Pitbull ft. Shaggy and Gene Noble - Only Love (Official Video).mp4
Формат                                   : MPEG-4
Профиль формата                          : Base Media
Идентификатор кодека                     : isom (isom/iso2/avc1/mp41)
Размер файла                             : 113 Мбайт
Продолжительность                        : 3 м. 26 с.
Режим общего битрейта                    : Переменный
Общий поток                              : 4590 Кбит/сек
Дата кодирования                         : UTC 2016-01-22 18:46:49
Дата пометки                             : UTC 2016-01-22 18:46:49
Программа кодирования                    : Lavf54.63.104

Видео
Идентификатор                            : 1
Формат                                   : AVC
Формат/Информация                        : Advanced Video Codec
Профиль формата                          : Main@L4
Параметр CABAC формата                   : Да
Параметр ReFrames формата                : 1 кадр
Идентификатор кодека                     : avc1
Идентификатор кодека/Информация          : Advanced Video Coding
Продолжительность                        : 3 м. 26 с.
Битрейт                                  : 4496 Кбит/сек
Ширина                                   : 1920 пикселей
Высота                                   : 1080 пикселей
Соотношение сторон                       : 16:9
Режим частоты кадров                     : Постоянный
Частота кадров                           : 25,000 кадров/сек
Цветовое пространство                    : YUV
Субдискретизация насыщенности            : 4:2:0
Битовая глубина                          : 8 бит
Тип развёртки                            : Прогрессивная
Бит/(Пиксели*Кадры)                      : 0.087
Размер потока                            : 109 Мбайт (97%)
Библиотека кодирования                   : x264 core 129
Настройки программы                      : cabac=1 / ref=1 / deblock=1:0:0 / analyse=0x1:0x131 / me=dia / subme=2 / psy=1 / psy_rd=1.00:0.00 / mixed_ref=0 / me_range=16 / chroma_me=1 / trellis=0 / 8x8dct=0 / cqm=0 / deadzone=21,11 / fast_pskip=1 / chroma_qp_offset=0 / threads=2 / lookahead_threads=1 / sliced_threads=0 / nr=0 / decimate=1 / interlaced=0 / bluray_compat=0 / constrained_intra=0 / bframes=0 / weightp=2 / keyint=250 / keyint_min=25 / scenecut=40 / intra_refresh=0 / rc_lookahead=40 / rc=abr / mbtree=1 / bitrate=4496 / ratetol=1.0 / qcomp=0.60 / qpmin=10 / qpmax=51 / qpstep=4 / ip_ratio=1.41 / aq=1:1.00
Дата кодирования                         : UTC 2016-01-22 18:46:49
Дата пометки                             : UTC 2016-01-22 18:46:49

Аудио
Идентификатор                            : 2
Формат                                   : AAC
Формат/Информация                        : Advanced Audio Codec
Профиль формата                          : LC
Идентификатор кодека                     : 40
Продолжительность                        : 3 м. 26 с.
Duration_FirstFrame                      : 70 мс.
Вид битрейта                             : Переменный
Битрейт                                  : 151 Кбит/сек
Максимальный битрейт                     : 176 Кбит/сек
Каналы                                   : 2 канала
Расположение каналов                     : Front: L R
Частота                                  : 44,1 КГц
Частота кадров                           : 43,066 кадра/сек (1024 spf)
Метод сжатия                             : С потерями
Размер потока                            : 3,71 Мбайт (3%)
Default                                  : Да
Alternate group                          : 1
Дата кодирования                         : UTC 2016-01-22 18:46:49
Дата пометки                             : UTC 2016-01-22 18:46:49
Общее
Полное имя                               : E:\VA - Зимний марафон № 221 (Продвинутые Зимние Хиты)\12. Pitbull ft. Stephen Oaks and Qwote - If Its Love (Official Video).mp4
Формат                                   : MPEG-4
Профиль формата                          : Base Media
Идентификатор кодека                     : isom (isom/iso2/avc1/mp41)
Размер файла                             : 140 Мбайт
Продолжительность                        : 4 м. 16 с.
Режим общего битрейта                    : Переменный
Общий поток                              : 4569 Кбит/сек
Дата кодирования                         : UTC 2016-01-19 03:08:57
Дата пометки                             : UTC 2016-01-19 03:08:57
Программа кодирования                    : Lavf54.63.104

Видео
Идентификатор                            : 1
Формат                                   : AVC
Формат/Информация                        : Advanced Video Codec
Профиль формата                          : Main@L4
Параметр CABAC формата                   : Да
Параметр ReFrames формата                : 1 кадр
Параметр GOP формата                     : N=1
Идентификатор кодека                     : avc1
Идентификатор кодека/Информация          : Advanced Video Coding
Продолжительность                        : 4 м. 16 с.
Битрейт                                  : 4496 Кбит/сек
Ширина                                   : 1920 пикселей
Высота                                   : 1080 пикселей
Соотношение сторон                       : 16:9
Режим частоты кадров                     : Постоянный
Частота кадров                           : 25,000 кадров/сек
Цветовое пространство                    : YUV
Субдискретизация насыщенности            : 4:2:0
Битовая глубина                          : 8 бит
Тип развёртки                            : Прогрессивная
Бит/(Пиксели*Кадры)                      : 0.087
Размер потока                            : 135 Мбайт (97%)
Библиотека кодирования                   : x264 core 129
Настройки программы                      : cabac=1 / ref=1 / deblock=1:0:0 / analyse=0x1:0x131 / me=dia / subme=2 / psy=1 / psy_rd=1.00:0.00 / mixed_ref=0 / me_range=16 / chroma_me=1 / trellis=0 / 8x8dct=0 / cqm=0 / deadzone=21,11 / fast_pskip=1 / chroma_qp_offset=0 / threads=2 / lookahead_threads=1 / sliced_threads=0 / nr=0 / decimate=1 / interlaced=0 / bluray_compat=0 / constrained_intra=0 / bframes=0 / weightp=2 / keyint=250 / keyint_min=25 / scenecut=40 / intra_refresh=0 / rc_lookahead=40 / rc=abr / mbtree=1 / bitrate=4496 / ratetol=1.0 / qcomp=0.60 / qpmin=10 / qpmax=51 / qpstep=4 / ip_ratio=1.41 / aq=1:1.00
Дата кодирования                         : UTC 2016-01-19 03:08:57
Дата пометки                             : UTC 2016-01-19 03:08:57

Аудио
Идентификатор                            : 2
Формат                                   : AAC
Формат/Информация                        : Advanced Audio Codec
Профиль формата                          : LC
Идентификатор кодека                     : 40
Продолжительность                        : 4 м. 16 с.
Duration_FirstFrame                      : 70 мс.
Вид битрейта                             : Переменный
Битрейт                                  : 152 Кбит/сек
Максимальный битрейт                     : 176 Кбит/сек
Каналы                                   : 2 канала
Расположение каналов                     : Front: L R
Частота                                  : 44,1 КГц
Частота кадров                           : 43,066 кадра/сек (1024 spf)
Метод сжатия                             : С потерями
Размер потока                            : 4,63 Мбайт (3%)
Default                                  : Да
Alternate group                          : 1
Дата кодирования                         : UTC 2016-01-19 03:08:57
Дата пометки                             : UTC 2016-01-19 03:08:57
Общее
Полное имя                               : E:\VA - Зимний марафон № 221 (Продвинутые Зимние Хиты)\13. Pretty Pink feat. ARC - Run (Official Video).mp4
Формат                                   : MPEG-4
Профиль формата                          : Base Media
Идентификатор кодека                     : isom (isom/iso2/avc1/mp41)
Размер файла                             : 98,7 Мбайт
Продолжительность                        : 2 м. 59 с.
Режим общего битрейта                    : Переменный
Общий поток                              : 4620 Кбит/сек
Дата кодирования                         : UTC 2016-01-23 10:55:50
Дата пометки                             : UTC 2016-01-23 10:55:50
Программа кодирования                    : Lavf54.63.104

Видео
Идентификатор                            : 1
Формат                                   : AVC
Формат/Информация                        : Advanced Video Codec
Профиль формата                          : Main@L4
Параметр CABAC формата                   : Да
Параметр ReFrames формата                : 1 кадр
Идентификатор кодека                     : avc1
Идентификатор кодека/Информация          : Advanced Video Coding
Продолжительность                        : 2 м. 59 с.
Битрейт                                  : 4496 Кбит/сек
Ширина                                   : 1920 пикселей
Высота                                   : 1080 пикселей
Соотношение сторон                       : 16:9
Режим частоты кадров                     : Постоянный
Частота кадров                           : 25,000 кадров/сек
Цветовое пространство                    : YUV
Субдискретизация насыщенности            : 4:2:0
Битовая глубина                          : 8 бит
Тип развёртки                            : Прогрессивная
Бит/(Пиксели*Кадры)                      : 0.087
Размер потока                            : 95,3 Мбайт (97%)
Библиотека кодирования                   : x264 core 129
Настройки программы                      : cabac=1 / ref=1 / deblock=1:0:0 / analyse=0x1:0x131 / me=dia / subme=2 / psy=1 / psy_rd=1.00:0.00 / mixed_ref=0 / me_range=16 / chroma_me=1 / trellis=0 / 8x8dct=0 / cqm=0 / deadzone=21,11 / fast_pskip=1 / chroma_qp_offset=0 / threads=2 / lookahead_threads=1 / sliced_threads=0 / nr=0 / decimate=1 / interlaced=0 / bluray_compat=0 / constrained_intra=0 / bframes=0 / weightp=2 / keyint=250 / keyint_min=25 / scenecut=40 / intra_refresh=0 / rc_lookahead=40 / rc=abr / mbtree=1 / bitrate=4496 / ratetol=1.0 / qcomp=0.60 / qpmin=10 / qpmax=51 / qpstep=4 / ip_ratio=1.41 / aq=1:1.00
Дата кодирования                         : UTC 2016-01-23 10:55:50
Дата пометки                             : UTC 2016-01-23 10:55:50

Аудио
Идентификатор                            : 2
Формат                                   : AAC
Формат/Информация                        : Advanced Audio Codec
Профиль формата                          : LC
Идентификатор кодека                     : 40
Продолжительность                        : 2 м. 59 с.
Duration_FirstFrame                      : 70 мс.
Вид битрейта                             : Переменный
Битрейт                                  : 152 Кбит/сек
Максимальный битрейт                     : 176 Кбит/сек
Каналы                                   : 2 канала
Расположение каналов                     : Front: L R
Частота                                  : 44,1 КГц
Частота кадров                           : 43,066 кадра/сек (1024 spf)
Метод сжатия                             : С потерями
Размер потока                            : 3,25 Мбайт (3%)
Default                                  : Да
Alternate group                          : 1
Дата кодирования                         : UTC 2016-01-23 10:55:50
Дата пометки                             : UTC 2016-01-23 10:55:50
Общее
Полное имя                               : E:\VA - Зимний марафон № 221 (Продвинутые Зимние Хиты)\14. Prince Royce - Culpa al Corazón (Official Video).mp4
Формат                                   : MPEG-4
Профиль формата                          : Base Media
Идентификатор кодека                     : isom (isom/iso2/avc1/mp41)
Размер файла                             : 163 Мбайт
Продолжительность                        : 4 м. 52 с.
Режим общего битрейта                    : Переменный
Общий поток                              : 4669 Кбит/сек
Дата кодирования                         : UTC 2016-01-23 02:37:59
Дата пометки                             : UTC 2016-01-23 02:37:59
Программа кодирования                    : Lavf54.63.104

Видео
Идентификатор                            : 1
Формат                                   : AVC
Формат/Информация                        : Advanced Video Codec
Профиль формата                          : Main@L4
Параметр CABAC формата                   : Да
Параметр ReFrames формата                : 1 кадр
Идентификатор кодека                     : avc1
Идентификатор кодека/Информация          : Advanced Video Coding
Продолжительность                        : 4 м. 52 с.
Битрейт                                  : 4496 Кбит/сек
Ширина                                   : 1920 пикселей
Высота                                   : 1080 пикселей
Соотношение сторон                       : 16:9
Режим частоты кадров                     : Постоянный
Частота кадров                           : 25,000 кадров/сек
Цветовое пространство                    : YUV
Субдискретизация насыщенности            : 4:2:0
Битовая глубина                          : 8 бит
Тип развёртки                            : Прогрессивная
Бит/(Пиксели*Кадры)                      : 0.087
Размер потока                            : 158 Мбайт (97%)
Библиотека кодирования                   : x264 core 129
Настройки программы                      : cabac=1 / ref=1 / deblock=1:0:0 / analyse=0x1:0x131 / me=dia / subme=2 / psy=1 / psy_rd=1.00:0.00 / mixed_ref=0 / me_range=16 / chroma_me=1 / trellis=0 / 8x8dct=0 / cqm=0 / deadzone=21,11 / fast_pskip=1 / chroma_qp_offset=0 / threads=2 / lookahead_threads=1 / sliced_threads=0 / nr=0 / decimate=1 / interlaced=0 / bluray_compat=0 / constrained_intra=0 / bframes=0 / weightp=2 / keyint=250 / keyint_min=25 / scenecut=40 / intra_refresh=0 / rc_lookahead=40 / rc=abr / mbtree=1 / bitrate=4496 / ratetol=1.0 / qcomp=0.60 / qpmin=10 / qpmax=51 / qpstep=4 / ip_ratio=1.41 / aq=1:1.00
Дата кодирования                         : UTC 2016-01-23 02:37:59
Дата пометки                             : UTC 2016-01-23 02:37:59

Аудио
Идентификатор                            : 2
Формат                                   : AAC
Формат/Информация                        : Advanced Audio Codec
Профиль формата                          : LC
Идентификатор кодека                     : 40
Продолжительность                        : 4 м. 52 с.
Duration_FirstFrame                      : 70 мс.
Вид битрейта                             : Переменный
Битрейт                                  : 148 Кбит/сек
Максимальный битрейт                     : 176 Кбит/сек
Каналы                                   : 2 канала
Расположение каналов                     : Front: L R
Частота                                  : 44,1 КГц
Частота кадров                           : 43,066 кадра/сек (1024 spf)
Метод сжатия                             : С потерями
Размер потока                            : 5,15 Мбайт (3%)
Default                                  : Да
Alternate group                          : 1
Дата кодирования                         : UTC 2016-01-23 02:37:59
Дата пометки                             : UTC 2016-01-23 02:37:59
Общее
Полное имя                               : E:\VA - Зимний марафон № 221 (Продвинутые Зимние Хиты)\15. Reez ft. Mandy Jiroux - Fade Away (Official Video).mp4
Формат                                   : MPEG-4
Профиль формата                          : Base Media
Идентификатор кодека                     : isom (isom/iso2/avc1/mp41)
Размер файла                             : 108 Мбайт
Продолжительность                        : 3 м. 17 с.
Режим общего битрейта                    : Переменный
Общий поток                              : 4604 Кбит/сек
Дата кодирования                         : UTC 2016-01-22 06:36:57
Дата пометки                             : UTC 2016-01-22 06:36:57
Программа кодирования                    : Lavf54.63.104

Видео
Идентификатор                            : 1
Формат                                   : AVC
Формат/Информация                        : Advanced Video Codec
Профиль формата                          : Main@L4
Параметр CABAC формата                   : Да
Параметр ReFrames формата                : 1 кадр
Идентификатор кодека                     : avc1
Идентификатор кодека/Информация          : Advanced Video Coding
Продолжительность                        : 3 м. 17 с.
Битрейт                                  : 4496 Кбит/сек
Ширина                                   : 1920 пикселей
Высота                                   : 1080 пикселей
Соотношение сторон                       : 16:9
Режим частоты кадров                     : Постоянный
Частота кадров                           : 25,000 кадров/сек
Цветовое пространство                    : YUV
Субдискретизация насыщенности            : 4:2:0
Битовая глубина                          : 8 бит
Тип развёртки                            : Прогрессивная
Бит/(Пиксели*Кадры)                      : 0.087
Размер потока                            : 105 Мбайт (97%)
Библиотека кодирования                   : x264 core 129
Настройки программы                      : cabac=1 / ref=1 / deblock=1:0:0 / analyse=0x1:0x131 / me=dia / subme=2 / psy=1 / psy_rd=1.00:0.00 / mixed_ref=0 / me_range=16 / chroma_me=1 / trellis=0 / 8x8dct=0 / cqm=0 / deadzone=21,11 / fast_pskip=1 / chroma_qp_offset=0 / threads=2 / lookahead_threads=1 / sliced_threads=0 / nr=0 / decimate=1 / interlaced=0 / bluray_compat=0 / constrained_intra=0 / bframes=0 / weightp=2 / keyint=250 / keyint_min=25 / scenecut=40 / intra_refresh=0 / rc_lookahead=40 / rc=abr / mbtree=1 / bitrate=4496 / ratetol=1.0 / qcomp=0.60 / qpmin=10 / qpmax=51 / qpstep=4 / ip_ratio=1.41 / aq=1:1.00
Дата кодирования                         : UTC 2016-01-22 06:36:57
Дата пометки                             : UTC 2016-01-22 06:36:57

Аудио
Идентификатор                            : 2
Формат                                   : AAC
Формат/Информация                        : Advanced Audio Codec
Профиль формата                          : LC
Идентификатор кодека                     : 40
Продолжительность                        : 3 м. 17 с.
Duration_FirstFrame                      : 70 мс.
Вид битрейта                             : Переменный
Битрейт                                  : 152 Кбит/сек
Максимальный битрейт                     : 176 Кбит/сек
Каналы                                   : 2 канала
Расположение каналов                     : Front: L R
Частота                                  : 44,1 КГц
Частота кадров                           : 43,066 кадра/сек (1024 spf)
Метод сжатия                             : С потерями
Размер потока                            : 3,58 Мбайт (3%)
Default                                  : Да
Alternate group                          : 1
Дата кодирования                         : UTC 2016-01-22 06:36:57
Дата пометки                             : UTC 2016-01-22 06:36:57
Общее
Полное имя                               : E:\VA - Зимний марафон № 221 (Продвинутые Зимние Хиты)\16. Roberto Sansixto ft. Ruth Calixta - Phoenix (Official Video).mp4
Формат                                   : MPEG-4
Профиль формата                          : Base Media
Идентификатор кодека                     : isom (isom/iso2/avc1/mp41)
Размер файла                             : 117 Мбайт
Продолжительность                        : 3 м. 30 с.
Режим общего битрейта                    : Переменный
Общий поток                              : 4677 Кбит/сек
Дата кодирования                         : UTC 2016-01-23 09:27:38
Дата пометки                             : UTC 2016-01-23 09:27:38
Программа кодирования                    : Lavf54.63.104

Видео
Идентификатор                            : 1
Формат                                   : AVC
Формат/Информация                        : Advanced Video Codec
Профиль формата                          : Main@L4
Параметр CABAC формата                   : Да
Параметр ReFrames формата                : 1 кадр
Идентификатор кодека                     : avc1
Идентификатор кодека/Информация          : Advanced Video Coding
Продолжительность                        : 3 м. 30 с.
Битрейт                                  : 4496 Кбит/сек
Ширина                                   : 1920 пикселей
Высота                                   : 1080 пикселей
Соотношение сторон                       : 16:9
Режим частоты кадров                     : Постоянный
Частота кадров                           : 25,000 кадров/сек
Цветовое пространство                    : YUV
Субдискретизация насыщенности            : 4:2:0
Битовая глубина                          : 8 бит
Тип развёртки                            : Прогрессивная
Бит/(Пиксели*Кадры)                      : 0.087
Размер потока                            : 113 Мбайт (97%)
Библиотека кодирования                   : x264 core 129
Настройки программы                      : cabac=1 / ref=1 / deblock=1:0:0 / analyse=0x1:0x131 / me=dia / subme=2 / psy=1 / psy_rd=1.00:0.00 / mixed_ref=0 / me_range=16 / chroma_me=1 / trellis=0 / 8x8dct=0 / cqm=0 / deadzone=21,11 / fast_pskip=1 / chroma_qp_offset=0 / threads=2 / lookahead_threads=1 / sliced_threads=0 / nr=0 / decimate=1 / interlaced=0 / bluray_compat=0 / constrained_intra=0 / bframes=0 / weightp=2 / keyint=250 / keyint_min=25 / scenecut=40 / intra_refresh=0 / rc_lookahead=40 / rc=abr / mbtree=1 / bitrate=4496 / ratetol=1.0 / qcomp=0.60 / qpmin=10 / qpmax=51 / qpstep=4 / ip_ratio=1.41 / aq=1:1.00
Дата кодирования                         : UTC 2016-01-23 09:27:38
Дата пометки                             : UTC 2016-01-23 09:27:38

Аудио
Идентификатор                            : 2
Формат                                   : AAC
Формат/Информация                        : Advanced Audio Codec
Профиль формата                          : LC
Идентификатор кодека                     : 40
Продолжительность                        : 3 м. 30 с.
Duration_FirstFrame                      : 70 мс.
Вид битрейта                             : Переменный
Битрейт                                  : 151 Кбит/сек
Максимальный битрейт                     : 176 Кбит/сек
Каналы                                   : 2 канала
Расположение каналов                     : Front: L R
Частота                                  : 44,1 КГц
Частота кадров                           : 43,066 кадра/сек (1024 spf)
Метод сжатия                             : С потерями
Размер потока                            : 3,79 Мбайт (3%)
Default                                  : Да
Alternate group                          : 1
Дата кодирования                         : UTC 2016-01-23 09:27:38
Дата пометки                             : UTC 2016-01-23 09:27:38
Общее
Полное имя                               : E:\VA - Зимний марафон № 221 (Продвинутые Зимние Хиты)\17. Ruben de Ronde ft. Aelyn - By Your Side (Chill Mix) (Official Video).mp4
Формат                                   : MPEG-4
Профиль формата                          : Base Media
Идентификатор кодека                     : isom (isom/iso2/avc1/mp41)
Размер файла                             : 138 Мбайт
Продолжительность                        : 4 м. 13 с.
Режим общего битрейта                    : Переменный
Общий поток                              : 4583 Кбит/сек
Дата кодирования                         : UTC 2016-01-15 06:41:25
Дата пометки                             : UTC 2016-01-15 06:41:25
Программа кодирования                    : Lavf54.63.104

Видео
Идентификатор                            : 1
Формат                                   : AVC
Формат/Информация                        : Advanced Video Codec
Профиль формата                          : Main@L4
Параметр CABAC формата                   : Да
Параметр ReFrames формата                : 1 кадр
Идентификатор кодека                     : avc1
Идентификатор кодека/Информация          : Advanced Video Coding
Продолжительность                        : 4 м. 13 с.
Битрейт                                  : 4496 Кбит/сек
Ширина                                   : 1920 пикселей
Высота                                   : 1080 пикселей
Соотношение сторон                       : 16:9
Режим частоты кадров                     : Постоянный
Частота кадров                           : 25,000 кадров/сек
Цветовое пространство                    : YUV
Субдискретизация насыщенности            : 4:2:0
Битовая глубина                          : 8 бит
Тип развёртки                            : Прогрессивная
Бит/(Пиксели*Кадры)                      : 0.087
Размер потока                            : 134 Мбайт (97%)
Библиотека кодирования                   : x264 core 129
Настройки программы                      : cabac=1 / ref=1 / deblock=1:0:0 / analyse=0x1:0x131 / me=dia / subme=2 / psy=1 / psy_rd=1.00:0.00 / mixed_ref=0 / me_range=16 / chroma_me=1 / trellis=0 / 8x8dct=0 / cqm=0 / deadzone=21,11 / fast_pskip=1 / chroma_qp_offset=0 / threads=2 / lookahead_threads=1 / sliced_threads=0 / nr=0 / decimate=1 / interlaced=0 / bluray_compat=0 / constrained_intra=0 / bframes=0 / weightp=2 / keyint=250 / keyint_min=25 / scenecut=40 / intra_refresh=0 / rc_lookahead=40 / rc=abr / mbtree=1 / bitrate=4496 / ratetol=1.0 / qcomp=0.60 / qpmin=10 / qpmax=51 / qpstep=4 / ip_ratio=1.41 / aq=1:1.00
Дата кодирования                         : UTC 2016-01-15 06:41:25
Дата пометки                             : UTC 2016-01-15 06:41:25

Аудио
Идентификатор                            : 2
Формат                                   : AAC
Формат/Информация                        : Advanced Audio Codec
Профиль формата                          : LC
Идентификатор кодека                     : 40
Продолжительность                        : 4 м. 13 с.
Duration_FirstFrame                      : 70 мс.
Вид битрейта                             : Переменный
Битрейт                                  : 152 Кбит/сек
Максимальный битрейт                     : 176 Кбит/сек
Каналы                                   : 2 канала
Расположение каналов                     : Front: L R
Частота                                  : 44,1 КГц
Частота кадров                           : 43,066 кадра/сек (1024 spf)
Метод сжатия                             : С потерями
Размер потока                            : 4,58 Мбайт (3%)
Default                                  : Да
Alternate group                          : 1
Дата кодирования                         : UTC 2016-01-15 06:41:25
Дата пометки                             : UTC 2016-01-15 06:41:25
Общее
Полное имя                               : E:\VA - Зимний марафон № 221 (Продвинутые Зимние Хиты)\18. Sean Paul and Others - Love Song to the Earth (Official Video).mp4
Формат                                   : MPEG-4
Профиль формата                          : Base Media
Идентификатор кодека                     : isom (isom/iso2/avc1/mp41)
Размер файла                             : 126 Мбайт
Продолжительность                        : 4 м. 14 с.
Режим общего битрейта                    : Переменный
Общий поток                              : 4152 Кбит/сек
Дата кодирования                         : UTC 2015-12-24 11:45:54
Дата пометки                             : UTC 2015-12-24 11:45:54
Программа кодирования                    : Lavf54.63.104

Видео
Идентификатор                            : 1
Формат                                   : AVC
Формат/Информация                        : Advanced Video Codec
Профиль формата                          : Main@L4
Параметр CABAC формата                   : Да
Параметр ReFrames формата                : 1 кадр
Идентификатор кодека                     : avc1
Идентификатор кодека/Информация          : Advanced Video Coding
Продолжительность                        : 4 м. 14 с.
Битрейт                                  : 4008 Кбит/сек
Номинальный битрейт                      : 4496 Кбит/сек
Ширина                                   : 1920 пикселей
Высота                                   : 1080 пикселей
Соотношение сторон                       : 16:9
Режим частоты кадров                     : Постоянный
Частота кадров                           : 25,000 кадров/сек
Цветовое пространство                    : YUV
Субдискретизация насыщенности            : 4:2:0
Битовая глубина                          : 8 бит
Тип развёртки                            : Прогрессивная
Бит/(Пиксели*Кадры)                      : 0.077
Размер потока                            : 122 Мбайт (97%)
Библиотека кодирования                   : x264 core 129
Настройки программы                      : cabac=1 / ref=1 / deblock=1:0:0 / analyse=0x1:0x131 / me=dia / subme=2 / psy=1 / psy_rd=1.00:0.00 / mixed_ref=0 / me_range=16 / chroma_me=1 / trellis=0 / 8x8dct=0 / cqm=0 / deadzone=21,11 / fast_pskip=1 / chroma_qp_offset=0 / threads=2 / lookahead_threads=1 / sliced_threads=0 / nr=0 / decimate=1 / interlaced=0 / bluray_compat=0 / constrained_intra=0 / bframes=0 / weightp=2 / keyint=250 / keyint_min=25 / scenecut=40 / intra_refresh=0 / rc_lookahead=40 / rc=abr / mbtree=1 / bitrate=4496 / ratetol=1.0 / qcomp=0.60 / qpmin=10 / qpmax=51 / qpstep=4 / ip_ratio=1.41 / aq=1:1.00
Дата кодирования                         : UTC 2015-12-24 11:45:54
Дата пометки                             : UTC 2015-12-24 11:45:54

Аудио
Идентификатор                            : 2
Формат                                   : AAC
Формат/Информация                        : Advanced Audio Codec
Профиль формата                          : LC
Идентификатор кодека                     : 40
Продолжительность                        : 4 м. 14 с.
Duration_FirstFrame                      : 70 мс.
Вид битрейта                             : Переменный
Битрейт                                  : 139 Кбит/сек
Максимальный битрейт                     : 176 Кбит/сек
Каналы                                   : 2 канала
Расположение каналов                     : Front: L R
Частота                                  : 44,1 КГц
Частота кадров                           : 43,066 кадра/сек (1024 spf)
Метод сжатия                             : С потерями
Размер потока                            : 4,23 Мбайт (3%)
Default                                  : Да
Alternate group                          : 1
Дата кодирования                         : UTC 2015-12-24 11:45:54
Дата пометки                             : UTC 2015-12-24 11:45:54
Общее
Полное имя                               : E:\VA - Зимний марафон № 221 (Продвинутые Зимние Хиты)\19. Skreatch ft John Green - Roxanne's Lullaby (Official Video).mp4
Формат                                   : MPEG-4
Профиль формата                          : Base Media
Идентификатор кодека                     : isom (isom/iso2/avc1/mp41)
Размер файла                             : 127 Мбайт
Продолжительность                        : 3 м. 42 с.
Режим общего битрейта                    : Переменный
Общий поток                              : 4764 Кбит/сек
Дата кодирования                         : UTC 2016-01-23 03:59:55
Дата пометки                             : UTC 2016-01-23 03:59:55
Программа кодирования                    : Lavf54.63.104

Видео
Идентификатор                            : 1
Формат                                   : AVC
Формат/Информация                        : Advanced Video Codec
Профиль формата                          : Main@L4
Параметр CABAC формата                   : Да
Параметр ReFrames формата                : 1 кадр
Идентификатор кодека                     : avc1
Идентификатор кодека/Информация          : Advanced Video Coding
Продолжительность                        : 3 м. 42 с.
Битрейт                                  : 4496 Кбит/сек
Ширина                                   : 1920 пикселей
Высота                                   : 1080 пикселей
Соотношение сторон                       : 16:9
Режим частоты кадров                     : Постоянный
Частота кадров                           : 25,000 кадров/сек
Цветовое пространство                    : YUV
Субдискретизация насыщенности            : 4:2:0
Битовая глубина                          : 8 бит
Тип развёртки                            : Прогрессивная
Бит/(Пиксели*Кадры)                      : 0.087
Размер потока                            : 122 Мбайт (97%)
Библиотека кодирования                   : x264 core 129
Настройки программы                      : cabac=1 / ref=1 / deblock=1:0:0 / analyse=0x1:0x131 / me=dia / subme=2 / psy=1 / psy_rd=1.00:0.00 / mixed_ref=0 / me_range=16 / chroma_me=1 / trellis=0 / 8x8dct=0 / cqm=0 / deadzone=21,11 / fast_pskip=1 / chroma_qp_offset=0 / threads=2 / lookahead_threads=1 / sliced_threads=0 / nr=0 / decimate=1 / interlaced=0 / bluray_compat=0 / constrained_intra=0 / bframes=0 / weightp=2 / keyint=250 / keyint_min=25 / scenecut=40 / intra_refresh=0 / rc_lookahead=40 / rc=abr / mbtree=1 / bitrate=4496 / ratetol=1.0 / qcomp=0.60 / qpmin=10 / qpmax=51 / qpstep=4 / ip_ratio=1.41 / aq=1:1.00
Дата кодирования                         : UTC 2016-01-23 03:59:55
Дата пометки                             : UTC 2016-01-23 03:59:55

Аудио
Идентификатор                            : 2
Формат                                   : AAC
Формат/Информация                        : Advanced Audio Codec
Профиль формата                          : LC
Идентификатор кодека                     : 40
Продолжительность                        : 3 м. 42 с.
Duration_FirstFrame                      : 70 мс.
Вид битрейта                             : Переменный
Битрейт                                  : 151 Кбит/сек
Максимальный битрейт                     : 176 Кбит/сек
Каналы                                   : 2 канала
Расположение каналов                     : Front: L R
Частота                                  : 44,1 КГц
Частота кадров                           : 43,066 кадра/сек (1024 spf)
Метод сжатия                             : С потерями
Размер потока                            : 4,02 Мбайт (3%)
Default                                  : Да
Alternate group                          : 1
Дата кодирования                         : UTC 2016-01-23 03:59:55
Дата пометки                             : UTC 2016-01-23 03:59:55
Общее
Полное имя                               : E:\VA - Зимний марафон № 221 (Продвинутые Зимние Хиты)\20. Tim McGraw - Humble And Kind (Official Video).mp4
Формат                                   : MPEG-4
Профиль формата                          : Base Media
Идентификатор кодека                     : isom (isom/iso2/avc1/mp41)
Размер файла                             : 141 Мбайт
Продолжительность                        : 4 м. 29 с.
Режим общего битрейта                    : Переменный
Общий поток                              : 4388 Кбит/сек
Дата кодирования                         : UTC 2016-01-23 10:21:04
Дата пометки                             : UTC 2016-01-23 10:21:04
Программа кодирования                    : Lavf54.63.104

Видео
Идентификатор                            : 1
Формат                                   : AVC
Формат/Информация                        : Advanced Video Codec
Профиль формата                          : Main@L4
Параметр CABAC формата                   : Да
Параметр ReFrames формата                : 1 кадр
Идентификатор кодека                     : avc1
Идентификатор кодека/Информация          : Advanced Video Coding
Продолжительность                        : 4 м. 29 с.
Битрейт                                  : 4239 Кбит/сек
Номинальный битрейт                      : 4496 Кбит/сек
Ширина                                   : 1920 пикселей
Высота                                   : 1080 пикселей
Соотношение сторон                       : 16:9
Режим частоты кадров                     : Постоянный
Частота кадров                           : 25,000 кадров/сек
Цветовое пространство                    : YUV
Субдискретизация насыщенности            : 4:2:0
Битовая глубина                          : 8 бит
Тип развёртки                            : Прогрессивная
Бит/(Пиксели*Кадры)                      : 0.082
Размер потока                            : 136 Мбайт (97%)
Библиотека кодирования                   : x264 core 129
Настройки программы                      : cabac=1 / ref=1 / deblock=1:0:0 / analyse=0x1:0x131 / me=dia / subme=2 / psy=1 / psy_rd=1.00:0.00 / mixed_ref=0 / me_range=16 / chroma_me=1 / trellis=0 / 8x8dct=0 / cqm=0 / deadzone=21,11 / fast_pskip=1 / chroma_qp_offset=0 / threads=2 / lookahead_threads=1 / sliced_threads=0 / nr=0 / decimate=1 / interlaced=0 / bluray_compat=0 / constrained_intra=0 / bframes=0 / weightp=2 / keyint=250 / keyint_min=25 / scenecut=40 / intra_refresh=0 / rc_lookahead=40 / rc=abr / mbtree=1 / bitrate=4496 / ratetol=1.0 / qcomp=0.60 / qpmin=10 / qpmax=51 / qpstep=4 / ip_ratio=1.41 / aq=1:1.00
Дата кодирования                         : UTC 2016-01-23 10:21:04
Дата пометки                             : UTC 2016-01-23 10:21:04

Аудио
Идентификатор                            : 2
Формат                                   : AAC
Формат/Информация                        : Advanced Audio Codec
Профиль формата                          : LC
Идентификатор кодека                     : 40
Продолжительность                        : 4 м. 29 с.
Duration_FirstFrame                      : 70 мс.
Вид битрейта                             : Переменный
Битрейт                                  : 144 Кбит/сек
Максимальный битрейт                     : 176 Кбит/сек
Каналы                                   : 2 канала
Расположение каналов                     : Front: L R
Частота                                  : 44,1 КГц
Частота кадров                           : 43,066 кадра/сек (1024 spf)
Метод сжатия                             : С потерями
Размер потока                            : 4,64 Мбайт (3%)
Default                                  : Да
Alternate group                          : 1
Дата кодирования                         : UTC 2016-01-23 10:21:04
Дата пометки                             : UTC 2016-01-23 10:21:04
Общее
Полное имя                               : E:\VA - Зимний марафон № 221 (Продвинутые Зимние Хиты)\21. Анита Цой - Отпускала (Премьера!).mp4
Формат                                   : MPEG-4
Профиль формата                          : Base Media
Идентификатор кодека                     : isom (isom/iso2/avc1/mp41)
Размер файла                             : 110 Мбайт
Продолжительность                        : 3 м. 20 с.
Режим общего битрейта                    : Переменный
Общий поток                              : 4588 Кбит/сек
Дата кодирования                         : UTC 2016-01-22 12:29:03
Дата пометки                             : UTC 2016-01-22 12:29:03
Программа кодирования                    : Lavf54.63.104

Видео
Идентификатор                            : 1
Формат                                   : AVC
Формат/Информация                        : Advanced Video Codec
Профиль формата                          : Main@L4
Параметр CABAC формата                   : Да
Параметр ReFrames формата                : 1 кадр
Идентификатор кодека                     : avc1
Идентификатор кодека/Информация          : Advanced Video Coding
Продолжительность                        : 3 м. 20 с.
Битрейт                                  : 4496 Кбит/сек
Ширина                                   : 1920 пикселей
Высота                                   : 1080 пикселей
Соотношение сторон                       : 16:9
Режим частоты кадров                     : Постоянный
Частота кадров                           : 25,000 кадров/сек
Цветовое пространство                    : YUV
Субдискретизация насыщенности            : 4:2:0
Битовая глубина                          : 8 бит
Тип развёртки                            : Прогрессивная
Бит/(Пиксели*Кадры)                      : 0.087
Размер потока                            : 106 Мбайт (97%)
Библиотека кодирования                   : x264 core 129
Настройки программы                      : cabac=1 / ref=1 / deblock=1:0:0 / analyse=0x1:0x131 / me=dia / subme=2 / psy=1 / psy_rd=1.00:0.00 / mixed_ref=0 / me_range=16 / chroma_me=1 / trellis=0 / 8x8dct=0 / cqm=0 / deadzone=21,11 / fast_pskip=1 / chroma_qp_offset=0 / threads=2 / lookahead_threads=1 / sliced_threads=0 / nr=0 / decimate=1 / interlaced=0 / bluray_compat=0 / constrained_intra=0 / bframes=0 / weightp=2 / keyint=250 / keyint_min=25 / scenecut=40 / intra_refresh=0 / rc_lookahead=40 / rc=abr / mbtree=1 / bitrate=4496 / ratetol=1.0 / qcomp=0.60 / qpmin=10 / qpmax=51 / qpstep=4 / ip_ratio=1.41 / aq=1:1.00
Дата кодирования                         : UTC 2016-01-22 12:29:03
Дата пометки                             : UTC 2016-01-22 12:29:03

Аудио
Идентификатор                            : 2
Формат                                   : AAC
Формат/Информация                        : Advanced Audio Codec
Профиль формата                          : LC
Идентификатор кодека                     : 40
Продолжительность                        : 3 м. 20 с.
Duration_FirstFrame                      : 70 мс.
Вид битрейта                             : Переменный
Битрейт                                  : 152 Кбит/сек
Максимальный битрейт                     : 176 Кбит/сек
Каналы                                   : 2 канала
Расположение каналов                     : Front: L R
Частота                                  : 44,1 КГц
Частота кадров                           : 43,066 кадра/сек (1024 spf)
Метод сжатия                             : С потерями
Размер потока                            : 3,63 Мбайт (3%)
Default                                  : Да
Alternate group                          : 1
Дата кодирования                         : UTC 2016-01-22 12:29:03
Дата пометки                             : UTC 2016-01-22 12:29:03
Общее
Полное имя                               : E:\VA - Зимний марафон № 221 (Продвинутые Зимние Хиты)\22. Владислав Курасов - На глубине души (Премьера!).mp4
Формат                                   : MPEG-4
Профиль формата                          : Base Media
Идентификатор кодека                     : isom (isom/iso2/avc1/mp41)
Размер файла                             : 139 Мбайт
Продолжительность                        : 4 м. 13 с.
Режим общего битрейта                    : Переменный
Общий поток                              : 4601 Кбит/сек
Дата кодирования                         : UTC 2016-01-23 09:26:10
Дата пометки                             : UTC 2016-01-23 09:26:10
Программа кодирования                    : Lavf54.63.104

Видео
Идентификатор                            : 1
Формат                                   : AVC
Формат/Информация                        : Advanced Video Codec
Профиль формата                          : Main@L4
Параметр CABAC формата                   : Да
Параметр ReFrames формата                : 1 кадр
Идентификатор кодека                     : avc1
Идентификатор кодека/Информация          : Advanced Video Coding
Продолжительность                        : 4 м. 13 с.
Битрейт                                  : 4496 Кбит/сек
Ширина                                   : 1920 пикселей
Высота                                   : 1080 пикселей
Соотношение сторон                       : 16:9
Режим частоты кадров                     : Постоянный
Частота кадров                           : 25,000 кадров/сек
Цветовое пространство                    : YUV
Субдискретизация насыщенности            : 4:2:0
Битовая глубина                          : 8 бит
Тип развёртки                            : Прогрессивная
Бит/(Пиксели*Кадры)                      : 0.087
Размер потока                            : 134 Мбайт (97%)
Библиотека кодирования                   : x264 core 129
Настройки программы                      : cabac=1 / ref=1 / deblock=1:0:0 / analyse=0x1:0x131 / me=dia / subme=2 / psy=1 / psy_rd=1.00:0.00 / mixed_ref=0 / me_range=16 / chroma_me=1 / trellis=0 / 8x8dct=0 / cqm=0 / deadzone=21,11 / fast_pskip=1 / chroma_qp_offset=0 / threads=2 / lookahead_threads=1 / sliced_threads=0 / nr=0 / decimate=1 / interlaced=0 / bluray_compat=0 / constrained_intra=0 / bframes=0 / weightp=2 / keyint=250 / keyint_min=25 / scenecut=40 / intra_refresh=0 / rc_lookahead=40 / rc=abr / mbtree=1 / bitrate=4496 / ratetol=1.0 / qcomp=0.60 / qpmin=10 / qpmax=51 / qpstep=4 / ip_ratio=1.41 / aq=1:1.00
Дата кодирования                         : UTC 2016-01-23 09:26:10
Дата пометки                             : UTC 2016-01-23 09:26:10

Аудио
Идентификатор                            : 2
Формат                                   : AAC
Формат/Информация                        : Advanced Audio Codec
Профиль формата                          : LC
Идентификатор кодека                     : 40
Продолжительность                        : 4 м. 13 с.
Duration_FirstFrame                      : 70 мс.
Вид битрейта                             : Переменный
Битрейт                                  : 151 Кбит/сек
Максимальный битрейт                     : 176 Кбит/сек
Каналы                                   : 2 канала
Расположение каналов                     : Front: L R
Частота                                  : 44,1 КГц
Частота кадров                           : 43,066 кадра/сек (1024 spf)
Метод сжатия                             : С потерями
Размер потока                            : 4,55 Мбайт (3%)
Default                                  : Да
Alternate group                          : 1
Дата кодирования                         : UTC 2016-01-23 09:26:10
Дата пометки                             : UTC 2016-01-23 09:26:10
Общее
Полное имя                               : E:\VA - Зимний марафон № 221 (Продвинутые Зимние Хиты)\23. Наталья Ввк - Не поздно (Премьера!).mp4
Формат                                   : MPEG-4
Профиль формата                          : Base Media
Идентификатор кодека                     : isom (isom/iso2/avc1/mp41)
Размер файла                             : 130 Мбайт
Продолжительность                        : 3 м. 53 с.
Режим общего битрейта                    : Переменный
Общий поток                              : 4659 Кбит/сек
Дата кодирования                         : UTC 2016-01-23 06:56:17
Дата пометки                             : UTC 2016-01-23 06:56:17
Программа кодирования                    : Lavf54.63.104

Видео
Идентификатор                            : 1
Формат                                   : AVC
Формат/Информация                        : Advanced Video Codec
Профиль формата                          : Main@L4
Параметр CABAC формата                   : Да
Параметр ReFrames формата                : 1 кадр
Идентификатор кодека                     : avc1
Идентификатор кодека/Информация          : Advanced Video Coding
Продолжительность                        : 3 м. 53 с.
Битрейт                                  : 4496 Кбит/сек
Ширина                                   : 1920 пикселей
Высота                                   : 1080 пикселей
Соотношение сторон                       : 16:9
Режим частоты кадров                     : Постоянный
Частота кадров                           : 25,000 кадров/сек
Цветовое пространство                    : YUV
Субдискретизация насыщенности            : 4:2:0
Битовая глубина                          : 8 бит
Тип развёртки                            : Прогрессивная
Бит/(Пиксели*Кадры)                      : 0.087
Размер потока                            : 125 Мбайт (97%)
Библиотека кодирования                   : x264 core 129
Настройки программы                      : cabac=1 / ref=1 / deblock=1:0:0 / analyse=0x1:0x131 / me=dia / subme=2 / psy=1 / psy_rd=1.00:0.00 / mixed_ref=0 / me_range=16 / chroma_me=1 / trellis=0 / 8x8dct=0 / cqm=0 / deadzone=21,11 / fast_pskip=1 / chroma_qp_offset=0 / threads=2 / lookahead_threads=1 / sliced_threads=0 / nr=0 / decimate=1 / interlaced=0 / bluray_compat=0 / constrained_intra=0 / bframes=0 / weightp=2 / keyint=250 / keyint_min=25 / scenecut=40 / intra_refresh=0 / rc_lookahead=40 / rc=abr / mbtree=1 / bitrate=4496 / ratetol=1.0 / qcomp=0.60 / qpmin=10 / qpmax=51 / qpstep=4 / ip_ratio=1.41 / aq=1:1.00
Дата кодирования                         : UTC 2016-01-23 06:56:17
Дата пометки                             : UTC 2016-01-23 06:56:17

Аудио
Идентификатор                            : 2
Формат                                   : AAC
Формат/Информация                        : Advanced Audio Codec
Профиль формата                          : LC
Идентификатор кодека                     : 40
Продолжительность                        : 3 м. 53 с.
Duration_FirstFrame                      : 70 мс.
Вид битрейта                             : Переменный
Битрейт                                  : 151 Кбит/сек
Максимальный битрейт                     : 176 Кбит/сек
Каналы                                   : 2 канала
Расположение каналов                     : Front: L R
Частота                                  : 44,1 КГц
Частота кадров                           : 43,066 кадра/сек (1024 spf)
Метод сжатия                             : С потерями
Размер потока                            : 4,20 Мбайт (3%)
Default                                  : Да
Alternate group                          : 1
Дата кодирования                         : UTC 2016-01-23 06:56:17
Дата пометки                             : UTC 2016-01-23 06:56:17
Общее
Полное имя                               : E:\VA - Зимний марафон № 221 (Продвинутые Зимние Хиты)\24. Юлия Савичева - Мой Путь (Премьера!).mp4
Формат                                   : MPEG-4
Профиль формата                          : Base Media
Идентификатор кодека                     : isom (isom/iso2/avc1/mp41)
Размер файла                             : 110 Мбайт
Продолжительность                        : 3 м. 19 с.
Режим общего битрейта                    : Переменный
Общий поток                              : 4602 Кбит/сек
Дата кодирования                         : UTC 2016-01-22 12:33:20
Дата пометки                             : UTC 2016-01-22 12:33:20
Программа кодирования                    : Lavf54.63.104

Видео
Идентификатор                            : 1
Формат                                   : AVC
Формат/Информация                        : Advanced Video Codec
Профиль формата                          : Main@L4
Параметр CABAC формата                   : Да
Параметр ReFrames формата                : 1 кадр
Идентификатор кодека                     : avc1
Идентификатор кодека/Информация          : Advanced Video Coding
Продолжительность                        : 3 м. 19 с.
Битрейт                                  : 4496 Кбит/сек
Ширина                                   : 1920 пикселей
Высота                                   : 1080 пикселей
Соотношение сторон                       : 16:9
Режим частоты кадров                     : Постоянный
Частота кадров                           : 25,000 кадров/сек
Цветовое пространство                    : YUV
Субдискретизация насыщенности            : 4:2:0
Битовая глубина                          : 8 бит
Тип развёртки                            : Прогрессивная
Бит/(Пиксели*Кадры)                      : 0.087
Размер потока                            : 106 Мбайт (97%)
Библиотека кодирования                   : x264 core 129
Настройки программы                      : cabac=1 / ref=1 / deblock=1:0:0 / analyse=0x1:0x131 / me=dia / subme=2 / psy=1 / psy_rd=1.00:0.00 / mixed_ref=0 / me_range=16 / chroma_me=1 / trellis=0 / 8x8dct=0 / cqm=0 / deadzone=21,11 / fast_pskip=1 / chroma_qp_offset=0 / threads=2 / lookahead_threads=1 / sliced_threads=0 / nr=0 / decimate=1 / interlaced=0 / bluray_compat=0 / constrained_intra=0 / bframes=0 / weightp=2 / keyint=250 / keyint_min=25 / scenecut=40 / intra_refresh=0 / rc_lookahead=40 / rc=abr / mbtree=1 / bitrate=4496 / ratetol=1.0 / qcomp=0.60 / qpmin=10 / qpmax=51 / qpstep=4 / ip_ratio=1.41 / aq=1:1.00
Дата кодирования                         : UTC 2016-01-22 12:33:20
Дата пометки                             : UTC 2016-01-22 12:33:20

Аудио
Идентификатор                            : 2
Формат                                   : AAC
Формат/Информация                        : Advanced Audio Codec
Профиль формата                          : LC
Идентификатор кодека                     : 40
Продолжительность                        : 3 м. 19 с.
Duration_FirstFrame                      : 70 мс.
Вид битрейта                             : Переменный
Битрейт                                  : 152 Кбит/сек
Максимальный битрейт                     : 176 Кбит/сек
Каналы                                   : 2 канала
Расположение каналов                     : Front: L R
Частота                                  : 44,1 КГц
Частота кадров                           : 43,066 кадра/сек (1024 spf)
Метод сжатия                             : С потерями
Размер потока                            : 3,61 Мбайт (3%)
Default                                  : Да
Alternate group                          : 1
Дата кодирования                         : UTC 2016-01-22 12:33:20
Дата пометки                             : UTC 2016-01-22 12:33:20
Общее
Полное имя                               : E:\VA - Зимний марафон № 221 (Продвинутые Зимние Хиты)\25. Dean Aslett - I Could Almost Cry Now (Official Video).mp4
Формат                                   : MPEG-4
Профиль формата                          : Base Media
Идентификатор кодека                     : isom (isom/iso2/avc1/mp41)
Размер файла                             : 178 Мбайт
Продолжительность                        : 5 м. 15 с.
Режим общего битрейта                    : Переменный
Общий поток                              : 4723 Кбит/сек
Дата кодирования                         : UTC 2016-01-22 23:08:27
Дата пометки                             : UTC 2016-01-22 23:08:27
Программа кодирования                    : Lavf54.63.104

Видео
Идентификатор                            : 1
Формат                                   : AVC
Формат/Информация                        : Advanced Video Codec
Профиль формата                          : Main@L4
Параметр CABAC формата                   : Да
Параметр ReFrames формата                : 1 кадр
Идентификатор кодека                     : avc1
Идентификатор кодека/Информация          : Advanced Video Coding
Продолжительность                        : 5 м. 15 с.
Битрейт                                  : 4496 Кбит/сек
Ширина                                   : 1920 пикселей
Высота                                   : 1080 пикселей
Соотношение сторон                       : 16:9
Режим частоты кадров                     : Постоянный
Частота кадров                           : 25,000 кадров/сек
Цветовое пространство                    : YUV
Субдискретизация насыщенности            : 4:2:0
Битовая глубина                          : 8 бит
Тип развёртки                            : Прогрессивная
Бит/(Пиксели*Кадры)                      : 0.087
Размер потока                            : 172 Мбайт (97%)
Библиотека кодирования                   : x264 core 129
Настройки программы                      : cabac=1 / ref=1 / deblock=1:0:0 / analyse=0x1:0x131 / me=dia / subme=2 / psy=1 / psy_rd=1.00:0.00 / mixed_ref=0 / me_range=16 / chroma_me=1 / trellis=0 / 8x8dct=0 / cqm=0 / deadzone=21,11 / fast_pskip=1 / chroma_qp_offset=0 / threads=2 / lookahead_threads=1 / sliced_threads=0 / nr=0 / decimate=1 / interlaced=0 / bluray_compat=0 / constrained_intra=0 / bframes=0 / weightp=2 / keyint=250 / keyint_min=25 / scenecut=40 / intra_refresh=0 / rc_lookahead=40 / rc=abr / mbtree=1 / bitrate=4496 / ratetol=1.0 / qcomp=0.60 / qpmin=10 / qpmax=51 / qpstep=4 / ip_ratio=1.41 / aq=1:1.00
Дата кодирования                         : UTC 2016-01-22 23:08:27
Дата пометки                             : UTC 2016-01-22 23:08:27

Аудио
Идентификатор                            : 2
Формат                                   : AAC
Формат/Информация                        : Advanced Audio Codec
Профиль формата                          : LC
Идентификатор кодека                     : 40
Продолжительность                        : 5 м. 15 с.
Duration_FirstFrame                      : 70 мс.
Вид битрейта                             : Переменный
Битрейт                                  : 150 Кбит/сек
Максимальный битрейт                     : 176 Кбит/сек
Каналы                                   : 2 канала
Расположение каналов                     : Front: L R
Частота                                  : 44,1 КГц
Частота кадров                           : 43,066 кадра/сек (1024 spf)
Метод сжатия                             : С потерями
Размер потока                            : 5,67 Мбайт (3%)
Default                                  : Да
Alternate group                          : 1
Дата кодирования                         : UTC 2016-01-22 23:08:27
Дата пометки                             : UTC 2016-01-22 23:08:27

Скриншоты:


Хорошего настроения и


Время раздачи: 24/7 - до 5 скачавших, далее по возможности.
 
Не забывайте говорить Спасибо. Не уходите с раздачи!   
Торрент: Зарегистрирован [25 янв 2016, 17:31] Скачать торрент
Скачать торрент
[ Размер 18.63 КБ / Просмотров 26 ]
Статус:
Проверен
 
.torrent скачан: 1 раз
Хэш: d0c061f440eb926b5f4d704230f34451cdda0a18
Размер: 3.09 ГБ (3 316 244 805 байт)
Стать Автором раздачи
 
Аватара пользователя
Главный редактор
Главный редактор
 
Раздал: 15.43 ТБ
Скачал: 13.78 ТБ
Ратио: 1.120
Сообщения: 65451
Зарегистрирован: 01 мар 2011, 23:07


  • Похожие торренты
    Ответы
    Просмотры
    Последнее сообщение

Вернуться в Музыкальные клипы (транзит)

Ресурс не предоставляет электронные версии произведений, а занимается лишь коллекционированием и каталогизацией ссылок, присылаемых и публикуемых на форуме нашими читателями. Если вы являетесь правообладателем какого-либо представленного материала и не желаете чтобы ссылка на него находилась в нашем каталоге, свяжитесь с нами и мы незамедлительно удалим её. Файлы для обмена на трекере предоставлены пользователями сайта, и администрация не несёт ответственности за их содержание. Просьба не заливать файлы, защищенные авторскими правами, а также файлы нелегального содержания!
cron