Раздвигая льды (2014) SATRip [H.264] [MP4|1280x720]

 
 Статистика раздачи 
Размер: 358.86 МБ   |  Зарегистрирован: 24 янв 2016, 12:35   |   .torrent скачан: 0 раз
Сидеров: 1  [ 0 байт/сек ]     Личеров: 0  [ 0 байт/сек ]  
  

Раздвигая льды (2014) SATRip [H.264] [MP4|1280x720]

Сообщение i926 » 24 янв 2016, 12:35

Раздвигая льды (2014) SATRip [H.264] [MP4 | 1280x720]

Производство: Россия, "RT" АНО "ТВ-Новости"
Жанр: Документальный

Режиссер: Наталья Кадырова
Актеры: Сергей Луценко

Описание:
Россия имеет самый мощный ледокольный флот в мире. Необходимость его создания была продиктована тем, что все северные границы государства – морские, и проходят по водам Северного Ледовитого океана. Грузовые и пассажирские перевозки в этих морях осуществляются по Северному морскому пути, который начинается у Карских Ворот и заканчивается в Беринговом проливе. Авторы фильма на борту ледокола прошли весь этот маршрут и увидели, что значит «вывести кого-то на чистую воду».

Продолжительность: 00:26:13
Качество видео: SATRip

Видео: AVC/H.264, 1280x720, ~1800 Кбит/сек
Аудио: AAC, 2 ch, 99,4 Кбит/сек, VBR
Код:
Код: Выделить всё
Общее
Полное имя                               : E:\Раздвигая льды (2014) SATRip.mp4
Формат                                   : MPEG-4
Профиль формата                          : Base Media
Идентификатор кодека                     : isom (isom/iso2/avc1/mp41)
Размер файла                             : 359 Мбайт
Продолжительность                        : 26 м.
Режим общего битрейта                    : Переменный
Общий поток                              : 1913 Кбит/сек
Программа кодирования                    : Lavf54.59.106

Видео
Идентификатор                            : 1
Формат                                   : AVC
Формат/Информация                        : Advanced Video Codec
Профиль формата                          :
Параметр CABAC формата                   : Да
Параметр ReFrames формата                : 4 кадра
Идентификатор кодека                     : avc1
Идентификатор кодека/Информация          : Advanced Video Coding
Продолжительность                        : 26 м.
Битрейт                                  : 1800 Кбит/сек
Ширина                                   : 1280 пикселей
Высота                                   : 720 пикселей
Соотношение сторон                       : 16:9
Режим частоты кадров                     : Постоянный
Частота кадров                           : 25,000 кадров/сек
Цветовое пространство                    : YUV
Субдискретизация насыщенности            : 4:2:0
Битовая глубина                          : 8 бит
Тип развёртки                            : Прогрессивная
Бит/(Пиксели*Кадры)                      : 0.078
Размер потока                            : 338 Мбайт (94%)
Библиотека кодирования                   : x264 core 129
Настройки программы                      : cabac=1 / ref=3 / deblock=1:0:0 / analyse=0x3:0x113 / me=hex / subme=7 / psy=1 / psy_rd=1.00:0.00 / mixed_ref=1 / me_range=16 / chroma_me=1 / trellis=1 / 8x8dct=1 / cqm=0 / deadzone=21,11 / fast_pskip=1 / chroma_qp_offset=-2 / threads=24 / lookahead_threads=4 / sliced_threads=0 / nr=0 / decimate=1 / interlaced=0 / bluray_compat=0 / constrained_intra=0 / bframes=3 / b_pyramid=2 / b_adapt=1 / b_bias=0 / direct=1 / weightb=1 / open_gop=0 / weightp=2 / keyint=250 / keyint_min=25 / scenecut=40 / intra_refresh=0 / rc_lookahead=40 / rc=abr / mbtree=1 / bitrate=1800 / ratetol=1.0 / qcomp=0.60 / qpmin=0 / qpmax=69 / qpstep=4 / ip_ratio=1.40 / aq=1:1.00
Язык                                     : English

Аудио
Идентификатор                            : 2
Формат                                   : AAC
Формат/Информация                        : Advanced Audio Codec
Профиль формата                          : LC
Идентификатор кодека                     : 40
Продолжительность                        : 26 м.
Вид битрейта                             : Переменный
Битрейт                                  : 99,4 Кбит/сек
Максимальный битрейт                     : 128 Кбит/сек
Каналы                                   : 2 канала
Расположение каналов                     : Front: L R
Частота                                  : 44,1 КГц
Частота кадров                           : 43,066 кадра/сек (1024 spf)
Метод сжатия                             : С потерями
Размер потока                            : 18,7 Мбайт (5%)
Язык                                     : English
Default                                  : Да
Alternate group                          : 1

Скриншоты:


Время раздачи: С 18:00 до 23:00
 
Не забывайте говорить Спасибо. Не уходите с раздачи!   
Торрент: Зарегистрирован [24 янв 2016, 12:35] Для скачивания .torrent
необходима регистрация
Или скачать с помощью
MediaGet
Статус:
Проверен
 
.torrent скачан: 0 раз
Хэш: 76669e2329f88e845d5ff95f068670cc6cae0b8b
Размер: 358.86 МБ (376 291 110 байт)
Стать Автором раздачи
 
Аватара пользователя
Главный редактор
Главный редактор
 
Раздал: 15.43 ТБ
Скачал: 13.78 ТБ
Ратио: 1.120
Сообщения: 65088
Зарегистрирован: 01 мар 2011, 23:07


  • Похожие торренты
    Ответы
    Просмотры
    Последнее сообщение

Вернуться в Видео для мобильных устройств

Ресурс не предоставляет электронные версии произведений, а занимается лишь коллекционированием и каталогизацией ссылок, присылаемых и публикуемых на форуме нашими читателями. Если вы являетесь правообладателем какого-либо представленного материала и не желаете чтобы ссылка на него находилась в нашем каталоге, свяжитесь с нами и мы незамедлительно удалим её. Файлы для обмена на трекере предоставлены пользователями сайта, и администрация не несёт ответственности за их содержание. Просьба не заливать файлы, защищенные авторскими правами, а также файлы нелегального содержания!
cron