VA - Ministry Of Sound: The Annual 2008 (2007) 3CD [FLAC|Lossless|tracks + .cue] <House, Electro>

 
 Статистика раздачи 
Размер: 1.53 ГБ   |  Зарегистрирован: 21 янв 2016, 15:18   |   .torrent скачан: 0 раз
Сидеров: 1  [ 0 байт/сек ]     Личеров: 0  [ 0 байт/сек ]  
  

VA - Ministry Of Sound: The Annual 2008 (2007) 3CD [FLAC|Lossless|tracks + .cue] <House, Electro>

Сообщение Seepas » 21 янв 2016, 15:18

VA - Ministry Of Sound: The Annual 2008 (2007) 3CD

Год: 2007
Жанр: House, Electro
Издание: Ministry Of Sound – ANCD2K7
Продолжительность: 03:52:55

Источник (релизер): blandrew®

Кодек: FLAC
Битрейт: Lossless
Тип рипа: tracks + .cue
Продолжительность: 01:16:32

Треклист:
01. Samim - Heater (5:00)
02. Ida Corr vs. Fedde Le Grand - Let Me Think About It (4:15)
03. Hi Tack - Let's Dance (3:59)
04. Booty Luv - Some Kinda Rush (dub mix) (3:46)
05. Freemasons feat. Bailey Tzuke - Uninvited (4:09)
06. Dave Armstrong & Redroche feat. H-Boogie - Love Has Gone (4:47)
07. Hard‐Fi - Suburban Knights (Steve Angello & Seb Ingrosso mix) (3:46)
08. Peter Gelderblom - Waiting 4 (Hi Tack UK club mix) (3:09)
09. Axwell & Sebastian Ingrosso vs. Salem Al Fakir - It's True (4:00)
10. Mark Ronson - Stop Me (Kissy Sell Out remix) (4:19)
11. Groove Armada feat. Stush & Red Rat - Get Down (Calvin Harris remix) (3:00)
12. Freaks - The Creeps (Get on the Dancefloor) (Vandalism vocal mix) (4:38)
13. Dirty South & M.Y.N.C. Project - Everybody's Freakin' (4:00)
14. Arno Cost & Arias - Magenta (3:30)
15. Luke Dzierzek - Echo (2:30)
16. Federico Franchi - Cream (Robbie Rivera's Juicy Ibiza mix) (3:39)
17. Hardrox - Feel the Hard Rock (Up to No Good) (Heiko & Maiko extended vocal mix) (3:11)
18. Spektrum - Kinda New (We All Live & Die) (Dirty South '07 remix) (4:20)
19. DJ Disciple feat. Dawn Tallman - Work It Out (Ruff n Tort remix) (3:00)
20. Claude VonStroke - The Whistler (3:23)
Код:
Код: Выделить всё
Exact Audio Copy V1.1 from 23. June 2015

EAC extraction logfile from 20. January 2016, 8:44

Various Artists / Ministry of Sound: The Annual 2008

Used drive  : ASUS    BW-12D1S-U   Adapter: 1  ID: 1

Read mode               : Secure
Utilize accurate stream : Yes
Defeat audio cache      : Yes
Make use of C2 pointers : No

Read offset correction                      : 667
Overread into Lead-In and Lead-Out          : No
Fill up missing offset samples with silence : Yes
Delete leading and trailing silent blocks   : No
Null samples used in CRC calculations       : Yes
Used interface                              : Native Win32 interface for Win NT & 2000
Gap handling                                : Appended to previous track

Used output format              : User Defined Encoder
Selected bitrate                : 768 kBit/s
Quality                         : High
Add ID3 tag                     : No
Command line compressor         : D:\Program Files (x86)\Exact Audio Copy\Flac\flac.exe
Additional command line options : -8 -V -T "TITLE=%title%" -T "ARTIST=%artist%" -T "ALBUMARTIST=%albumartist%" -T "ALBUM=%albumtitle%" -T "DATE=%year%" -T "TRACKNUMBER=%tracknr%" -T "TRACKTOTAL=%numtracks%" -T "GENRE=%genre%" -T "COMMENT=%comment%" -T "PERFORMER=%albuminterpret%" -T "COMPOSER=%composer%" %source% -o %dest%

TOC of the extracted CD

     Track |   Start  |  Length  | Start sector | End sector
    ---------------------------------------------------------
        1  |  0:00.00 |  5:00.24 |         0    |    22523
        2  |  5:00.24 |  4:15.03 |     22524    |    41651
        3  |  9:15.27 |  3:59.63 |     41652    |    59639
        4  | 13:15.15 |  3:46.57 |     59640    |    76646
        5  | 17:01.72 |  4:09.33 |     76647    |    95354
        6  | 21:11.30 |  4:47.17 |     95355    |   116896
        7  | 25:58.47 |  3:46.61 |    116897    |   133907
        8  | 29:45.33 |  3:09.43 |    133908    |   148125
        9  | 32:55.01 |  4:00.70 |    148126    |   166195
       10  | 36:55.71 |  4:19.68 |    166196    |   185688
       11  | 41:15.64 |  3:00.56 |    185689    |   199244
       12  | 44:16.45 |  4:38.48 |    199245    |   220142
       13  | 48:55.18 |  4:00.74 |    220143    |   238216
       14  | 52:56.17 |  3:30.65 |    238217    |   254031
       15  | 56:27.07 |  2:30.54 |    254032    |   265335
       16  | 58:57.61 |  3:39.28 |    265336    |   281788
       17  | 62:37.14 |  3:11.19 |    281789    |   296132
       18  | 65:48.33 |  4:20.46 |    296133    |   315678
       19  | 70:09.04 |  3:00.04 |    315679    |   329182
       20  | 73:09.08 |  3:23.39 |    329183    |   344446

Track  1

     Filename D:\Video&Music&Books\2007 - Ministry of Sound The Annual 2008\CD1\01.Samim-Heater.wav

     Pre-gap length  0:00:02.00

     Peak level 98.8 %
     Extraction speed 4.8 X
     Track quality 100.0 %
     Test CRC E4C289C1
     Copy CRC E4C289C1
     Accurately ripped (confidence 25)  [A85F6FD3]  (AR v2)
     Copy OK

Track  2

     Filename D:\Video&Music&Books\2007 - Ministry of Sound The Annual 2008\CD1\02.Ida Corr vs. Fedde Le Grand-Let Me Think About It.wav

     Peak level 98.8 %
     Extraction speed 5.2 X
     Track quality 100.0 %
     Test CRC 3EF36424
     Copy CRC 3EF36424
     Accurately ripped (confidence 25)  [4474B302]  (AR v2)
     Copy OK

Track  3

     Filename D:\Video&Music&Books\2007 - Ministry of Sound The Annual 2008\CD1\03.Hi_Tack-Let's Dance.wav

     Peak level 98.8 %
     Extraction speed 5.5 X
     Track quality 100.0 %
     Test CRC 69CB4769
     Copy CRC 69CB4769
     Accurately ripped (confidence 26)  [C1B3DDD7]  (AR v2)
     Copy OK

Track  4

     Filename D:\Video&Music&Books\2007 - Ministry of Sound The Annual 2008\CD1\04.Booty Luv-Some Kinda Rush (dub mix).wav

     Peak level 98.8 %
     Extraction speed 5.1 X
     Track quality 99.9 %
     Test CRC EE594A4E
     Copy CRC EE594A4E
     Accurately ripped (confidence 25)  [D662867F]  (AR v2)
     Copy OK

Track  5

     Filename D:\Video&Music&Books\2007 - Ministry of Sound The Annual 2008\CD1\05.Freemasons feat. Bailey Tzuke-Uninvited.wav

     Peak level 98.8 %
     Extraction speed 6.1 X
     Track quality 100.0 %
     Test CRC 55AC5D88
     Copy CRC 55AC5D88
     Accurately ripped (confidence 25)  [412F1ED0]  (AR v2)
     Copy OK

Track  6

     Filename D:\Video&Music&Books\2007 - Ministry of Sound The Annual 2008\CD1\06.Dave Armstrong & Redroche feat. H-Boogie-Love Has Gone.wav

     Peak level 98.8 %
     Extraction speed 6.5 X
     Track quality 100.0 %
     Test CRC ECD5A6C3
     Copy CRC ECD5A6C3
     Accurately ripped (confidence 25)  [2F6F0D59]  (AR v2)
     Copy OK

Track  7

     Filename D:\Video&Music&Books\2007 - Ministry of Sound The Annual 2008\CD1\07.Hard‐Fi-Suburban Knights (Steve Angello & Seb Ingrosso mix).wav

     Peak level 98.8 %
     Extraction speed 6.6 X
     Track quality 100.0 %
     Test CRC 6DEC32C4
     Copy CRC 6DEC32C4
     Accurately ripped (confidence 25)  [30C2405E]  (AR v2)
     Copy OK

Track  8

     Filename D:\Video&Music&Books\2007 - Ministry of Sound The Annual 2008\CD1\08.Peter Gelderblom-Waiting 4 (Hi_Tack UK club mix).wav

     Peak level 98.8 %
     Extraction speed 5.6 X
     Track quality 99.9 %
     Test CRC C8F670CD
     Copy CRC C8F670CD
     Accurately ripped (confidence 25)  [C2AB95EA]  (AR v2)
     Copy OK

Track  9

     Filename D:\Video&Music&Books\2007 - Ministry of Sound The Annual 2008\CD1\09.Axwell & Sebastian Ingrosso vs. Salem Al Fakir-It's True.wav

     Peak level 98.8 %
     Extraction speed 7.0 X
     Track quality 100.0 %
     Test CRC 63C2C06E
     Copy CRC 63C2C06E
     Accurately ripped (confidence 25)  [BAB72BEA]  (AR v2)
     Copy OK

Track 10

     Filename D:\Video&Music&Books\2007 - Ministry of Sound The Annual 2008\CD1\10.Mark Ronson-Stop Me (Kissy Sell Out remix).wav

     Peak level 98.8 %
     Extraction speed 6.4 X
     Track quality 99.9 %
     Test CRC 227C89CA
     Copy CRC 227C89CA
     Accurately ripped (confidence 25)  [749ADD9C]  (AR v2)
     Copy OK

Track 11

     Filename D:\Video&Music&Books\2007 - Ministry of Sound The Annual 2008\CD1\11.Groove Armada feat. Stush & Red Rat-Get Down (Calvin Harris remix).wav

     Peak level 98.8 %
     Extraction speed 6.9 X
     Track quality 100.0 %
     Test CRC 5FC1CAB0
     Copy CRC 5FC1CAB0
     Accurately ripped (confidence 24)  [147311A1]  (AR v2)
     Copy OK

Track 12

     Filename D:\Video&Music&Books\2007 - Ministry of Sound The Annual 2008\CD1\12.Freaks-The Creeps (Get on the Dancefloor) (Vandalism vocal mix).wav

     Peak level 98.8 %
     Extraction speed 7.7 X
     Track quality 100.0 %
     Test CRC 7332C6B6
     Copy CRC 7332C6B6
     Accurately ripped (confidence 24)  [C8B64994]  (AR v2)
     Copy OK

Track 13

     Filename D:\Video&Music&Books\2007 - Ministry of Sound The Annual 2008\CD1\13.Dirty South & M.Y.N.C. Project-Everybody's Freakin'.wav

     Peak level 98.8 %
     Extraction speed 6.8 X
     Track quality 99.9 %
     Test CRC 206F67CF
     Copy CRC 206F67CF
     Accurately ripped (confidence 23)  [D84E6C35]  (AR v2)
     Copy OK

Track 14

     Filename D:\Video&Music&Books\2007 - Ministry of Sound The Annual 2008\CD1\14.Arno Cost & Arias-Magenta.wav

     Peak level 98.8 %
     Extraction speed 7.6 X
     Track quality 100.0 %
     Test CRC D6A520DC
     Copy CRC D6A520DC
     Accurately ripped (confidence 25)  [7CAA24E9]  (AR v2)
     Copy OK

Track 15

     Filename D:\Video&Music&Books\2007 - Ministry of Sound The Annual 2008\CD1\15.Luke Dzierzek-Echo.wav

     Peak level 98.8 %
     Extraction speed 6.1 X
     Track quality 99.9 %
     Test CRC 0FB2CABC
     Copy CRC 0FB2CABC
     Accurately ripped (confidence 24)  [ED1ED03E]  (AR v2)
     Copy OK

Track 16

     Filename D:\Video&Music&Books\2007 - Ministry of Sound The Annual 2008\CD1\16.Federico Franchi-Cream (Robbie Rivera's Juicy Ibiza mix).wav

     Peak level 98.8 %
     Extraction speed 8.1 X
     Track quality 100.0 %
     Test CRC 714E699F
     Copy CRC 714E699F
     Accurately ripped (confidence 24)  [4D8FEBCF]  (AR v2)
     Copy OK

Track 17

     Filename D:\Video&Music&Books\2007 - Ministry of Sound The Annual 2008\CD1\17.Hardrox-Feel the Hard Rock (Up to No Good) (Heiko & Maiko extended vocal mix).wav

     Peak level 98.8 %
     Extraction speed 6.9 X
     Track quality 99.9 %
     Test CRC BA87ABCC
     Copy CRC BA87ABCC
     Accurately ripped (confidence 25)  [2D63499B]  (AR v2)
     Copy OK

Track 18

     Filename D:\Video&Music&Books\2007 - Ministry of Sound The Annual 2008\CD1\18.Spektrum-Kinda New (We All Live & Die) (Dirty South '07 remix).wav

     Peak level 98.8 %
     Extraction speed 7.5 X
     Track quality 99.9 %
     Test CRC 96E2704D
     Copy CRC 96E2704D
     Accurately ripped (confidence 24)  [A9345AE9]  (AR v2)
     Copy OK

Track 19

     Filename D:\Video&Music&Books\2007 - Ministry of Sound The Annual 2008\CD1\19.DJ Disciple feat. Dawn Tallman-Work It Out (Ruff n Tort remix).wav

     Peak level 98.8 %
     Extraction speed 8.1 X
     Track quality 100.0 %
     Test CRC 56567FAB
     Copy CRC 56567FAB
     Accurately ripped (confidence 25)  [6824AE3C]  (AR v2)
     Copy OK

Track 20

     Filename D:\Video&Music&Books\2007 - Ministry of Sound The Annual 2008\CD1\20.Claude VonStroke-The Whistler.wav

     Peak level 98.8 %
     Extraction speed 7.3 X
     Track quality 99.9 %
     Test CRC A803270C
     Copy CRC A803270C
     Accurately ripped (confidence 25)  [86252E42]  (AR v2)
     Copy OK

All tracks accurately ripped

No errors occurred

End of status report

---- CUETools DB Plugin V2.1.6

[CTDB TOCID: y2FTzSaqFVXPlURjknEcORpBV9I-] found
Submit result: y2FTzSaqFVXPlURjknEcORpBV9I- has been confirmed
Track | CTDB Status
  1   | (23/23) Accurately ripped
  2   | (23/23) Accurately ripped
  3   | (23/23) Accurately ripped
  4   | (23/23) Accurately ripped
  5   | (23/23) Accurately ripped
  6   | (23/23) Accurately ripped
  7   | (23/23) Accurately ripped
  8   | (23/23) Accurately ripped
  9   | (23/23) Accurately ripped
 10   | (23/23) Accurately ripped
 11   | (23/23) Accurately ripped
 12   | (23/23) Accurately ripped
 13   | (23/23) Accurately ripped
 14   | (23/23) Accurately ripped
 15   | (23/23) Accurately ripped
 16   | (23/23) Accurately ripped
 17   | (23/23) Accurately ripped
 18   | (22/23) Accurately ripped
 19   | (22/23) Accurately ripped
 20   | (22/23) Accurately ripped

==== Log checksum F5A68550C8C021A19A476CA30BD7677A8C7B139CB9090A10E069395A6C439C13 ====
Код:
Код: Выделить всё
-----------------------

DON'T MODIFY THIS FILE

-----------------------

PERFORMER: auCDtect Task Manager, ver. 1.6.0 RC1 build 1.6.0.1
Copyright (c) 2008-2010 y-soft. All rights reserved
http:/y-soft.org

ANALYZER: auCDtect: CD records authenticity detector, version 0.8.2
Copyright (c) 2004 Oleg Berngardt. All rights reserved.
Copyright (c) 2004 Alexander Djourik. All rights reserved.

FILE: 20.Claude VonStroke-The Whistler.flac
  Size: 18166926 Hash: 6647F1BB21C84CE11E82715961B9977E Accuracy: -m0
  Conclusion: CDDA 100%
  Signature: 2CF18D3944B593E589A8C075865B93C1843A9017
FILE: 19.DJ Disciple feat. Dawn Tallman-Work It Out (Ruff n Tort remix).flac
  Size: 21112703 Hash: 97DE27BF38AE7F338A32CC5DDCC40E5D Accuracy: -m0
  Conclusion: CDDA 99%
  Signature: 46CCADF17AC213C00C5E79BC7AEBCE632D2D9B5D
FILE: 18.Spektrum-Kinda New (We All Live & Die) (Dirty South '07 remix).flac
  Size: 31302245 Hash: DE6CC5713AEF757576494E31999ABCF8 Accuracy: -m0
  Conclusion: CDDA 100%
  Signature: C53E9F1E09E24FDC7DD6CC2BDFE47D15253DD35B
FILE: 17.Hardrox-Feel the Hard Rock (Up to No Good) (Heiko & Maiko extended vocal mix).flac
  Size: 22575373 Hash: 2B167075F9BAF0F81A72084FA9C404CC Accuracy: -m0
  Conclusion: CDDA 100%
  Signature: 65A38C546A54BC93CE6AAE3811CE4651BCEDD8BE
FILE: 16.Federico Franchi-Cream (Robbie Rivera's Juicy Ibiza mix).flac
  Size: 25353447 Hash: A77E6C3436F77BD2D308D01B2B4DFFB9 Accuracy: -m0
  Conclusion: CDDA 100%
  Signature: 30EDC937EA5A3BC914FC5D3A4EA88E9319BABC1F
FILE: 15.Luke Dzierzek-Echo.flac
  Size: 18663148 Hash: CB4FD3C2BD1BBC3B91EA8DC7E843E586 Accuracy: -m0
  Conclusion: CDDA 100%
  Signature: 04FE04481D974BECE3B8BC78F87968FCC47F09D5
FILE: 14.Arno Cost & Arias-Magenta.flac
  Size: 24342366 Hash: 2A1C393ACA73A0949DF15D04B2576939 Accuracy: -m0
  Conclusion: CDDA 100%
  Signature: 0DF5B69D2FD37136EA8002A847B1DCD3C114928D
FILE: 13.Dirty South & M.Y.N.C. Project-Everybody's Freakin'.flac
  Size: 28123182 Hash: 5A46BA3A1D4C6375EE304528DD428331 Accuracy: -m0
  Conclusion: CDDA 100%
  Signature: AC2C7285AB819A462C40D80BE8278D738055BA2D
FILE: 12.Freaks-The Creeps (Get on the Dancefloor) (Vandalism vocal mix).flac
  Size: 32004038 Hash: D84E5DD156C35F1D4A6B11DCEDBDC466 Accuracy: -m0
  Conclusion: CDDA 100%
  Signature: 5D2F90AA70B115FB950F29E2D4968D974F96C596
FILE: 11.Groove Armada feat. Stush & Red Rat-Get Down (Calvin Harris remix).flac
  Size: 21757079 Hash: 568CBD513AC4DA5D3BBA1C76FAB454ED Accuracy: -m0
  Conclusion: CDDA 85%
  Signature: 9DF5A99D9D37047BB16FF45F3B4A47D8CCB51378
FILE: 10.Mark Ronson-Stop Me (Kissy Sell Out remix).flac
  Size: 29838186 Hash: 4AD5EBA47B5D83E7BCD424B293A4A110 Accuracy: -m0
  Conclusion: CDDA 99%
  Signature: 509DF4FE3B4787C2F76A45B8954EC5AC26ED319C
FILE: 09.Axwell & Sebastian Ingrosso vs. Salem Al Fakir-It's True.flac
  Size: 27456656 Hash: 7FE6C4B3AD843ADDB60D83CD46A4A876 Accuracy: -m0
  Conclusion: CDDA 43%
  Signature: 8F145A186521D5BE650216B643D0BE4AE1B58A1C
FILE: 08.Peter Gelderblom-Waiting 4 (Hi_Tack UK club mix).flac
  Size: 22216960 Hash: 609F8AAAC3964D10B3C3F3B3FA75BD4C Accuracy: -m0
  Conclusion: CDDA 100%
  Signature: 94AE85AE69060ECB6803C0C3694AF4DE698B4926
FILE: 07.Hard‐Fi-Suburban Knights (Steve Angello & Seb Ingrosso mix).flac
  Size: 26907068 Hash: D1CDBFF429E7C8B52F4115D2D65A91CA Accuracy: -m0
  Conclusion: CDDA 100%
  Signature: C61E74E5693A2920420EB7F36E1DC47614CE4D3E
FILE: 06.Dave Armstrong & Redroche feat. H-Boogie-Love Has Gone.flac
  Size: 33651330 Hash: FB90D910990C20D17C32DCD27968D37B Accuracy: -m0
  Conclusion: CDDA 100%
  Signature: CBE7C83C8A31EEFD96E6F1632471BD035783A3B6
FILE: 05.Freemasons feat. Bailey Tzuke-Uninvited.flac
  Size: 30279057 Hash: 1FC9CD33386412D47FB91A390454932A Accuracy: -m0
  Conclusion: CDDA 100%
  Signature: F4AE883605066A7AE2386E40949675F0CE777376
FILE: 04.Booty Luv-Some Kinda Rush (dub mix).flac
  Size: 27661024 Hash: 0E3F9D3E480A727E6059D3619CF60BD9 Accuracy: -m0
  Conclusion: CDDA 100%
  Signature: B0088D25C848436F724398223426C433C68228E2
FILE: 03.Hi_Tack-Let's Dance.flac
  Size: 28993540 Hash: 81B6ADC0034BE7542A27C5BEA8FDEF6B Accuracy: -m0
  Conclusion: CDDA 99%
  Signature: 583DCD4B837BB16402BFD6DDBF523E32F9ADB55A
FILE: 02.Ida Corr vs. Fedde Le Grand-Let Me Think About It.flac
  Size: 28164059 Hash: DCF50EFCF061837C8F5833D3233BA1ED Accuracy: -m0
  Conclusion: CDDA 100%
  Signature: E30118962F39F3D31D3D388490C02CA2004A6DF7
FILE: 01.Samim-Heater.flac
  Size: 30684055 Hash: 87C01E5A7304BE92B052FEF32F275A7A Accuracy: -m0
  Conclusion: CDDA 100%
  Signature: 7657C4969DE000F3617F3FE04D28ABED06A70E57
Продолжительность: 01:17:47

Треклист:
01. Robyn with Kleerup - With Every Heartbeat (Tong & Spoon Wonderland remix) (4:49)
02. Booty Luv - Don't Mess With My Man (4:15)
03. Armand van Helden - I Want Your Soul (3:45)
04. Carl Kennedy feat. Roachford - Ride the Storm (original club mix) (4:36)
05. Peter Bjorn and John feat. Victoria Bergsman - Young Folks (Punks Jump Up Special disco mix) (4:26)
06. Todd Terry All Stars feat. Kenny Dope, DJ Sneak, Terry Hunter & Tara McDonald - Get Down (Kenny Dope original) (4:02)
07. Bob Sinclar - Everybody's Movin' (Eddie Thoneick & Maverick remix) (4:29)
08. Yves Larock - Rise Up (Harry 'Choo Choo' Romero remix) (5:00)
09. Dada feat. Sandy Rivera & Trix - Lollipop (The Drill remix) (4:00)
10. Uniting Nations - Do It Yourself (Ryan Murgatroyd mix) (3:22)
11. The Migrants - I Thought That (Boris Dlugosch remix) (4:03)
12. Jack Rokka vs. Betty Boo - Take Off (3:41)
13. Mauro Picotto - Evribadi (Fonzerelli remix) (3:45)
14. De Souza feat. Shèna - Guilty (Eddie Thoneick remix) (3:15)
15. Fonzerelli - Spirit (Wanna Stay Here Forever) (3:07)
16. Doc Da Funk - Real Love (2:52)
17. Alex Gaudino feat. Crystal Waters - Destination Calabria (Paul Emanuel remix) (3:48)
18. Turbofunk - Gotta Move (Fonzerelli remix) (3:00)
19. Liquid - Sweet Harmony (Spoon & Talk mix) (3:39)
20. DJ Jeroenski - Back Once Again (Vandalism remix) (3:48)
Код:
Код: Выделить всё
Exact Audio Copy V1.1 from 23. June 2015

EAC extraction logfile from 20. January 2016, 9:13

Various Artists / Ministry of Sound: The Annual 2008

Used drive  : ASUS    BW-12D1S-U   Adapter: 1  ID: 1

Read mode               : Secure
Utilize accurate stream : Yes
Defeat audio cache      : Yes
Make use of C2 pointers : No

Read offset correction                      : 667
Overread into Lead-In and Lead-Out          : No
Fill up missing offset samples with silence : Yes
Delete leading and trailing silent blocks   : No
Null samples used in CRC calculations       : Yes
Used interface                              : Native Win32 interface for Win NT & 2000
Gap handling                                : Appended to previous track

Used output format              : User Defined Encoder
Selected bitrate                : 768 kBit/s
Quality                         : High
Add ID3 tag                     : No
Command line compressor         : D:\Program Files (x86)\Exact Audio Copy\Flac\flac.exe
Additional command line options : -8 -V -T "TITLE=%title%" -T "ARTIST=%artist%" -T "ALBUMARTIST=%albumartist%" -T "ALBUM=%albumtitle%" -T "DATE=%year%" -T "TRACKNUMBER=%tracknr%" -T "TRACKTOTAL=%numtracks%" -T "GENRE=%genre%" -T "COMMENT=%comment%" -T "PERFORMER=%albuminterpret%" -T "COMPOSER=%composer%" %source% -o %dest%

TOC of the extracted CD

     Track |   Start  |  Length  | Start sector | End sector
    ---------------------------------------------------------
        1  |  0:00.00 |  4:49.16 |         0    |    21690
        2  |  4:49.16 |  4:15.06 |     21691    |    40821
        3  |  9:04.22 |  3:45.10 |     40822    |    57706
        4  | 12:49.32 |  4:36.52 |     57707    |    78458
        5  | 17:26.09 |  4:26.05 |     78459    |    98413
        6  | 21:52.14 |  4:02.39 |     98414    |   116602
        7  | 25:54.53 |  4:29.45 |    116603    |   136822
        8  | 30:24.23 |  5:00.00 |    136823    |   159322
        9  | 35:24.23 |  4:00.00 |    159323    |   177322
       10  | 39:24.23 |  3:22.38 |    177323    |   192510
       11  | 42:46.61 |  4:03.55 |    192511    |   210790
       12  | 46:50.41 |  3:41.18 |    210791    |   227383
       13  | 50:31.59 |  3:45.00 |    227384    |   244258
       14  | 54:16.59 |  3:15.00 |    244259    |   258883
       15  | 57:31.59 |  3:07.38 |    258884    |   272946
       16  | 60:39.22 |  2:52.37 |    272947    |   285883
       17  | 63:31.59 |  3:48.57 |    285884    |   303040
       18  | 67:20.41 |  3:00.00 |    303041    |   316540
       19  | 70:20.41 |  3:39.28 |    316541    |   332993
       20  | 73:59.69 |  3:48.53 |    332994    |   350146

Track  1

     Filename D:\Video&Music&Books\2007 - Ministry of Sound The Annual 2008\CD2\01.Robyn with Kleerup-With Every Heartbeat (Tong & Spoon Wonderland remix).wav

     Pre-gap length  0:00:02.00

     Peak level 98.8 %
     Extraction speed 4.9 X
     Track quality 100.0 %
     Test CRC 07EFA0D4
     Copy CRC 07EFA0D4
     Accurately ripped (confidence 22)  [065DC72D]  (AR v2)
     Copy OK

Track  2

     Filename D:\Video&Music&Books\2007 - Ministry of Sound The Annual 2008\CD2\02.Booty Luv-Don't Mess With My Man.wav

     Peak level 98.8 %
     Extraction speed 5.2 X
     Track quality 100.0 %
     Test CRC 14767750
     Copy CRC 14767750
     Accurately ripped (confidence 24)  [E489A291]  (AR v2)
     Copy OK

Track  3

     Filename D:\Video&Music&Books\2007 - Ministry of Sound The Annual 2008\CD2\03.Armand van Helden-I Want Your Soul.wav

     Peak level 98.8 %
     Extraction speed 5.4 X
     Track quality 100.0 %
     Test CRC 4665D24A
     Copy CRC 4665D24A
     Accurately ripped (confidence 24)  [58681B85]  (AR v2)
     Copy OK

Track  4

     Filename D:\Video&Music&Books\2007 - Ministry of Sound The Annual 2008\CD2\04.Carl Kennedy feat. Roachford-Ride the Storm (original club mix).wav

     Peak level 98.8 %
     Extraction speed 5.9 X
     Track quality 100.0 %
     Test CRC 843691E6
     Copy CRC 843691E6
     Accurately ripped (confidence 23)  [A0DF13E7]  (AR v2)
     Copy OK

Track  5

     Filename D:\Video&Music&Books\2007 - Ministry of Sound The Annual 2008\CD2\05.Peter Bjorn and John feat. Victoria Bergsman-Young Folks (Punks Jump Up Special disco mix).wav

     Peak level 98.8 %
     Extraction speed 6.2 X
     Track quality 100.0 %
     Test CRC B9B4E942
     Copy CRC B9B4E942
     Accurately ripped (confidence 23)  [C5D30EB0]  (AR v2)
     Copy OK

Track  6

     Filename D:\Video&Music&Books\2007 - Ministry of Sound The Annual 2008\CD2\06.Todd Terry All Stars feat. Kenny Dope, DJ Sneak, Terry Hunter & Tara McDonald-Get Down (Kenny Dope original).wav

     Peak level 98.8 %
     Extraction speed 6.5 X
     Track quality 100.0 %
     Test CRC 36A0E9D3
     Copy CRC 36A0E9D3
     Accurately ripped (confidence 24)  [9D1E120D]  (AR v2)
     Copy OK

Track  7

     Filename D:\Video&Music&Books\2007 - Ministry of Sound The Annual 2008\CD2\07.Bob Sinclar-Everybody's Movin' (Eddie Thoneick & Maverick remix).wav

     Peak level 98.8 %
     Extraction speed 6.0 X
     Track quality 99.9 %
     Test CRC 636858D9
     Copy CRC 636858D9
     Accurately ripped (confidence 23)  [FE196B44]  (AR v2)
     Copy OK

Track  8

     Filename D:\Video&Music&Books\2007 - Ministry of Sound The Annual 2008\CD2\08.Yves Larock-Rise Up (Harry 'Choo Choo' Romero remix).wav

     Peak level 98.8 %
     Extraction speed 7.0 X
     Track quality 100.0 %
     Test CRC C5F3CEFD
     Copy CRC C5F3CEFD
     Accurately ripped (confidence 23)  [76698318]  (AR v2)
     Copy OK

Track  9

     Filename D:\Video&Music&Books\2007 - Ministry of Sound The Annual 2008\CD2\09.Dada feat. Sandy Rivera & Trix-Lollipop (The Drill remix).wav

     Peak level 98.8 %
     Extraction speed 6.3 X
     Track quality 99.9 %
     Test CRC E234F450
     Copy CRC E234F450
     Accurately ripped (confidence 24)  [6812B20D]  (AR v2)
     Copy OK

Track 10

     Filename D:\Video&Music&Books\2007 - Ministry of Sound The Annual 2008\CD2\10.Uniting Nations-Do It Yourself (Ryan Murgatroyd mix).wav

     Peak level 98.8 %
     Extraction speed 6.1 X
     Track quality 99.9 %
     Test CRC 2A137C89
     Copy CRC 2A137C89
     Accurately ripped (confidence 23)  [D2F0C38D]  (AR v2)
     Copy OK

Track 11

     Filename D:\Video&Music&Books\2007 - Ministry of Sound The Annual 2008\CD2\11.The Migrants-I Thought That (Boris Dlugosch remix).wav

     Peak level 98.8 %
     Extraction speed 7.4 X
     Track quality 100.0 %
     Test CRC 33BA5563
     Copy CRC 33BA5563
     Accurately ripped (confidence 24)  [57644B41]  (AR v2)
     Copy OK

Track 12

     Filename D:\Video&Music&Books\2007 - Ministry of Sound The Annual 2008\CD2\12.Jack Rokka vs. Betty Boo-Take Off.wav

     Peak level 98.8 %
     Extraction speed 7.5 X
     Track quality 100.0 %
     Test CRC 8CF2028C
     Copy CRC 8CF2028C
     Accurately ripped (confidence 22)  [72614933]  (AR v2)
     Copy OK

Track 13

     Filename D:\Video&Music&Books\2007 - Ministry of Sound The Annual 2008\CD2\13.Mauro Picotto-Evribadi (Fonzerelli remix).wav

     Peak level 98.8 %
     Extraction speed 7.6 X
     Track quality 100.0 %
     Test CRC 2C897B34
     Copy CRC 2C897B34
     Accurately ripped (confidence 23)  [E6F282AA]  (AR v2)
     Copy OK

Track 14

     Filename D:\Video&Music&Books\2007 - Ministry of Sound The Annual 2008\CD2\14.De Souza feat. Shèna-Guilty (Eddie Thoneick remix).wav

     Peak level 98.8 %
     Extraction speed 7.6 X
     Track quality 100.0 %
     Test CRC 928D831A
     Copy CRC 928D831A
     Accurately ripped (confidence 24)  [DA03CE84]  (AR v2)
     Copy OK

Track 15

     Filename D:\Video&Music&Books\2007 - Ministry of Sound The Annual 2008\CD2\15.Fonzerelli-Spirit (Wanna Stay Here Forever).wav

     Peak level 98.8 %
     Extraction speed 7.8 X
     Track quality 100.0 %
     Test CRC ADD6B338
     Copy CRC ADD6B338
     Accurately ripped (confidence 23)  [DFAD4BE3]  (AR v2)
     Copy OK

Track 16

     Filename D:\Video&Music&Books\2007 - Ministry of Sound The Annual 2008\CD2\16.Doc Da Funk-Real Love.wav

     Peak level 98.8 %
     Extraction speed 7.7 X
     Track quality 100.0 %
     Test CRC 2465EBFF
     Copy CRC 2465EBFF
     Accurately ripped (confidence 23)  [9BEED331]  (AR v2)
     Copy OK

Track 17

     Filename D:\Video&Music&Books\2007 - Ministry of Sound The Annual 2008\CD2\17.Alex Gaudino feat. Crystal Waters-Destination Calabria (Paul Emanuel remix).wav

     Peak level 98.8 %
     Extraction speed 7.2 X
     Track quality 99.9 %
     Test CRC E86100F3
     Copy CRC E86100F3
     Accurately ripped (confidence 23)  [3D77F2CF]  (AR v2)
     Copy OK

Track 18

     Filename D:\Video&Music&Books\2007 - Ministry of Sound The Annual 2008\CD2\18.Turbofunk-Gotta Move (Fonzerelli remix).wav

     Peak level 98.8 %
     Extraction speed 8.0 X
     Track quality 100.0 %
     Test CRC 51024CD0
     Copy CRC 51024CD0
     Accurately ripped (confidence 24)  [8A886EAB]  (AR v2)
     Copy OK

Track 19

     Filename D:\Video&Music&Books\2007 - Ministry of Sound The Annual 2008\CD2\19.Liquid-Sweet Harmony (Spoon & Talk mix).wav

     Peak level 98.8 %
     Extraction speed 8.6 X
     Track quality 100.0 %
     Test CRC 0966A2C0
     Copy CRC 0966A2C0
     Accurately ripped (confidence 23)  [64A80040]  (AR v2)
     Copy OK

Track 20

     Filename D:\Video&Music&Books\2007 - Ministry of Sound The Annual 2008\CD2\20.DJ Jeroenski-Back Once Again (Vandalism remix).wav

     Peak level 98.8 %
     Extraction speed 8.6 X
     Track quality 100.0 %
     Test CRC 4E06A648
     Copy CRC 4E06A648
     Accurately ripped (confidence 22)  [DED90B27]  (AR v2)
     Copy OK

All tracks accurately ripped

No errors occurred

End of status report

---- CUETools DB Plugin V2.1.6

[CTDB TOCID: 681VmsuqL_cCgwjklPVUhekHnF4-] found
Submit result: 681VmsuqL_cCgwjklPVUhekHnF4- has been confirmed
Track | CTDB Status
  1   | (23/23) Accurately ripped
  2   | (23/23) Accurately ripped
  3   | (23/23) Accurately ripped
  4   | (23/23) Accurately ripped
  5   | (23/23) Accurately ripped
  6   | (23/23) Accurately ripped
  7   | (23/23) Accurately ripped
  8   | (23/23) Accurately ripped
  9   | (23/23) Accurately ripped
 10   | (23/23) Accurately ripped
 11   | (23/23) Accurately ripped
 12   | (23/23) Accurately ripped
 13   | (23/23) Accurately ripped
 14   | (23/23) Accurately ripped
 15   | (23/23) Accurately ripped
 16   | (23/23) Accurately ripped
 17   | (23/23) Accurately ripped
 18   | (23/23) Accurately ripped
 19   | (23/23) Accurately ripped
 20   | (23/23) Accurately ripped

==== Log checksum 3C93FF9FAD323E8DD0CE41E470D83A8AB8DF708F7E80DD007148AC688BE0A15C ====

Код:
Код: Выделить всё
-----------------------

DON'T MODIFY THIS FILE

-----------------------

PERFORMER: auCDtect Task Manager, ver. 1.6.0 RC1 build 1.6.0.1
Copyright (c) 2008-2010 y-soft. All rights reserved
http:/y-soft.org

ANALYZER: auCDtect: CD records authenticity detector, version 0.8.2
Copyright (c) 2004 Oleg Berngardt. All rights reserved.
Copyright (c) 2004 Alexander Djourik. All rights reserved.

FILE: 20.DJ Jeroenski-Back Once Again (Vandalism remix).flac
  Size: 27954590 Hash: AF0D7D08C3A9247D759DAC13305AA520 Accuracy: -m0
  Conclusion: CDDA 100%
  Signature: AB8F8D8D8FA4940EAE1C1D5A14ECD26F629AFD97
FILE: 19.Liquid-Sweet Harmony (Spoon & Talk mix).flac
  Size: 24819355 Hash: C8442C22159434D426A27AB17312ED38 Accuracy: -m0
  Conclusion: CDDA 100%
  Signature: 81D1EBD8746A125EB9309DAB955EBFE3351AFAEA
FILE: 18.Turbofunk-Gotta Move (Fonzerelli remix).flac
  Size: 22673949 Hash: 815C7A4266E19E93AAAA2F656C757A5E Accuracy: -m0
  Conclusion: CDDA 99%
  Signature: D79ED5B9DF0B88958CD64EEA5212F0B0D220F367
FILE: 17.Alex Gaudino feat. Crystal Waters-Destination Calabria (Paul Emanuel remix).flac
  Size: 27962607 Hash: AAAC9E459999781BEE9B6E5CC9B05E76 Accuracy: -m0
  Conclusion: CDDA 100%
  Signature: 5FD8DF3472CD70CC3F8C83AF217C7DF29B96D6C2
FILE: 16.Doc Da Funk-Real Love.flac
  Size: 20703923 Hash: A6C7E0E3507E97CEF23FF497F916B0F1 Accuracy: -m0
  Conclusion: CDDA 100%
  Signature: 7F6419008860F3D54977FFD3D153A96AA2A4CE20
FILE: 15.Fonzerelli-Spirit (Wanna Stay Here Forever).flac
  Size: 22282820 Hash: 3A7E189F013B019C19A383AE5EC0D400 Accuracy: -m0
  Conclusion: CDDA 62%
  Signature: 2747811382F4EAB4AA753AE8C195A1780F09ED8F
FILE: 14.De Souza feat. Shèna-Guilty (Eddie Thoneick remix).flac
  Size: 23469860 Hash: A15EF816A486A43B935FB7AC4BB28F3C Accuracy: -m0
  Conclusion: CDDA 100%
  Signature: DB7CE28E84EE4078D20C61E1A5265B8D97693F68
FILE: 13.Mauro Picotto-Evribadi (Fonzerelli remix).flac
  Size: 27905897 Hash: A68723A15C2A59934DD96219B79AB3BB Accuracy: -m0
  Conclusion: CDDA 100%
  Signature: 44C120A1647161278C929594198A8FE0D63E13C5
FILE: 12.Jack Rokka vs. Betty Boo-Take Off.flac
  Size: 27287773 Hash: 88469BBDBC18CB771FF5DAD26D6C614A Accuracy: -m0
  Conclusion: CDDA 100%
  Signature: F3D1F38740103C54833F1A8BC3F13F698A680683
FILE: 11.The Migrants-I Thought That (Boris Dlugosch remix).flac
  Size: 27500979 Hash: 5D27B83250B08087EC5E97689B2B15D8 Accuracy: -m0
  Conclusion: CDDA 100%
  Signature: 1F74FBE5374A0BE58FA95672CCF3544AAE369EFE
FILE: 10.Uniting Nations-Do It Yourself (Ryan Murgatroyd mix).flac
  Size: 24745830 Hash: ACEBA7C5279072C1F268AA1C69106871 Accuracy: -m0
  Conclusion: CDDA 100%
  Signature: 92C7D62E3FC7352101AEEED0C59FDA3481E8A15C
FILE: 09.Dada feat. Sandy Rivera & Trix-Lollipop (The Drill remix).flac
  Size: 26937088 Hash: 40D60C791D64F1C74D199DEE10A5BDFC Accuracy: -m0
  Conclusion: CDDA 99%
  Signature: 91082B347B9CFCACC6BC1AA02774BAFD120FD342
FILE: 08.Yves Larock-Rise Up (Harry 'Choo Choo' Romero remix).flac
  Size: 34156293 Hash: 1FF0CD97240142CF5BB09EC622CCF2DE Accuracy: -m0
  Conclusion: CDDA 100%
  Signature: CCD3F6040E9BAB68F51382D44772E3C22900F4B0
FILE: 07.Bob Sinclar-Everybody's Movin' (Eddie Thoneick & Maverick remix).flac
  Size: 32515221 Hash: 36C3EEF8F57A8BE129D32CE37DBA00EA Accuracy: -m0
  Conclusion: CDDA 100%
  Signature: BEAA7AA237D00618E5E8184586A12BBDD454195C
FILE: 06.Todd Terry All Stars feat. Kenny Dope, DJ Sneak, Terry Hunter & Tara McDonald-Get Down (Kenny Dope original).flac
  Size: 28552427 Hash: C816E43CCF40425789C8E698D481A83F Accuracy: -m0
  Conclusion: CDDA 100%
  Signature: C097EE4C31C5F507BAD11DFA64410E8B5B2D4D37
FILE: 05.Peter Bjorn and John feat. Victoria Bergsman-Young Folks (Punks Jump Up Special disco mix).flac
  Size: 29756072 Hash: 18FC160849F154645E57C216C19C8E76 Accuracy: -m0
  Conclusion: CDDA 85%
  Signature: 4AF0A525FFBCCAADF2EB42AFA927D19B38153E5A
FILE: 04.Carl Kennedy feat. Roachford-Ride the Storm (original club mix).flac
  Size: 32624417 Hash: 31CFC7EF1C29F3BBE756E34FAD1FD501 Accuracy: -m0
  Conclusion: CDDA 100%
  Signature: 7D2B75BE50F238DCB0AF088A43288B37C9BD8BB1
FILE: 03.Armand van Helden-I Want Your Soul.flac
  Size: 28881116 Hash: F0D6888ECD279DBEC2FB2ADC082655CD Accuracy: -m0
  Conclusion: CDDA 92%
  Signature: D3F9C3AFD783342E0E437CF14ACBEB300C01BA8E
FILE: 02.Booty Luv-Don't Mess With My Man.flac
  Size: 30011152 Hash: D43959B33944E1F21B5F1D234197673A Accuracy: -m0
  Conclusion: CDDA 100%
  Signature: 46F8DC79A2A44D8DD1CE4BBB37A328B78F994AE5
FILE: 01.Robyn with Kleerup-With Every Heartbeat (Tong & Spoon Wonderland remix).flac
  Size: 31942759 Hash: 73ED0163E99EAECF425497F9CE1D9FE7 Accuracy: -m0
  Conclusion: CDDA 100%
  Signature: 1D9C2D05CEC410D39FDAE463E1C7178F3B2707B9

Продолжительность: 01:18:36

Треклист:
01. The Cut Up Boys - Shine (a cappella) vs. The Creeps (Get on the Dancefloor) (Vandalism remix) (Booty Luv vs. Freaks) (6:14)
02. The Cut Up Boys - Let Me Think About It (a cappella) vs. The Creeps (Ida Corr vs. Fedde Le Grand vs. Camille Jones vs. Fedde Le Grand) (5:16)
03. The Cut Up Boys - Rapture (a cappella) vs. Love on My Mind (feat. Amanda Wilson) (iiO vs. Freemasons) (5:25)
04. The Cut Up Boys - I Want Your Soul vs. Lollipop (a cappella) (feat. Sandy Rivera & Trix) (Armand van Helden vs. Dada) (5:27)
05. The Cut Up Boys - Heaven (a cappella) (feat. Do) vs. Loneliness (DJ Sammy & Yanou vs. Tomcraft) (5:56)
06. The Cut Up Boys - The Whistler vs. Destination Calabria (feat. Crystal Waters) (a cappella) (Claude VonStroke vs. Alex Gaudino) (5:42)
07. The Cut Up Boys - Put Your Hands Up for Detroit vs. Pump Up the Volume (USA 12″ mix) (Fedde Le Grand vs. M/A/R/R/S) (5:18)
08. The Cut Up Boys - Make a Move on Me (a cappella) vs. Electric Shock 2005 (Joey Negro vs. Soul Seekerz) (6:02)
09. The Cut Up Boys - Geht’s noch? vs. Walking on the Moon (a cappella) (Roman Flügel vs. Delano & Crockett) (4:21)
10. The Cut Up Boys - Sex n’ Money (feat. Pharrell Williams) (Benny Benassi mix) vs. Take It (Closing Time) (a capella) (Oakenfold vs. Tomy Novy & Lima) (6:11)
11. The Cut Up Boys - NYC Beat vs. Feel the Hard Rock (Up to No Good) (Armand van Helden vs. Hardrox) (5:57)
12. The Cut Up Boys - My Life (a capella) vs. Sex Shooter (Chanel vs. Firefox) (4:50)
13. The Cut Up Boys - Don’t Mess With My Man (a cappella) vs. Billie Jean (Booty Luv vs. The Sound Bluntz) (5:27)
14. The Cut Up Boys - Time to Turn Around vs. (I Wanna Give You) Devotion (a cappella) (Francesco Diaz presents Denis the Menace & Jerry Ropero vs. Nomad) (6:24)
Код:
Код: Выделить всё
Exact Audio Copy V1.1 from 23. June 2015

EAC extraction logfile from 20. January 2016, 10:41

Various Artists / Ministry of Sound: The Annual 2008

Used drive  : ASUS    BW-12D1S-U   Adapter: 1  ID: 1

Read mode               : Secure
Utilize accurate stream : Yes
Defeat audio cache      : Yes
Make use of C2 pointers : No

Read offset correction                      : 667
Overread into Lead-In and Lead-Out          : No
Fill up missing offset samples with silence : Yes
Delete leading and trailing silent blocks   : No
Null samples used in CRC calculations       : Yes
Used interface                              : Native Win32 interface for Win NT & 2000
Gap handling                                : Appended to previous track

Used output format              : User Defined Encoder
Selected bitrate                : 768 kBit/s
Quality                         : High
Add ID3 tag                     : No
Command line compressor         : D:\Program Files (x86)\Exact Audio Copy\Flac\flac.exe
Additional command line options : -8 -V -T "TITLE=%title%" -T "ARTIST=%artist%" -T "ALBUMARTIST=%albumartist%" -T "ALBUM=%albumtitle%" -T "DATE=%year%" -T "TRACKNUMBER=%tracknr%" -T "TRACKTOTAL=%numtracks%" -T "GENRE=%genre%" -T "COMMENT=%comment%" -T "PERFORMER=%albuminterpret%" -T "COMPOSER=%composer%" %source% -o %dest%

TOC of the extracted CD

     Track |   Start  |  Length  | Start sector | End sector
    ---------------------------------------------------------
        1  |  0:00.00 |  6:14.34 |         0    |    28083
        2  |  6:14.34 |  5:16.21 |     28084    |    51804
        3  | 11:30.55 |  5:25.57 |     51805    |    76236
        4  | 16:56.37 |  5:27.35 |     76237    |   100796
        5  | 22:23.72 |  5:56.03 |    100797    |   127499
        6  | 28:20.00 |  5:42.64 |    127500    |   153213
        7  | 34:02.64 |  5:18.15 |    153214    |   177078
        8  | 39:21.04 |  6:02.58 |    177079    |   204286
        9  | 45:23.62 |  4:21.48 |    204287    |   223909
       10  | 49:45.35 |  6:11.51 |    223910    |   251785
       11  | 55:57.11 |  5:57.10 |    251786    |   278570
       12  | 61:54.21 |  4:50.47 |    278571    |   300367
       13  | 66:44.68 |  5:27.44 |    300368    |   324936
       14  | 72:12.37 |  6:24.50 |    324937    |   353786

Track  1

     Filename D:\Video&Music&Books\2007 - Ministry of Sound The Annual 2008\CD3\01.The Cut Up Boys-Shine (a cappella) vs. The Creeps (Get on the Dancefloor) (Vandalism remix) (Booty Luv vs. Freaks).wav

     Pre-gap length  0:00:02.00

     Peak level 98.8 %
     Extraction speed 1.1 X
     Track quality 99.9 %
     Test CRC DF905DA6
     Copy CRC DF905DA6
     Accurately ripped (confidence 26)  [AB313226]  (AR v2)
     Copy OK

Track  2

     Filename D:\Video&Music&Books\2007 - Ministry of Sound The Annual 2008\CD3\02.The Cut Up Boys-Let Me Think About It (a cappella) vs. The Creeps (Ida Corr vs. Fedde Le Grand vs. Camille Jones vs. Fedde Le Grand).wav

     Pre-gap length  0:00:01.31

     Peak level 98.8 %
     Extraction speed 1.4 X
     Track quality 100.0 %
     Test CRC ABB85530
     Copy CRC ABB85530
     Accurately ripped (confidence 26)  [D1A56E57]  (AR v2)
     Copy OK

Track  3

     Filename D:\Video&Music&Books\2007 - Ministry of Sound The Annual 2008\CD3\03.The Cut Up Boys-Rapture (a cappella) vs. Love on My Mind (feat. Amanda Wilson) (iiO vs. Freemasons).wav

     Pre-gap length  0:00:01.58

     Peak level 98.8 %
     Extraction speed 1.5 X
     Track quality 100.0 %
     Test CRC DE1A1CD0
     Copy CRC DE1A1CD0
     Accurately ripped (confidence 26)  [F666D502]  (AR v2)
     Copy OK

Track  4

     Filename D:\Video&Music&Books\2007 - Ministry of Sound The Annual 2008\CD3\04.The Cut Up Boys-I Want Your Soul vs. Lollipop (a cappella) (feat. Sandy Rivera & Trix) (Armand van Helden vs. Dada).wav

     Pre-gap length  0:00:01.71

     Peak level 98.8 %
     Extraction speed 1.6 X
     Track quality 100.0 %
     Test CRC 3BA339E1
     Copy CRC 3BA339E1
     Accurately ripped (confidence 26)  [6F5500C9]  (AR v2)
     Copy OK

Track  5

     Filename D:\Video&Music&Books\2007 - Ministry of Sound The Annual 2008\CD3\05.The Cut Up Boys-Heaven (a cappella) (feat. Do) vs. Loneliness (DJ Sammy & Yanou vs. Tomcraft).wav

     Pre-gap length  0:00:01.19

     Peak level 98.8 %
     Extraction speed 1.7 X
     Track quality 100.0 %
     Test CRC B376260E
     Copy CRC B376260E
     Accurately ripped (confidence 26)  [6395395A]  (AR v2)
     Copy OK

Track  6

     Filename D:\Video&Music&Books\2007 - Ministry of Sound The Annual 2008\CD3\06.The Cut Up Boys-The Whistler vs. Destination Calabria (feat. Crystal Waters) (a cappella) (Claude VonStroke vs. Alex Gaudino).wav

     Pre-gap length  0:00:01.59

     Peak level 98.8 %
     Extraction speed 1.8 X
     Track quality 100.0 %
     Test CRC 9C7772C7
     Copy CRC 9C7772C7
     Accurately ripped (confidence 26)  [8FB05DB2]  (AR v2)
     Copy OK

Track  7

     Filename D:\Video&Music&Books\2007 - Ministry of Sound The Annual 2008\CD3\07.The Cut Up Boys-Put Your Hands Up for Detroit vs. Pump Up the Volume (USA 12″ mix) (Fedde Le Grand vs. M,A,R,R,S).wav

     Pre-gap length  0:00:01.54

     Peak level 98.8 %
     Extraction speed 1.9 X
     Track quality 100.0 %
     Test CRC 3B845D3A
     Copy CRC 3B845D3A
     Accurately ripped (confidence 26)  [6415CB38]  (AR v2)
     Copy OK

Track  8

     Filename D:\Video&Music&Books\2007 - Ministry of Sound The Annual 2008\CD3\08.The Cut Up Boys-Make a Move on Me (a cappella) vs. Electric Shock 2005 (Joey Negro vs. Soul Seekerz).wav

     Pre-gap length  0:00:02.05

     Peak level 98.8 %
     Extraction speed 2.0 X
     Track quality 100.0 %
     Test CRC 0C08D082
     Copy CRC 0C08D082
     Accurately ripped (confidence 26)  [90F1B7A3]  (AR v2)
     Copy OK

Track  9

     Filename D:\Video&Music&Books\2007 - Ministry of Sound The Annual 2008\CD3\09.The Cut Up Boys-Geht’s noch vs. Walking on the Moon (a cappella) (Roman Flügel vs. Delano & Crockett).wav

     Pre-gap length  0:00:01.16

     Peak level 98.8 %
     Extraction speed 2.0 X
     Track quality 100.0 %
     Test CRC 725DC8AA
     Copy CRC 725DC8AA
     Accurately ripped (confidence 26)  [C3D7F93B]  (AR v2)
     Copy OK

Track 10

     Filename D:\Video&Music&Books\2007 - Ministry of Sound The Annual 2008\CD3\10.The Cut Up Boys-Sex n’ Money (feat. Pharrell Williams) (Benny Benassi mix) vs. Take It (Closing Time) (a capella) (Oakenfold vs. Tomy Novy & Lima).wav

     Pre-gap length  0:00:01.30

     Peak level 98.8 %
     Extraction speed 2.2 X
     Track quality 100.0 %
     Test CRC DA398EDF
     Copy CRC DA398EDF
     Accurately ripped (confidence 26)  [EB537927]  (AR v2)
     Copy OK

Track 11

     Filename D:\Video&Music&Books\2007 - Ministry of Sound The Annual 2008\CD3\11.The Cut Up Boys-NYC Beat vs. Feel the Hard Rock (Up to No Good) (Armand van Helden vs. Hardrox).wav

     Pre-gap length  0:00:01.47

     Peak level 98.8 %
     Extraction speed 2.3 X
     Track quality 100.0 %
     Test CRC 17DB2D64
     Copy CRC 17DB2D64
     Accurately ripped (confidence 26)  [7B057C51]  (AR v2)
     Copy OK

Track 12

     Filename D:\Video&Music&Books\2007 - Ministry of Sound The Annual 2008\CD3\12.The Cut Up Boys-My Life (a capella) vs. Sex Shooter (Chanel vs. Firefox).wav

     Pre-gap length  0:00:01.26

     Peak level 98.8 %
     Extraction speed 2.3 X
     Track quality 100.0 %
     Test CRC 124EE9E0
     Copy CRC 124EE9E0
     Accurately ripped (confidence 26)  [87896453]  (AR v2)
     Copy OK

Track 13

     Filename D:\Video&Music&Books\2007 - Ministry of Sound The Annual 2008\CD3\13.The Cut Up Boys-Don’t Mess With My Man (a cappella) vs. Billie Jean (Booty Luv vs. The Sound Bluntz).wav

     Pre-gap length  0:00:01.04

     Peak level 98.8 %
     Extraction speed 2.4 X
     Track quality 100.0 %
     Test CRC F32E9519
     Copy CRC F32E9519
     Accurately ripped (confidence 26)  [7AEEFE80]  (AR v2)
     Copy OK

Track 14

     Filename D:\Video&Music&Books\2007 - Ministry of Sound The Annual 2008\CD3\14.The Cut Up Boys-Time to Turn Around vs. (I Wanna Give You) Devotion (a cappella) (Francesco Diaz presents Denis the Menace & Jerry Ropero vs. Nomad).wav

     Pre-gap length  0:00:01.39

     Peak level 98.8 %
     Extraction speed 2.5 X
     Track quality 100.0 %
     Test CRC 4BC56F05
     Copy CRC 4BC56F05
     Accurately ripped (confidence 25)  [75474A2D]  (AR v2)
     Copy OK

All tracks accurately ripped

No errors occurred

End of status report

---- CUETools DB Plugin V2.1.6

[CTDB TOCID: l5MzGRa3ybA9iqK8LqAOzgYy6pw-] found
Submit result: l5MzGRa3ybA9iqK8LqAOzgYy6pw- has been confirmed
Track | CTDB Status
  1   | (22/22) Accurately ripped
  2   | (22/22) Accurately ripped
  3   | (22/22) Accurately ripped
  4   | (22/22) Accurately ripped
  5   | (22/22) Accurately ripped
  6   | (22/22) Accurately ripped
  7   | (22/22) Accurately ripped
  8   | (22/22) Accurately ripped
  9   | (22/22) Accurately ripped
 10   | (22/22) Accurately ripped
 11   | (22/22) Accurately ripped
 12   | (22/22) Accurately ripped
 13   | (22/22) Accurately ripped
 14   | (22/22) Accurately ripped

==== Log checksum 82B4871A9D7696F0F28B344C7F88603096298553D4D9B453C8E591196AB01F53 ====

Код:
Код: Выделить всё
-----------------------

DON'T MODIFY THIS FILE

-----------------------

PERFORMER: auCDtect Task Manager, ver. 1.6.0 RC1 build 1.6.0.1
Copyright (c) 2008-2010 y-soft. All rights reserved
http:/y-soft.org

ANALYZER: auCDtect: CD records authenticity detector, version 0.8.2
Copyright (c) 2004 Oleg Berngardt. All rights reserved.
Copyright (c) 2004 Alexander Djourik. All rights reserved.

FILE: 14.The Cut Up Boys-Time to Turn Around vs. (I Wanna Give You) Devotion (a cappella) (Francesco Diaz presents Denis the Menace & Jerry Ropero vs. Nomad).flac
  Size: 45237933 Hash: C093B7A4FE2F830EC6E05E2BEF756FD1 Accuracy: -m0
  Conclusion: CDDA 100%
  Signature: 5681390D25B6948C98B6B8A3B62B675BFD652891
FILE: 13.The Cut Up Boys-Don’t Mess With My Man (a cappella) vs. Billie Jean (Booty Luv vs. The Sound Bluntz).flac
  Size: 39684884 Hash: 1A2E2E0F6AF4058570B8C851209E5AEC Accuracy: -m0
  Conclusion: CDDA 100%
  Signature: BC5D635F080DDAA201A326C3D6247CDDC7C4E258
FILE: 12.The Cut Up Boys-My Life (a capella) vs. Sex Shooter (Chanel vs. Firefox).flac
  Size: 34994151 Hash: FCDDAA6F285AEE119D04C301C3A6931F Accuracy: -m0
  Conclusion: CDDA 100%
  Signature: 33F76974CA8E960DA5F2801448CAEEF39AB3B812
FILE: 11.The Cut Up Boys-NYC Beat vs. Feel the Hard Rock (Up to No Good) (Armand van Helden vs. Hardrox).flac
  Size: 45315308 Hash: FAF0C200AAA2BF04D8AC51745E0C4A29 Accuracy: -m0
  Conclusion: CDDA 100%
  Signature: 7DD08C7C8C3BE37F21FD94DD5CCAFBC24184C032
FILE: 10.The Cut Up Boys-Sex n’ Money (feat. Pharrell Williams) (Benny Benassi mix) vs. Take It (Closing Time) (a capella) (Oakenfold vs. Tomy Novy & Lima).flac
  Size: 42393465 Hash: 12B0E1A4CA5C0F8843DAEE2923883219 Accuracy: -m0
  Conclusion: CDDA 100%
  Signature: 232DD21C96BDCF21A671260A6E6AC7192C0FAACA
FILE: 09.The Cut Up Boys-Geht’s noch vs. Walking on the Moon (a cappella) (Roman Flügel vs. Delano & Crockett).flac
  Size: 30157503 Hash: E8DB99AF6697283D0EBF079E881CC119 Accuracy: -m0
  Conclusion: CDDA 100%
  Signature: 11B3DA99918E262B357E98AFF4FD9ED24361E4F7
FILE: 08.The Cut Up Boys-Make a Move on Me (a cappella) vs. Electric Shock 2005 (Joey Negro vs. Soul Seekerz).flac
  Size: 44359142 Hash: 5EF871CE7CAD1CE5E6EF63425465F54F Accuracy: -m0
  Conclusion: CDDA 100%
  Signature: 27625C30F4CB83258457CE8658677D9DE4EAA0A6
FILE: 07.The Cut Up Boys-Put Your Hands Up for Detroit vs. Pump Up the Volume (USA 12″ mix) (Fedde Le Grand vs. M,A,R,R,S).flac
  Size: 38810609 Hash: 0EBECC66A17726ECA0C069D6A1A3C5F9 Accuracy: -m0
  Conclusion: CDDA 100%
  Signature: CC949FE0E3774178A3CDCE72EA6F298B57951421
FILE: 06.The Cut Up Boys-The Whistler vs. Destination Calabria (feat. Crystal Waters) (a cappella) (Claude VonStroke vs. Alex Gaudino).flac
  Size: 30159325 Hash: 0591A26EB59B65875634125AAB71D2D7 Accuracy: -m0
  Conclusion: CDDA 100%
  Signature: 9D9B44872D7B78F6AEB1DD285601993A5EF7DE70
FILE: 05.The Cut Up Boys-Heaven (a cappella) (feat. Do) vs. Loneliness (DJ Sammy & Yanou vs. Tomcraft).flac
  Size: 43340966 Hash: 6D82E15227AD445875E9E99BE89EE4BD Accuracy: -m0
  Conclusion: CDDA 100%
  Signature: E665DFEB5102EE721BF0EB7178991F37D58AA61C
FILE: 04.The Cut Up Boys-I Want Your Soul vs. Lollipop (a cappella) (feat. Sandy Rivera & Trix) (Armand van Helden vs. Dada).flac
  Size: 39684615 Hash: FED841AA94C7BEE0F7AA83C163EBE82B Accuracy: -m0
  Conclusion: CDDA 100%
  Signature: 6B1E86C71D54571ADDBBF65F0EBFE1CCBA3E3BEB
FILE: 03.The Cut Up Boys-Rapture (a cappella) vs. Love on My Mind (feat. Amanda Wilson) (iiO vs. Freemasons).flac
  Size: 38360323 Hash: B28F14910E11250F118BAB7398C982E6 Accuracy: -m0
  Conclusion: CDDA 100%
  Signature: BA6CA262FC5B41B484D04F9E8214D093E56C3A7A
FILE: 02.The Cut Up Boys-Let Me Think About It (a cappella) vs. The Creeps (Ida Corr vs. Fedde Le Grand vs. Camille Jones vs. Fedde Le Grand).flac
  Size: 36985055 Hash: 4FF0D220C7474EFA972DD308F372D7B5 Accuracy: -m0
  Conclusion: CDDA 99%
  Signature: 0DFEAC592A9CD83E57F566A3068017CAD5783356
FILE: 01.The Cut Up Boys-Shine (a cappella) vs. The Creeps (Get on the Dancefloor) (Vandalism remix) (Booty Luv vs. Freaks).flac
  Size: 43863194 Hash: 02643F42D96AF6B2D226CDD36E239F34 Accuracy: -m0
  Conclusion: CDDA 100%
  Signature: 033BABC5877856708DE0B9A54A8B1DC5424A2888

Время раздачи: 24/7 (круглосуточно) - до появления первых 3-5 скачавших
 
Не забывайте говорить Спасибо. Не уходите с раздачи!   
Торрент: Зарегистрирован [21 янв 2016, 15:18] Скачать торрент
Скачать торрент
[ Размер 78.26 КБ / Просмотров 20 ]
Статус:
Проверен
 
.torrent скачан: 0 раз
Хэш: 64a26bd8878d73eeec4455610404697a8fec3545
Размер: 1.53 ГБ (1 638 907 118 байт)
Стать Автором раздачи
 
 
Раздал: 0 байт
Скачал: 0 байт
Ратио: Inf.
Сообщения: 188877
Зарегистрирован: 14 июн 2014, 20:46


  • Похожие торренты
    Ответы
    Просмотры
    Последнее сообщение

Вернуться в House, Techno, Electro, Minimal (транзит Lossless)

Ресурс не предоставляет электронные версии произведений, а занимается лишь коллекционированием и каталогизацией ссылок, присылаемых и публикуемых на форуме нашими читателями. Если вы являетесь правообладателем какого-либо представленного материала и не желаете чтобы ссылка на него находилась в нашем каталоге, свяжитесь с нами и мы незамедлительно удалим её. Файлы для обмена на трекере предоставлены пользователями сайта, и администрация не несёт ответственности за их содержание. Просьба не заливать файлы, защищенные авторскими правами, а также файлы нелегального содержания!
cron