Находка (2015) WEBRip [H.264][MP4|960х400]

 
 Статистика раздачи 
Размер: 1.73 ГБ   |  Зарегистрирован: 13 янв 2016, 01:44   |   .torrent скачан: 0 раз
Сидеров: 1  [ 0 байт/сек ]     Личеров: 0  [ 0 байт/сек ]  
  

Находка (2015) WEBRip [H.264][MP4|960х400]

Сообщение Seepas » 13 янв 2016, 01:44

Находка (2015) WEBRip

Производство: Россия
Жанр: Драма

Режиссер: Виктор Демент
Актеры: Алексей Гуськов, Надежда Маркина, Анастасия Шевелёва, Валерий Смирнов, Мария Сокова, Егор Харламов, Анатолий Узденский, Марат Серажетдинов, Алексей Вертков, Владимир Шульга

Описание:
Старший инспектор рыбнадзора Трофим Русанов, считающий себя «Законом», а окружающих людей — «сволочами и ворьем», волей обстоятельств оказывается в таежном лесу, один на один с суровой природой, за десятки километров от человеческого жилья. Случай, произошедший с ним в заснеженной тайге, круто меняет его взгляды на жизнь...


Дата премьеры в России: 3 декабря 2015, «Reflexion Films»
Качество видео: WEBRip
Продолжительность: 01:38:58

Видео: AVC/H.264, 960х400 pixels, ~2345 Kbps
Аудио: AAC, 2 ch, 160 Kbps, Русский
Код:
Код: Выделить всё
General
Complete name                            : Находка (2015).mp4
Format                                   : MPEG-4
Format profile                           : Base Media
Codec ID                                 : isom
File size                                : 1.73 GiB
Duration                                 : 1h 38mn
Overall bit rate mode                    : Variable
Overall bit rate                         : 2 507 Kbps
Movie name                               : Nakhodka (2015) [NoNaMe-Club-rip by alien.09]
Encoded date                             : UTC 2016-01-11 00:47:00
Tagged date                              : UTC 2016-01-11 00:47:00

Video
ID                                       : 1
Format                                   : AVC
Format/Info                              : Advanced Video Codec
Format profile                           :
Format settings, CABAC                   : Yes
Format settings, ReFrames                : 3 frames
Codec ID                                 : avc1
Codec ID/Info                            : Advanced Video Coding
Duration                                 : 1h 38mn
Bit rate                                 : 2 345 Kbps
Width                                    : 960 pixels
Height                                   : 400 pixels
Display aspect ratio                     : 2.40:1
Frame rate mode                          : Constant
Frame rate                               : 24.000 fps
Color space                              : YUV
Chroma subsampling                       : 4:2:0
Bit depth                                : 8 bits
Scan type                                : Progressive
Bits/(Pixel*Frame)                       : 0.254
Stream size                              : 1.62 GiB (93%)
Writing library                          : x264 core 128 r2216M 198a7ea
Encoding settings                        : cabac=1 / ref=3 / deblock=1:-1:-1 / analyse=0x1:0x131 / me=hex / subme=7 / psy=1 / psy_rd=0.40:0.15 / mixed_ref=1 / me_range=16 / chroma_me=1 / trellis=1 / 8x8dct=0 / cqm=0 / deadzone=21,11 / fast_pskip=1 / chroma_qp_offset=-3 / threads=8 / lookahead_threads=1 / sliced_threads=0 / nr=0 / decimate=1 / interlaced=0 / bluray_compat=0 / constrained_intra=0 / bframes=3 / b_pyramid=0 / b_adapt=2 / b_bias=0 / direct=3 / weightb=1 / open_gop=0 / weightp=0 / keyint=240 / keyint_min=24 / scenecut=40 / intra_refresh=0 / rc_lookahead=40 / rc=2pass / mbtree=1 / bitrate=2345 / ratetol=1.0 / qcomp=0.60 / qpmin=10 / qpmax=51 / qpstep=4 / cplxblur=20.0 / qblur=0.5 / vbv_maxrate=5000 / vbv_bufsize=1835 / nal_hrd=none / ip_ratio=1.40 / aq=1:0.60
Language                                 : Russian
Encoded date                             : UTC 2016-01-11 00:47:00
Tagged date                              : UTC 2016-01-11 00:47:00

Audio
ID                                       : 2
Format                                   : AAC
Format/Info                              : Advanced Audio Codec
Format profile                           : LC
Codec ID                                 : 40
Duration                                 : 1h 38mn
Bit rate mode                            : Variable
Bit rate                                 : 160 Kbps
Channel count                            : 2 channels
Channel positions                        : Front: L R
Sampling rate                            : 48.0 KHz
Compression mode                         : Lossy
Stream size                              : 112 MiB (6%)
Language                                 : Russian
Encoded date                             : UTC 2016-01-11 00:47:00
Tagged date                              : UTC 2016-01-11 00:47:00

Скриншоты:



Время раздачи: 24/7 до трёх скачавших
 
Не забывайте говорить Спасибо. Не уходите с раздачи!   
Торрент: Зарегистрирован [13 янв 2016, 01:44] Для скачивания .torrent
необходима регистрация
Или скачать с помощью
MediaGet
Статус:
Проверен
 
.torrent скачан: 0 раз
Хэш: c49a4df9e64d734f24fff33bd3d31082f84258e5
Размер: 1.73 ГБ (1 860 828 857 байт)
Стать Автором раздачи
 
 
Раздал: 0 байт
Скачал: 0 байт
Ратио: Inf.
Сообщения: 188877
Зарегистрирован: 14 июн 2014, 20:46


  • Похожие торренты
    Ответы
    Просмотры
    Последнее сообщение

Вернуться в Видео для мобильных устройств

Ресурс не предоставляет электронные версии произведений, а занимается лишь коллекционированием и каталогизацией ссылок, присылаемых и публикуемых на форуме нашими читателями. Если вы являетесь правообладателем какого-либо представленного материала и не желаете чтобы ссылка на него находилась в нашем каталоге, свяжитесь с нами и мы незамедлительно удалим её. Файлы для обмена на трекере предоставлены пользователями сайта, и администрация не несёт ответственности за их содержание. Просьба не заливать файлы, защищенные авторскими правами, а также файлы нелегального содержания!
cron