Всё как у зверей (2013) HDTV

 
 Статистика раздачи 
Размер: 1.23 ГБ   |  Зарегистрирован: 13 янв 2016, 01:28   |   .torrent скачан: 0 раз
Сидеров: 1  [ 0 байт/сек ]     Личеров: 0  [ 0 байт/сек ]  
  

Всё как у зверей (2013) HDTV

Сообщение Seepas » 13 янв 2016, 01:28

Всё как у зверей (2013) HDTV

Телекомпания: vsekakuzverei
Жанр: Телепередача, Документальный

Участники: Евгения Тимонова, Serge Fenenko

Описание:
"Всё как у зверей" - программа о том, в кого люди такие. Автор и ведущая - вечный натуралист Евгения Тимонова

Продолжительность: 01:41:03
Качество видео: HDTVRip
Язык субтитров: нет

Видео: Lavf56.4.101, 1280x720, ~1853 Кбит/сек
Аудио: AAC, 2 ch, 126 kbps
Код:
Код: Выделить всё
Формат                                   : MPEG-4
Профиль формата                          : Base Media
Идентификатор кодека                     : isom (isom/iso2/avc1/mp41)
Размер файла                             : 87,1 Мбайт
Продолжительность                        : 6 м. 7 с.
Общий поток                              : 1986 Кбит/сек
Название фильма                          : Женские секреты приматов: 8 марта и скрытая овуляция / Все как у зверей
Дата записи                              : 0
Программа кодирования                    : Lavf56.4.101
Обложка                                  : Yes
Примечание                               : [url=http://www.mediahuman.co]www.mediahuman.co[/url]

Видео
Идентификатор                            : 1
Формат                                   : AVC
Формат/Информация                        : Advanced Video Codec
Профиль формата                          :
Параметр CABAC формата                   : Да
Параметр ReFrames формата                : 3 кадра
Идентификатор кодека                     : avc1
Идентификатор кодека/Информация          : Advanced Video Coding
Продолжительность                        : 6 м. 7 с.
Битрейт                                  : 1853 Кбит/сек
Ширина                                   : 1280 пикселей
Высота                                   : 720 пикселей
Соотношение сторон                       : 16:9
Режим частоты кадров                     : Постоянный
Частота кадров                           : 25,000 кадров/сек
Цветовое пространство                    : YUV
Субдискретизация насыщенности            : 4:2:0
Битовая глубина                          : 8 бит
Тип развёртки                            : Прогрессивная
Бит/(Пиксели*Кадры)                      : 0.080
Размер потока                            : 81,3 Мбайт (93%)

Аудио
Идентификатор                            : 2
Формат                                   : AAC
Формат/Информация                        : Advanced Audio Codec
Профиль формата                          : LC
Идентификатор кодека                     : 40
Продолжительность                        : 6 м. 7 с.
Вид битрейта                             : Постоянный
Битрейт                                  : 126 Кбит/сек
Каналы                                   : 2 канала
Расположение каналов                     : Front: L R
Частота                                  : 44,1 КГц
Частота кадров                           : 43,066 кадра/сек (1024 spf)
Метод сжатия                             : С потерями
Размер потока                            : 5,51 Мбайт (6%)
Default                                  : Да
Alternate group                          : 1

Скриншоты:


Время раздачи: 24/7
 
Не забывайте говорить Спасибо. Не уходите с раздачи!   
Торрент: Зарегистрирован [13 янв 2016, 01:28] Для скачивания .torrent
необходима регистрация
Или скачать с помощью
MediaGet
Статус:
Проверен
 
.torrent скачан: 0 раз
Хэш: 63252802eb34358a26e46e460425074c6c2cf394
Размер: 1.23 ГБ (1 323 628 208 байт)
Стать Автором раздачи
 
 
Раздал: 0 байт
Скачал: 0 байт
Ратио: Inf.
Сообщения: 188877
Зарегистрирован: 14 июн 2014, 20:46


  • Похожие торренты
    Ответы
    Просмотры
    Последнее сообщение

Вернуться в Видео для мобильных устройств

Ресурс не предоставляет электронные версии произведений, а занимается лишь коллекционированием и каталогизацией ссылок, присылаемых и публикуемых на форуме нашими читателями. Если вы являетесь правообладателем какого-либо представленного материала и не желаете чтобы ссылка на него находилась в нашем каталоге, свяжитесь с нами и мы незамедлительно удалим её. Файлы для обмена на трекере предоставлены пользователями сайта, и администрация не несёт ответственности за их содержание. Просьба не заливать файлы, защищенные авторскими правами, а также файлы нелегального содержания!
cron