(Коллекция из 10 CD классической музыки) Классика для отдыха-2008/ Classics for Relaxation-2008 (10 CD) - 2008, FLAC (tracks+.cue), lossless

 
 Статистика раздачи 
Размер: 2.62 ГБ   |  Зарегистрирован: 11 янв 2016, 04:25   |   .torrent скачан: 1 раз
Сидеров: 1  [ 0 байт/сек ]     Личеров: 0  [ 0 байт/сек ]  
  

(Коллекция из 10 CD классической музыки) Классика для отдыха-2008/ Classics for Relaxation-2008 (10 CD) - 2008, FLAC (tracks+.cue), lossless

Сообщение Seepas » 11 янв 2016, 04:25

(Сборник на 10 CD) Классика для отдыха [2008]/ Classics for Relaxation [2008]. 10 CDs set

Жанр: Коллекция из 10 CD классической музыки
Год выпуска диска: 2008
Производитель диска: Канада
Аудио кодек: FLAC
Тип рипа: tracks+.cue
Битрейт аудио: lossless
Продолжительность: 11:04:13
Трэклист:
1 Christian Sinding.
6 Pieces for Piano, Op. 32, No. 3/Rustle of Spring "Frühlingsrauschen" 2:47
Helene Gal, Piano

2 Felix Mendelssohn-Bartholdy.
Violin Concerto in E Minor, Op. 64/2. Andante 8:10
Philharmonia Slavonica, Alberto Lizzio, Conductor, Helena Spitkova, Violin

3 Wolfgang Amadeus Mozart.
Piano Concerto No. 9 in E Flat Major, K. 271 "Jeunehomme"/2. Andante 10:48
Camerata Labacensis, Kurt Redel, Conductor, Leonard Hokanson, Piano

4 Ludwig van Beethoven.
Romance for Violin and Orchestra in F Major, Op. 50 8:18
Philarmonia Slavonica, Francesco Macci, Conductor, Alexander Pervomaysky, Violin

5 Frederic Chopin.
Preludes, Op. 28, No. 15 in D Flat Major "Raindrops" 5:10
Paul Badura-Skoda, Piano

6 Alexander Borodin.
String Quartet No. 2 in D Major/3. Notturno - Andante 7:31
The International String Quartet New York

7 Felix Mendelssohn-Bartholdy.
Songs Without Words, Op. 62/6 in a Major 2:49
Helene, Gal Piano

8 Alexander Zarzycki.
Mazurka for Violin and Piano 4:49
Hans Kalafusz, Piano, Klaus von Wildemann, Violin

9 Franz List.
Liebestraum, No. 3 in a Flat Major (O Lieb' So Lang du Lieben Kannst) 4:29
Helene Gal, Piano

10 Antonin Dvorak.
Cello Concerto in B Minor, Op. 104/2. Adagio Ma Non Troppo 10:39
Number Symphony Orchestra, Othmar F.M Maga, Conductor, Jorg Metzger, Violoncello
Exact Audio Copy V0.99 prebeta 3 from 28. July 2007

EAC extraction logfile from 14. April 2009, 13:57

Various / Classics for Relaxation. CD1 Strings & Piano

Used drive : Optiarc DVD RW AD-7910S Adapter: 2 ID: 1

Read mode : Secure
Utilize accurate stream : Yes
Defeat audio cache : Yes
Make use of C2 pointers : No

Read offset correction : 48
Overread into Lead-In and Lead-Out : No
Fill up missing offset samples with silence : Yes
Delete leading and trailing silent blocks : No
Null samples used in CRC calculations : Yes
Used interface : Installed external ASPI interface
Gap handling : Not detected, thus appended to previous track

Used output format : User Defined Encoder
Selected bitrate : 768 kBit/s
Quality : High
Add ID3 tag : No
Command line compressor : C:\Program Files\Exact Audio Copy\FLAC\FLAC.EXE
Additional command line options : -8 -V -T "ARTIST=%a" -T "TITLE=%t" -T "ALBUM=%g" -T "DATE=%y" -T "TRACKNUMBER=%n" -T "GENRE=%m" -T "COMMENT=%e" %s -o %d

TOC of the extracted CD

Track | Start | Length | Start sector | End sector
---------------------------------------------------------
1 | 0:00.00 | 2:47.03 | 0 | 12527
2 | 2:47.03 | 8:10.70 | 12528 | 49347
3 | 10:57.73 | 10:48.07 | 49348 | 97954
4 | 21:46.05 | 8:18.23 | 97955 | 135327
5 | 30:04.28 | 5:10.10 | 135328 | 158587
6 | 35:14.38 | 7:31.32 | 158588 | 192444
7 | 42:45.70 | 2:49.13 | 192445 | 205132
8 | 45:35.08 | 4:49.52 | 205133 | 226859
9 | 50:24.60 | 4:29.57 | 226860 | 247091
10 | 54:54.42 | 10:39.19 | 247092 | 295035

Track 1

Filename C:\Documents and Settings\GHSUser\My Documents\My Music\Classics for Relaxation. CD1 Strings & Piano\01. Helene Gal - Christian Sinding. 6 Pieces for Piano, op.32 No.3-Rustle of Spring 'Fruhlingsrauschen'.wav

Peak level 62.7 %
Track quality 99.9 %
Test CRC 099604FE
Copy CRC 099604FE
Copy OK

Track 2

Filename C:\Documents and Settings\GHSUser\My Documents\My Music\Classics for Relaxation. CD1 Strings & Piano\02. Philarmonia Slavonica - Felix Mendelssohn-Bartholdy. Violin Concerto in E minor, op.64 II Andante..wav

Peak level 89.0 %
Track quality 100.0 %
Test CRC BAC3AD28
Copy CRC BAC3AD28
Copy OK

Track 3

Filename C:\Documents and Settings\GHSUser\My Documents\My Music\Classics for Relaxation. CD1 Strings & Piano\03. Camerata Labacensis - Wolfgang Amadeus Mozart. Piano Concerto No.9 in Flat major, K.271 'Jeunehomme' II- Andante.wav

Peak level 75.9 %
Track quality 100.0 %
Test CRC 6D7BB821
Copy CRC 6D7BB821
Copy OK

Track 4

Filename C:\Documents and Settings\GHSUser\My Documents\My Music\Classics for Relaxation. CD1 Strings & Piano\04. Philarmonia Slavonica, Alexander Pervomaysky - Ludwig van Beethoven. Romance for Violin and Orchestra in F major, op.50.wav

Peak level 73.1 %
Track quality 100.0 %
Test CRC 564851AF
Copy CRC 564851AF
Copy OK

Track 5

Filename C:\Documents and Settings\GHSUser\My Documents\My Music\Classics for Relaxation. CD1 Strings & Piano\05. Paul Badura-Skoda - Frederic Chopin. Preludes, op.28 No.15in D flat major'Raindrops'.wav

Peak level 69.3 %
Track quality 99.9 %
Test CRC DF7491FC
Copy CRC DF7491FC
Copy OK

Track 6

Filename C:\Documents and Settings\GHSUser\My Documents\My Music\Classics for Relaxation. CD1 Strings & Piano\06. The International String Quartet New York - Alexander Borodin. String Quartet No.2 in D major III Notturno - Andante.wav

Peak level 52.7 %
Track quality 100.0 %
Test CRC 73FB3D2F
Copy CRC 73FB3D2F
Copy OK

Track 7

Filename C:\Documents and Settings\GHSUser\My Documents\My Music\Classics for Relaxation. CD1 Strings & Piano\07. Helene Gal - Felix Mendelssohn-Bartholdy. Songs without Words, op.62 No.6- in A major 'Spring Song'.wav

Peak level 67.0 %
Track quality 100.0 %
Test CRC 7B1D7583
Copy CRC 7B1D7583
Copy OK

Track 8

Filename C:\Documents and Settings\GHSUser\My Documents\My Music\Classics for Relaxation. CD1 Strings & Piano\08. Hans Kalafusz, Klaus von Wildemann - Alexander Zarzycki. Mazurka for Violin and Piano.wav

Peak level 49.3 %
Track quality 100.0 %
Test CRC B002C7AB
Copy CRC B002C7AB
Copy OK

Track 9

Filename C:\Documents and Settings\GHSUser\My Documents\My Music\Classics for Relaxation. CD1 Strings & Piano\09. Helene Gal - Franz List. Lieberstraum No.3 in A flat major, op.62 O lieb' so lang Du lieben kannst.wav

Peak level 97.7 %
Track quality 100.0 %
Test CRC D6F35267
Copy CRC D6F35267
Copy OK

Track 10

Filename C:\Documents and Settings\GHSUser\My Documents\My Music\Classics for Relaxation. CD1 Strings & Piano\10. Number Symphony Orchestra, Jorg Metzner - Antonin Dvorak. Cello Concerto in B minor, op.104 II. Adagio ma non troppo.wav

Peak level 73.5 %
Track quality 99.9 %
Test CRC EE741BEB
Copy CRC EE741BEB
Copy OK

No errors occurred

End of status report
#77




1 Georg Friedrich Handel.
Concerto Grosso in a Minor, Op. 6, No. 4/3. Largo E Piano 2:08
Bratislava Chamber Orchestra, Pavol Bagin, Conductor, Anna Hobling, Violin, Guido Hobling, Violin, Josef Podhoransky, Cello

2 Antonio Vivaldi.
L' Estro Armonico No. 12 in E Major, Op. 3, RV 265/2. Largo 3:37
Bamberg String Orchestra, Albert Bucher, Conductor, Hermann Schneider, Violin

3 Antonio Vivaldi.
Flute Concerto in G Minor, Op. 10/2 "La Notte", RV 439/1. Largo 1:51
Pro Arte Ensemble Munich, Kurt Redel Flute, Conductor

4 Antonio Vivaldi.
Flute Concerto in G Minor, Op. 10/2 "La Notte", RV 439/2. Fantasimi 3:21
Pro Arte Ensemble Munich, Kurt Redel Flute, Conductor

5 Antonio Vivaldi.
Flute Concerto in G Minor, Op. 10/2 "La Notte", RV 439/3. Largo "Il Son 2:13
Pro Arte Ensemble Munich, Kurt Redel Flute, Conductor

6 Antonio Vivaldi.
Flute Concerto in G Minor, Op. 10/2 "La Notte", RV 439/4. Allegro 2:32
Pro Arte Ensemble Munich, Kurt Redel Flute, Conductor

7 Arcangelo Corelli.
Suite for Strings/1. Sarabande 3:13
I Solisti di Zagreb

8 Arcangelo Corelli.
Suite for Strings/2. Giga 2:13
I Solisti di Zagreb

9 Arcangelo Corelli.
Suite for Strings/3. Bandinerie 1:12
I Solisti di Zagreb

10 Johann Sebastian Bach.
Suite for Orchestra No. 3 in D Major, BWV 1068/Air 5:20
North German Philarmonic Orchestra, Wilhelm Bruckner-Ruggeberg, Conductor

11 Georg Friederich Handel.
Water Music Suite/4. Andante Espressivo 3:52
Slovak Philharmonic Orchestra, Oliver von Dohnanyi, Conductor

12 Antonio Vivaldi.
L' Estro Armonico No. 8 in a Minor, Op. 3, RV 522/2. Larghetto E Spirituos 3:44
Bamberg String Orchestra, Albert Bucher, Conductor

13 Joseph Haydn.
Concerto for Flute and Orchestra in D Major, Hob 7f: D1/3. Adagio 7:53
Pro Arte Ensemble Munich, Kurt Redel Flute, Conductor

14 George Philipp Teleman.
Concerto for Viola, Orchestra and Basso Continuo in G Major/3. Andante 4:53
Solistes de Nice, Claude Peton, Conductor, Monique Engelle, Viola

15 Antonio Vivaldi.
Mandolin Concerto in C Major, RV 425/1. Allegro 3:12
Musici di San Marco, Alberto Lizzio, Conductor

16 Antonio Vivaldi.
Mandolin Concerto in C Major, RV 425/2. Largo 2:47
Musici di San Marco, Alberto Lizzio, Conductor

17 Antonio Vivaldi.
Mandolin Concerto in C Major, RV 425/3. Allegro 2:46
Musici di San Marco, Alberto Lizzio, Conductor

18 Tomasso Albinoni.
Adagio in G Minor 8:00
Stuttgart Radio Symphony Orchestra, Garcia Navarro, Conductor
Exact Audio Copy V0.99 prebeta 3 from 28. July 2007

EAC extraction logfile from 13. April 2009, 16:53

Various / Classics for Relaxation. CD2 Delightful Baroque

Used drive : Optiarc DVD RW AD-7910S Adapter: 2 ID: 1

Read mode : Secure
Utilize accurate stream : Yes
Defeat audio cache : Yes
Make use of C2 pointers : No

Read offset correction : 48
Overread into Lead-In and Lead-Out : No
Fill up missing offset samples with silence : Yes
Delete leading and trailing silent blocks : No
Null samples used in CRC calculations : Yes
Used interface : Installed external ASPI interface
Gap handling : Not detected, thus appended to previous track

Used output format : User Defined Encoder
Selected bitrate : 768 kBit/s
Quality : High
Add ID3 tag : No
Command line compressor : C:\Program Files\Exact Audio Copy\FLAC\FLAC.EXE
Additional command line options : -8 -V -T "ARTIST=%a" -T "TITLE=%t" -T "ALBUM=%g" -T "DATE=%y" -T "TRACKNUMBER=%n" -T "GENRE=%m" -T "COMMENT=%e" %s -o %d

TOC of the extracted CD

Track | Start | Length | Start sector | End sector
---------------------------------------------------------
1 | 0:00.00 | 2:08.39 | 0 | 9638
2 | 2:08.39 | 3:37.53 | 9639 | 25966
3 | 5:46.17 | 1:51.23 | 25967 | 34314
4 | 7:37.40 | 3:21.16 | 34315 | 49405
5 | 10:58.56 | 2:13.71 | 49406 | 59451
6 | 13:12.52 | 2:32.25 | 59452 | 70876
7 | 15:45.02 | 3:13.01 | 70877 | 85352
8 | 18:58.03 | 2:13.48 | 85353 | 95375
9 | 21:11.51 | 1:12.23 | 95376 | 100798
10 | 22:23.74 | 5:20.56 | 100799 | 124854
11 | 27:44.55 | 3:52.70 | 124855 | 142324
12 | 31:37.50 | 3:44.25 | 142325 | 159149
13 | 35:22.00 | 7:53.24 | 159150 | 194648
14 | 43:15.24 | 4:53.39 | 194649 | 216662
15 | 48:08.63 | 3:12.13 | 216663 | 231075
16 | 51:21.01 | 2:47.10 | 231076 | 243610
17 | 54:08.11 | 2:46.66 | 243611 | 256126
18 | 56:55.02 | 8:00.71 | 256127 | 292197

Track 1

Filename C:\Documents and Settings\GHSUser\My Documents\My Music\Classics for Relaxation. CD2 Delightful Baroque\01. Bratislava Chamber Orchestra - Georg Friedrich Handel. Concerto Grosso in A minor,op6, No.4 III. Largo e piano.wav

Peak level 58.9 %
Track quality 99.9 %
Test CRC CB10AA13
Copy CRC CB10AA13
Copy OK

Track 2

Filename C:\Documents and Settings\GHSUser\My Documents\My Music\Classics for Relaxation. CD2 Delightful Baroque\02. Bamberg String Orchestra - Antonio Vivaldi. L'estro armonico No.12 in E major,op.3 RV265 II.Largo.wav

Peak level 53.0 %
Track quality 100.0 %
Test CRC A3E45C0C
Copy CRC A3E45C0C
Copy OK

Track 3

Filename C:\Documents and Settings\GHSUser\My Documents\My Music\Classics for Relaxation. CD2 Delightful Baroque\03. Pro Arte Ensemble Munich - Antonio Vivaldi. Flute Concerto in G minor,op.10,2 'La Notte',RV439. I-Largo.wav

Peak level 58.5 %
Track quality 100.0 %
Test CRC 56E9881F
Copy CRC 56E9881F
Copy OK

Track 4

Filename C:\Documents and Settings\GHSUser\My Documents\My Music\Classics for Relaxation. CD2 Delightful Baroque\04. Pro Arte Ensemble Munich - Antonio Vivaldi. Flute Concerto in G minor,op.10,2 'La Notte',RV439. II-Fantasimi.wav

Peak level 87.7 %
Track quality 99.9 %
Test CRC D39782DF
Copy CRC D39782DF
Copy OK

Track 5

Filename C:\Documents and Settings\GHSUser\My Documents\My Music\Classics for Relaxation. CD2 Delightful Baroque\05. Pro Arte Ensemble Munich - Antonio Vivaldi. Flute Concerto in G minor,op.10,2 'La Notte',RV439. III-Largo 'II Sonno'.wav

Peak level 37.3 %
Track quality 100.0 %
Test CRC 2D80727D
Copy CRC 2D80727D
Copy OK

Track 6

Filename C:\Documents and Settings\GHSUser\My Documents\My Music\Classics for Relaxation. CD2 Delightful Baroque\06. Pro Arte Ensemble Munich - Antonio Vivaldi. Flute Concerto in G minor,op.10,2 'La Notte',RV439. IV-Allegro.wav

Peak level 76.9 %
Track quality 100.0 %
Test CRC 93F0141F
Copy CRC 93F0141F
Copy OK

Track 7

Filename C:\Documents and Settings\GHSUser\My Documents\My Music\Classics for Relaxation. CD2 Delightful Baroque\07. I Solisti di Zagreb - Arcangelo Corelli. Suite for Strings, I-Sarabande.wav

Peak level 70.7 %
Track quality 100.0 %
Test CRC AA4F426D
Copy CRC AA4F426D
Copy OK

Track 8

Filename C:\Documents and Settings\GHSUser\My Documents\My Music\Classics for Relaxation. CD2 Delightful Baroque\08. I Solisti di Zagreb - Arcangelo Corelli. Suite for Strings, II-Giga.wav

Peak level 60.2 %
Track quality 100.0 %
Test CRC 2E51D6D4
Copy CRC 2E51D6D4
Copy OK

Track 9

Filename C:\Documents and Settings\GHSUser\My Documents\My Music\Classics for Relaxation. CD2 Delightful Baroque\09. I Solisti di Zagreb - Arcangelo Corelli. Suite for Strings, III-Bandinerie.wav

Peak level 31.0 %
Track quality 100.0 %
Test CRC EE063648
Copy CRC EE063648
Copy OK

Track 10

Filename C:\Documents and Settings\GHSUser\My Documents\My Music\Classics for Relaxation. CD2 Delightful Baroque\10. North German Philarmonic Orchestra - Johann Sebastian Bach. 'Air' from Suite for Orchestra No.3 in D major,BWV1068.wav

Peak level 41.0 %
Track quality 100.0 %
Test CRC 691406E9
Copy CRC 691406E9
Copy OK

Track 11

Filename C:\Documents and Settings\GHSUser\My Documents\My Music\Classics for Relaxation. CD2 Delightful Baroque\11. Slovak Philarmonic Orchestra - Georg Friederich Handel. Water Music Suite IV.Andante espressivo.wav

Peak level 43.4 %
Track quality 100.0 %
Test CRC C0F37BF1
Copy CRC C0F37BF1
Copy OK

Track 12

Filename C:\Documents and Settings\GHSUser\My Documents\My Music\Classics for Relaxation. CD2 Delightful Baroque\12. Bamberg String Orchestra - Antonio Vivaldi. L'estro armonico No.8 in A minor,op.3 RV522 ii. Larghertto e spirituoso.wav

Peak level 69.5 %
Track quality 100.0 %
Test CRC 01EBFFE2
Copy CRC 01EBFFE2
Copy OK

Track 13

Filename C:\Documents and Settings\GHSUser\My Documents\My Music\Classics for Relaxation. CD2 Delightful Baroque\13. Pro Arte Ensemble - Joseph Haydn. Concerto for Fluite and Orchestra in D major,Ho Vllf-D1 III-Adagio.wav

Peak level 48.1 %
Track quality 100.0 %
Test CRC 5830F60A
Copy CRC 5830F60A
Copy OK

Track 14

Filename C:\Documents and Settings\GHSUser\My Documents\My Music\Classics for Relaxation. CD2 Delightful Baroque\14. Solistes de Nice - George Philipp Teleman. Concerto for Viola, Orchestra and Basso Continuo in G major III- Andante.wav

Peak level 40.1 %
Track quality 99.9 %
Test CRC E2441EF9
Copy CRC E2441EF9
Copy OK

Track 15

Filename C:\Documents and Settings\GHSUser\My Documents\My Music\Classics for Relaxation. CD2 Delightful Baroque\15. Musici di San Marco - Antonio Vivaldi Mandolin Concerto in C major,RV425 I Allegro.wav

Peak level 34.9 %
Track quality 100.0 %
Test CRC C17BFADA
Copy CRC C17BFADA
Copy OK

Track 16

Filename C:\Documents and Settings\GHSUser\My Documents\My Music\Classics for Relaxation. CD2 Delightful Baroque\16. Musici di San Marco - Antonio Vivaldi Mandolin Concerto in C major,RV425 II Largo.wav

Peak level 23.3 %
Track quality 100.0 %
Test CRC A9259084
Copy CRC A9259084
Copy OK

Track 17

Filename C:\Documents and Settings\GHSUser\My Documents\My Music\Classics for Relaxation. CD2 Delightful Baroque\17. Musici di San Marco - Antonio Vivaldi Mandolin Concerto in C major,RV425 III Allegro.wav

Peak level 34.2 %
Track quality 100.0 %
Test CRC 98A6A59E
Copy CRC 98A6A59E
Copy OK

Track 18

Filename C:\Documents and Settings\GHSUser\My Documents\My Music\Classics for Relaxation. CD2 Delightful Baroque\18. Studgart Radio Symphony Orchestra - Tomasso Albinoni. Adagio in G minor.wav

Peak level 71.2 %
Track quality 100.0 %
Test CRC 087E34E0
Copy CRC 087E34E0
Copy OK

No errors occurred

End of status report
#77




1 Edvard Grieg.
From Holberg's Time, Op. 40 (Suite in the Ancient Style)/1. Prélude 2:45
Slovak Philharmonic Orchestra, Libor Pesek, Conductor

2 Edvard Grieg.
From Holberg's Time, Op. 40 (Suite in the Ancient Style)/Sarabande 4:09
Slovak Philharmonic Orchestra, Libor Pesek, Conductor

3 Edvard Grieg.
From Holberg's Time, Op. 40 (Suite in the Ancient Style)/3. Gavotte 3:07
Slovak Philharmonic Orchestra, Libor Pesek, Conductor

4 Edvard Grieg.
From Holberg's Time, Op. 40 (Suite in the Ancient Style)/4. Andante Rel 5:35
Slovak Philharmonic Orchestra, Libor Pesek, Conductor

5 Edvard Grieg.
From Holberg's Time, Op. 40 (Suite in the Ancient Style)/5. Rigaudon 3:07
Slovak Philharmonic Orchestra, Libor Pesek, Conductor

6 Ludwig van Beethoven.
Symphony No. 6 in F Major, Op. 68 "Pastorale"/2. Andante Molto Mosso 13:28
Slovak Philharmonic Orchestra, Bystrik Rezucha, Conductor

7 Johann Strauss (Son).
Vienna Sweets (Wiener Bonbons), Waltz, Op. 307 9:40
Vienna Opera Orchestra, Peter Falk, Conductor

8 Robert Schumann.
Piano Concerto in a Minor, Op. 54/2. Intermezzo-Andante Grazioso 5:07
Slovak Philharmonic Orchestra, Bystrik Rezucha, Conductor, Marian Lapsansky, Piano

9 Wolfgang Amadeus Mozart.
Symphony No. 29 in a Major, K. 201/2. Andante 10:08
Cameratta Labacensis, Alexander von Pitamic, Conductor

10 Charles Gounod.
Ave Maria 2:41
London Concert Orchestra and Chorus

11 Benjamin Louis Paul Godard.
Jocelyn/Berceus 4:37
101 Strings Orchestra

12 Edvard Grieg.
Piano Concerto in a Minor, Op. 16/2. Adagio 6:06
Slovak Philharmonic Orchestra, Bystrik Rezucha, Conductor, Marian Lapsansky, Piano
Exact Audio Copy V0.99 prebeta 3 from 28. July 2007

EAC extraction logfile from 17. April 2009, 8:38

Various / Classics for Relaxation. CD3 Classical Favorites

Used drive : Optiarc DVD RW AD-7910S Adapter: 2 ID: 1

Read mode : Secure
Utilize accurate stream : Yes
Defeat audio cache : Yes
Make use of C2 pointers : No

Read offset correction : 48
Overread into Lead-In and Lead-Out : No
Fill up missing offset samples with silence : Yes
Delete leading and trailing silent blocks : No
Null samples used in CRC calculations : Yes
Used interface : Installed external ASPI interface
Gap handling : Not detected, thus appended to previous track

Used output format : User Defined Encoder
Selected bitrate : 768 kBit/s
Quality : High
Add ID3 tag : No
Command line compressor : C:\Program Files\Exact Audio Copy\FLAC\FLAC.EXE
Additional command line options : -8 -V -T "ARTIST=%a" -T "TITLE=%t" -T "ALBUM=%g" -T "DATE=%y" -T "TRACKNUMBER=%n" -T "GENRE=%m" -T "COMMENT=%e" %s -o %d

TOC of the extracted CD

Track | Start | Length | Start sector | End sector
---------------------------------------------------------
1 | 0:00.00 | 2:45.58 | 0 | 12432
2 | 2:45.58 | 4:09.66 | 12433 | 31173
3 | 6:55.49 | 3:07.15 | 31174 | 45213
4 | 10:02.64 | 5:35.59 | 45214 | 70397
5 | 15:38.48 | 3:07.08 | 70398 | 84430
6 | 18:45.56 | 13:28.02 | 84431 | 145032
7 | 32:13.58 | 9:40.10 | 145033 | 188542
8 | 41:53.68 | 5:07.49 | 188543 | 211616
9 | 47:01.42 | 10:08.65 | 211617 | 257281
10 | 57:10.32 | 2:41.11 | 257282 | 269367
11 | 59:51.43 | 4:37.68 | 269368 | 290210
12 | 64:29.36 | 6:06.11 | 290211 | 317671

Track 1

Filename C:\Documents and Settings\GHSUser\My Documents\My Music\Classics for Relaxation. CD3 Classical Favorites\01. Slovak Philarmonic Orchestra - Edvard Grieg. From Holberg's Time, Op. 40 (Suite in the Ancient Style), 1. Prelude.wav

Peak level 64.2 %
Track quality 100.0 %
Test CRC 64A21620
Copy CRC 64A21620
Copy OK

Track 2

Filename C:\Documents and Settings\GHSUser\My Documents\My Music\Classics for Relaxation. CD3 Classical Favorites\02. Slovak Philarmonic Orchestra - Edvard Grieg. From Holberg's Time, Op. 40 (Suite in the Ancient Style), 2. Sarabande.wav

Peak level 50.1 %
Track quality 100.0 %
Test CRC 6A55571D
Copy CRC 6A55571D
Copy OK

Track 3

Filename C:\Documents and Settings\GHSUser\My Documents\My Music\Classics for Relaxation. CD3 Classical Favorites\03. Slovak Philarmonic Orchestra - Edvard Grieg. From Holberg's Time, Op. 40 (Suite in the Ancient Style), 3. Gavotte.wav

Peak level 66.7 %
Track quality 100.0 %
Test CRC B07480A2
Copy CRC B07480A2
Copy OK

Track 4

Filename C:\Documents and Settings\GHSUser\My Documents\My Music\Classics for Relaxation. CD3 Classical Favorites\04. Slovak Philarmonic Orchestra - Edvard Grieg. From Holberg's Time, Op. 40 (Suite in the Ancient Style), 4. Andante Religioso.wav

Peak level 77.0 %
Track quality 100.0 %
Test CRC 2297D1BE
Copy CRC 2297D1BE
Copy OK

Track 5

Filename C:\Documents and Settings\GHSUser\My Documents\My Music\Classics for Relaxation. CD3 Classical Favorites\05. Slovak Philarmonic Orchestra - Edvard Grieg. From Holberg's Time, Op. 40 (Suite in the Ancient Style), 5. Rigaudon.wav

Peak level 68.5 %
Track quality 100.0 %
Test CRC F5895329
Copy CRC F5895329
Copy OK

Track 6

Filename C:\Documents and Settings\GHSUser\My Documents\My Music\Classics for Relaxation. CD3 Classical Favorites\06. Slovak Philarmonic Orchestra - Ludwig van Beethoven. Symphony No. 6 in F Major, Op. 68 'Pastorale', 2. Andante Molto Mosso.wav

Peak level 53.8 %
Track quality 100.0 %
Test CRC 4410E8B3
Copy CRC 4410E8B3
Copy OK

Track 7

Filename C:\Documents and Settings\GHSUser\My Documents\My Music\Classics for Relaxation. CD3 Classical Favorites\07. Vienna Opera Orchestra - Johann Strauss (Son). Vienna Sweets (Wiener Bonbons), Waltz, Op. 307.wav

Peak level 97.7 %
Track quality 100.0 %
Test CRC EDDC2FEB
Copy CRC EDDC2FEB
Copy OK

Track 8

Filename C:\Documents and Settings\GHSUser\My Documents\My Music\Classics for Relaxation. CD3 Classical Favorites\08. Slovak Philarmonic Orchestra - Robert Schumann. Piano Concerto in a Minor, Op. 54,2. Intermezzo-Andante Grazioso.wav

Peak level 40.1 %
Track quality 100.0 %
Test CRC 991DDE9A
Copy CRC 991DDE9A
Copy OK

Track 9

Filename C:\Documents and Settings\GHSUser\My Documents\My Music\Classics for Relaxation. CD3 Classical Favorites\09. Cameratta Labacensis - Wolfgang Amadeus Mozart. Symphony No. 29 in a Major, K. 201,2. Andante.wav

Peak level 59.3 %
Track quality 100.0 %
Test CRC 7026719C
Copy CRC 7026719C
Copy OK

Track 10

Filename C:\Documents and Settings\GHSUser\My Documents\My Music\Classics for Relaxation. CD3 Classical Favorites\10. London Concert Orchestra and Chorus - Charles Gounod. Ave Maria.wav

Peak level 33.4 %
Track quality 100.0 %
Test CRC FD4BD53D
Copy CRC FD4BD53D
Copy OK

Track 11

Filename C:\Documents and Settings\GHSUser\My Documents\My Music\Classics for Relaxation. CD3 Classical Favorites\11. 101 Strings Orchestra - Benjamin Louis Paul Godard. Jocelyn,Berceus.wav

Peak level 45.0 %
Track quality 99.7 %
Test CRC 8480C602
Copy CRC 8480C602
Copy OK

Track 12

Filename C:\Documents and Settings\GHSUser\My Documents\My Music\Classics for Relaxation. CD3 Classical Favorites\12. Slovak Philarmonic Orchestra - Edvard Grieg. Piano Concerto in a Minor, Op. 16,2. Adagio.wav

Peak level 66.7 %
Track quality 100.0 %
Test CRC 0409F7F7
Copy CRC 0409F7F7
Copy OK

No errors occurred

End of status report
#77




1 Wolfgang Amadeus Mozart.
Clarinet Concerto in a Major, K. 622/2. Adagio 7:25
Mozart Festival Orchestra, Alberto Lizzio, Conductor, Joze Ostranc, Clarinet

2 Josef Strauss.
Village Swallows from Austria "Dorfschwalben Aus Österreich", Waltz, Op. 164 3:00
101 String Orchestra

3 Wolfgang Amadeus Mozart.
Horn Concerto No. 2 in E Flat Major, K. 417/2. Andante 3:16
Mozart Festival Orchestra, Alberto Lizzio, Conductor, Josef Dokupil, French Horn

4 Johann Strauss (Son).
The Beautiful Danube, Waltz, Op. 314 6:38
London Philharmonic Orchestra, Sir John Pritchard, Conductor

5 Antonio Vivaldi.
The Four Seasons, Autumn, Op. 8/3/1. Allegro "Ballo E Canto Villanelli" 4:46
Stuttgart Chamber Orchestra, Martin Sieghart, Conductor

6 Antonio Vivaldi.
The Four Seasons, Autumn, Op. 8/3/2. Adagio 3:14
Stuttgart Chamber Orchestra, Martin Sieghart, Conductor

7 Antonio Vivaldi.
The Four Seasons, Autumn, Op. 8/3/3. Allegro "La Caccia" 3:22
Stuttgart Chamber Orchestra, Martin Sieghart, Conductor

8 Frederic Chopin.
Piano Concerto No. 2 in F Minor, Op. 21/2. Larghetto 9:35
Poland Philharmonic Orchestra, Wojciech Rajskij, Conductor, Bianca Sitzius, Piano

9 Charles Gounod.
Funeral March of a Marionette 4:11
Orlando Pops Orchestra, Andrew Lane, Conductor

10 Giacomo Puccini.
Crisantemi - Andante Mesto, Op. 70 6:16
Stuttgart Chamber Orchestra, Bernhard Güller Conductor

11 Max Reger.
Lyric Andante in D Major 4:06
Stuttgart Chamber Orchestra, Bernhard Güller Conductor

12 Wolfgang Amadeus Mozart.
Divertimento for 2 Horns & Strings in F Major "A Musical Joke", K. 522/ 3.Adagio Cantabile 6:06
Capella Istropolitana
Exact Audio Copy V0.99 prebeta 3 from 28. July 2007

EAC extraction logfile from 17. April 2009, 12:15

Various / Classics for Relaxation. CD4 Potpourri

Used drive : Optiarc DVD RW AD-7910S Adapter: 2 ID: 1

Read mode : Secure
Utilize accurate stream : Yes
Defeat audio cache : Yes
Make use of C2 pointers : No

Read offset correction : 48
Overread into Lead-In and Lead-Out : No
Fill up missing offset samples with silence : Yes
Delete leading and trailing silent blocks : No
Null samples used in CRC calculations : Yes
Used interface : Installed external ASPI interface
Gap handling : Not detected, thus appended to previous track

Used output format : User Defined Encoder
Selected bitrate : 768 kBit/s
Quality : High
Add ID3 tag : No
Command line compressor : C:\Program Files\Exact Audio Copy\FLAC\FLAC.EXE
Additional command line options : -8 -V -T "ARTIST=%a" -T "TITLE=%t" -T "ALBUM=%g" -T "DATE=%y" -T "TRACKNUMBER=%n" -T "GENRE=%m" -T "COMMENT=%e" %s -o %d

TOC of the extracted CD

Track | Start | Length | Start sector | End sector
---------------------------------------------------------
1 | 0:00.00 | 7:25.23 | 0 | 33397
2 | 7:25.23 | 3:00.03 | 33398 | 46900
3 | 10:25.26 | 3:16.62 | 46901 | 61662
4 | 13:42.13 | 6:38.07 | 61663 | 91519
5 | 20:20.20 | 4:46.38 | 91520 | 113007
6 | 25:06.58 | 3:14.72 | 113008 | 127629
7 | 28:21.55 | 3:22.19 | 127630 | 142798
8 | 31:43.74 | 9:35.73 | 142799 | 185996
9 | 41:19.72 | 4:11.57 | 185997 | 204878
10 | 45:31.54 | 6:16.19 | 204879 | 233097
11 | 51:47.73 | 4:06.69 | 233098 | 251616
12 | 55:54.67 | 6:06.28 | 251617 | 279094

Track 1

Filename C:\Documents and Settings\GHSUser\My Documents\My Music\Classics for Relaxation. CD4 Potpourri\01. Mozart Festival Orchestra - Wolfgang Amadeus Mozart. Clarinet Concerto in a Major, K. 622,2. Adagio.wav

Peak level 66.3 %
Track quality 99.9 %
Test CRC 9BC8A14A
Copy CRC 9BC8A14A
Copy OK

Track 2

Filename C:\Documents and Settings\GHSUser\My Documents\My Music\Classics for Relaxation. CD4 Potpourri\02. 101 String Orchestra - Josef Strauss. Village Swallows from Austria 'Dorfschwalben Aus Osterreich', Waltz, Op.164.wav

Peak level 54.6 %
Track quality 100.0 %
Test CRC 757CC00D
Copy CRC 757CC00D
Copy OK

Track 3

Filename C:\Documents and Settings\GHSUser\My Documents\My Music\Classics for Relaxation. CD4 Potpourri\03. Mozart Festival Orchestra - Wolfgang Amadeus Mozart. Horn Concerto No. 2 in E Flat Major, K. 417,2. Andante.wav

Peak level 49.8 %
Track quality 100.0 %
Test CRC 000D0C32
Copy CRC 000D0C32
Copy OK

Track 4

Filename C:\Documents and Settings\GHSUser\My Documents\My Music\Classics for Relaxation. CD4 Potpourri\04. London Philarmonic Orchestra - Johann Strauss (Son). The Beautiful Danube, Waltz, Op. 314.wav

Peak level 67.8 %
Track quality 100.0 %
Test CRC 52042B82
Copy CRC 52042B82
Copy OK

Track 5

Filename C:\Documents and Settings\GHSUser\My Documents\My Music\Classics for Relaxation. CD4 Potpourri\05. Stuttgart Chamber Orchestra - Antonio Vivaldi. The Four Seasons, Autumn, Op. 8,3,1. Allegro 'Ballo E Canto Villanelli'.wav

Peak level 53.5 %
Track quality 100.0 %
Test CRC FEE6A26C
Copy CRC FEE6A26C
Copy OK

Track 6

Filename C:\Documents and Settings\GHSUser\My Documents\My Music\Classics for Relaxation. CD4 Potpourri\06. Stuttgart Chamber Orchestra - Antonio Vivaldi. The Four Seasons, Autumn, Op. 8,3,2. Adagio.wav

Peak level 13.3 %
Track quality 99.8 %
Test CRC EE0339E4
Copy CRC EE0339E4
Copy OK

Track 7

Filename C:\Documents and Settings\GHSUser\My Documents\My Music\Classics for Relaxation. CD4 Potpourri\07. Stuttgart Chamber Orchestra - Antonio Vivaldi. The Four Seasons, Autumn, Op. 8,3,3. Allegro 'La Caccia'.wav

Peak level 78.2 %
Track quality 100.0 %
Test CRC F3CFE47D
Copy CRC F3CFE47D
Copy OK

Track 8

Filename C:\Documents and Settings\GHSUser\My Documents\My Music\Classics for Relaxation. CD4 Potpourri\08. Poland Philarmonic Orchestra - Frederic Chopin. Piano Concerto No. 2 in F Minor, Op. 21,2. Larghetto.wav

Peak level 52.3 %
Track quality 100.0 %
Test CRC 9BC1434E
Copy CRC 9BC1434E
Copy OK

Track 9

Filename C:\Documents and Settings\GHSUser\My Documents\My Music\Classics for Relaxation. CD4 Potpourri\09. Orlando Pops Orchestra - Charles Gounod. Funeral March of a Marionette.wav

Peak level 96.6 %
Track quality 100.0 %
Test CRC 5217ED91
Copy CRC 5217ED91
Copy OK

Track 10

Filename C:\Documents and Settings\GHSUser\My Documents\My Music\Classics for Relaxation. CD4 Potpourri\10. Stuttgart Chamber Orchestra - Giacomo Puccini. Crisantemi - Andante Mesto, Op. 70.wav

Peak level 67.0 %
Track quality 99.9 %
Test CRC 2D3C5C22
Copy CRC 2D3C5C22
Copy OK

Track 11

Filename C:\Documents and Settings\GHSUser\My Documents\My Music\Classics for Relaxation. CD4 Potpourri\11. Stuttgart Chamber Orchestra - Max Reger. Lyric Andante in D Major.wav

Peak level 43.8 %
Track quality 100.0 %
Test CRC E68E7A63
Copy CRC E68E7A63
Copy OK

Track 12

Filename C:\Documents and Settings\GHSUser\My Documents\My Music\Classics for Relaxation. CD4 Potpourri\12. Capella Istopolitana - Mozart. Divertimento for 2 Horns & Strings in F Major 'A Musical Joke', K. 522,3.Adagio Cantabile.wav

Peak level 70.0 %
Track quality 100.0 %
Test CRC 5CE19C58
Copy CRC 5CE19C58
Copy OK

No errors occurred

End of status report
#77




1 Petr Ilyich Tchaikovsky.
Swan Lake, Ballet Suite, Op. 20/Lake in the Moonlight 2:44
The New Philarmonia Orchestra London, Igor Markevich, Conductor

2 Petr Ilyich Tchaikovsky.
Swan Lake, Ballet Suite, Op. 20/Waltz 6:46
The New Philarmonia Orchestra London, Igor Markevich, Conductor

3 Petr Ilyich Tchaikovsky.
Swan Lake, Ballet Suite, Op. 20/Dance of the Swans 1:43
The New Philarmonia Orchestra London, Igor Markevich, Conductor

4 Petr Ilyich Tchaikovsky.
Swan Lake, Ballet Suite, Op. 20/Pas de Deux 6:22
The New Philarmonia Orchestra London, Igor Markevich, Conductor

5 Engelbert Humperdinck.
Hänsel und Gretel/Evening Prayer 8:06
London Festival Orchestra, Kurt Redel, Conductor

6 Eric Satie.
Trois Gymnopédies/No. 1 4:08
Stuttgart Chamber Orchestra, Dennis Russel Davis, Conductor

7 Eric Satie.
Trois Gymnopédies/No. 2 3:08
Stuttgart Chamber Orchestra, Dennis Russel Davis, Conductor

8 Eric Satie.
Trois Gymnopédies/No. 3 2:51
Stuttgart Chamber Orchestra, Dennis Russel Davis, Conductor

9 Franz Schmidt.
Notre Dame/Intermezzo 5:43
Slovak Philharmonic Orchestra, Libor Pesek, Conductor

10 Petr Ilyich Tchaikovsky.
The Sleeping Beauty, Ballet Suite, Op. 66a/Introduction: The Lilac Fairy 3:34
The New Philarmonia Orchestra London, Lawrence Siegel, Conductor

11 Petr Ilyich Tchaikovsky.
The Sleeping Beauty, Ballet Suite, Op. 66a/Pas d'Action 5:27
The New Philarmonia Orchestra London, Lawrence Siegel, Conductor

12 Petr Ilyich Tchaikovsky.
The Sleeping Beauty, Ballet Suite, Op. 66a/Panorama 2:36
The New Philarmonia Orchestra London, Lawrence Siegel, Conductor

13 Petr Ilyich Tchaikovsky.
The Sleeping Beauty, Ballet Suite, Op. 66a/Waltz 4:25
The New Philarmonia Orchestra London, Lawrence Siegel, Conductor

14 Petr Ilyich Tchaikovsky.
The Sleeping Beauty, Ballet Suite, Op. 66a/Finale: Apotheose 2:04
The New Philarmonia Orchestra London, Lawrence Siegel, Conductor

15 Johannes Brams.
Symphony No. 1 in C Minor, Op. 68/2. Andante Sostenuto 8:51
London Philharmonic Orchestra, Adrian Boult Conductor
Exact Audio Copy V0.99 prebeta 3 from 28. July 2007

EAC extraction logfile from 17. April 2009, 15:07

Various / Classics for Relaxation. CD5 Classics On & Off Stage

Used drive : Optiarc DVD RW AD-7910S Adapter: 2 ID: 1

Read mode : Secure
Utilize accurate stream : Yes
Defeat audio cache : Yes
Make use of C2 pointers : No

Read offset correction : 48
Overread into Lead-In and Lead-Out : No
Fill up missing offset samples with silence : Yes
Delete leading and trailing silent blocks : No
Null samples used in CRC calculations : Yes
Used interface : Installed external ASPI interface
Gap handling : Not detected, thus appended to previous track

Used output format : User Defined Encoder
Selected bitrate : 768 kBit/s
Quality : High
Add ID3 tag : No
Command line compressor : C:\Program Files\Exact Audio Copy\FLAC\FLAC.EXE
Additional command line options : -8 -V -T "ARTIST=%a" -T "TITLE=%t" -T "ALBUM=%g" -T "DATE=%y" -T "TRACKNUMBER=%n" -T "GENRE=%m" -T "COMMENT=%e" %s -o %d

TOC of the extracted CD

Track | Start | Length | Start sector | End sector
---------------------------------------------------------
1 | 0:00.00 | 2:44.66 | 0 | 12365
2 | 2:44.66 | 6:46.01 | 12366 | 42816
3 | 9:30.67 | 1:43.73 | 42817 | 50614
4 | 11:14.65 | 6:22.40 | 50615 | 79304
5 | 17:37.30 | 8:06.43 | 79305 | 115797
6 | 25:43.73 | 4:08.19 | 115798 | 134416
7 | 29:52.17 | 3:08.48 | 134417 | 148564
8 | 33:00.65 | 2:51.74 | 148565 | 161463
9 | 35:52.64 | 5:43.47 | 161464 | 187235
10 | 41:36.36 | 3:34.16 | 187236 | 203301
11 | 45:10.52 | 5:27.44 | 203302 | 227870
12 | 50:38.21 | 2:36.37 | 227871 | 239607
13 | 53:14.58 | 4:25.41 | 239608 | 259523
14 | 57:40.24 | 2:04.28 | 259524 | 268851
15 | 59:44.52 | 8:51.45 | 268852 | 308721

Track 1

Filename C:\Documents and Settings\GHSUser\My Documents\My Music\Classics for Relaxation. CD5 Classics On & Off Stage\01. Belgrad Philarmonic Orchestra - Petr Ilyich Tchaikovsky. Swan Lake, Ballet Suite, Op. 20,Lake in the Moonlight.wav

Peak level 73.5 %
Track quality 100.0 %
Test CRC 21D19E9B
Copy CRC 21D19E9B
Copy OK

Track 2

Filename C:\Documents and Settings\GHSUser\My Documents\My Music\Classics for Relaxation. CD5 Classics On & Off Stage\02. Belgrad Philarmonic Orchestra - Petr Ilyich Tchaikovsky. Swan Lake, Ballet Suite, Op. 20,Waltz.wav

Peak level 63.9 %
Track quality 100.0 %
Test CRC CAFA88C3
Copy CRC CAFA88C3
Copy OK

Track 3

Filename C:\Documents and Settings\GHSUser\My Documents\My Music\Classics for Relaxation. CD5 Classics On & Off Stage\03. Belgrad Philarmonic Orchestra - Petr Ilyich Tchaikovsky. Swan Lake, Ballet Suite, Op. 20,Dance of the Swans.wav

Peak level 47.8 %
Track quality 100.0 %
Test CRC 5DA5DC60
Copy CRC 5DA5DC60
Copy OK

Track 4

Filename C:\Documents and Settings\GHSUser\My Documents\My Music\Classics for Relaxation. CD5 Classics On & Off Stage\04. Belgrad Philarmonic Orchestra - Petr Ilyich Tchaikovsky. Swan Lake, Ballet Suite, Op. 20,Pas de Deux.wav

Peak level 37.4 %
Track quality 99.9 %
Test CRC F83594AC
Copy CRC F83594AC
Copy OK

Track 5

Filename C:\Documents and Settings\GHSUser\My Documents\My Music\Classics for Relaxation. CD5 Classics On & Off Stage\05. London Festival Orchestra - Engelbert Humperdinck. Hansel und Gretel,Evening Prayer.wav

Peak level 69.5 %
Track quality 100.0 %
Test CRC D56ECCBD
Copy CRC D56ECCBD
Copy OK

Track 6

Filename C:\Documents and Settings\GHSUser\My Documents\My Music\Classics for Relaxation. CD5 Classics On & Off Stage\06. Stuttgart Chamber Orchestra - Eric Satie. Trois Gymnopedies,No. 1.wav

Peak level 45.8 %
Track quality 100.0 %
Test CRC 69D9DB3A
Copy CRC 69D9DB3A
Copy OK

Track 7

Filename C:\Documents and Settings\GHSUser\My Documents\My Music\Classics for Relaxation. CD5 Classics On & Off Stage\07. Stuttgart Chamber Orchestra - Eric Satie. Trois Gymnopedies,No. 2.wav

Peak level 62.7 %
Track quality 99.9 %
Test CRC 9D8043C6
Copy CRC 9D8043C6
Copy OK

Track 8

Filename C:\Documents and Settings\GHSUser\My Documents\My Music\Classics for Relaxation. CD5 Classics On & Off Stage\08. Stuttgart Chamber Orchestra - Eric Satie. Trois Gymnopedies,No. 3.wav

Peak level 20.1 %
Track quality 99.9 %
Test CRC 6D947BBB
Copy CRC 6D947BBB
Copy OK

Track 9

Filename C:\Documents and Settings\GHSUser\My Documents\My Music\Classics for Relaxation. CD5 Classics On & Off Stage\09. Slovak Philarmonic Orchestra - Franz Schmidt. Notre Dame,Intermezzo.wav

Peak level 35.3 %
Track quality 100.0 %
Test CRC 31A9DD13
Copy CRC 31A9DD13
Copy OK

Track 10

Filename C:\Documents and Settings\GHSUser\My Documents\My Music\Classics for Relaxation. CD5 Classics On & Off Stage\10. The New Philarmonia Orchestra London - Tchaikovsky. The Sleeping Beauty, Ballet Suite, Op. 66a,Introduction- The Liliac Fairy.wav

Peak level 96.6 %
Track quality 100.0 %
Test CRC 1EE22D05
Copy CRC 1EE22D05
Copy OK

Track 11

Filename C:\Documents and Settings\GHSUser\My Documents\My Music\Classics for Relaxation. CD5 Classics On & Off Stage\11. The New Philarmonia Orchestra London - Tchaikovsky. The Sleeping Beauty, Ballet Suite, Op. 66a,Pas d'Action.wav

Peak level 96.6 %
Track quality 100.0 %
Test CRC A301C3D1
Copy CRC A301C3D1
Copy OK

Track 12

Filename C:\Documents and Settings\GHSUser\My Documents\My Music\Classics for Relaxation. CD5 Classics On & Off Stage\12. The New Philarmonia Orchestra London - Tchaikovsky. The Sleeping Beauty, Ballet Suite, Op. 66a,Panorama.wav

Peak level 15.4 %
Track quality 100.0 %
Test CRC A44C70CE
Copy CRC A44C70CE
Copy OK

Track 13

Filename C:\Documents and Settings\GHSUser\My Documents\My Music\Classics for Relaxation. CD5 Classics On & Off Stage\13. The New Philarmonia Orchestra London - Tchaikovsky. The Sleeping Beauty, Ballet Suite, Op. 66a,Waltz.wav

Peak level 73.2 %
Track quality 100.0 %
Test CRC 3FE55F7A
Copy CRC 3FE55F7A
Copy OK

Track 14

Filename C:\Documents and Settings\GHSUser\My Documents\My Music\Classics for Relaxation. CD5 Classics On & Off Stage\14. The New Philarmonia Orchestra London - Tchaikovsky. The Sleeping Beauty, Ballet Suite, Op. 66a,Finale- Apotheose.wav

Peak level 90.6 %
Track quality 100.0 %
Test CRC AC7A1AB1
Copy CRC AC7A1AB1
Copy OK

Track 15

Filename C:\Documents and Settings\GHSUser\My Documents\My Music\Classics for Relaxation. CD5 Classics On & Off Stage\15. London Philarmonic Orchestra - Johannes Brams. Symphony No. 1 in C Minor, Op. 68,2. Andante Sostenuto.wav

Peak level 47.1 %
Track quality 100.0 %
Test CRC E188D407
Copy CRC E188D407
Copy OK

No errors occurred

End of status report
#77




1 Wolfgang Amadeus Mozart.
Symphony No. 40 in G Minor, K. 550/2. Andante 7:57
Slovak Philharmonic Orchestra, Libor Pesek, Conductor

2 Antonin Dvorak.
Symphony No. 9 in E Minor, Op. 95 "From the New World"/2. Largo 11:47
London Philharmonic Orchestra, Hugo Rignold, Conductor

3 Peter Ilyich Tchaikovsky.
Piano Concerto No. 1 in B Flat Minor, Op. 23/2. Andante Semplice 6:51
Orchestre de la Suisse Romand, Armin Jordan, Conductor, Josef Bulva, Piano

4 Ludwig van Beethoven.
Symphony No. 5 in C Minor, Op. 67 "Fate"/2. Andante Con Moto 10:06
Bamberg Philharmonic Orchestra, Hans Swarowsky, Conductor

5 Bedrich Smetana.
The Moldau (Vltava) (From My Fatherland "Ma Vlast") 11:21
South German Philharmonic Orchestra, Denis Zsoltay, Conductor

6 Carl Maria von Weber.
Concertino for Clarinet and Orchestra, Op. 26 10:06
Stuttgart Philharmonic Orchestra, Alexander Paulmuller, Conductor, Harmut Stute, Clarinet
Exact Audio Copy V0.99 prebeta 3 from 28. July 2007

EAC extraction logfile from 18. April 2009, 12:45

Various / Classics for Relaxation. CD6 Substance Over Style

Used drive : Optiarc DVD RW AD-7910S Adapter: 2 ID: 1

Read mode : Secure
Utilize accurate stream : Yes
Defeat audio cache : Yes
Make use of C2 pointers : No

Read offset correction : 48
Overread into Lead-In and Lead-Out : No
Fill up missing offset samples with silence : Yes
Delete leading and trailing silent blocks : No
Null samples used in CRC calculations : Yes
Used interface : Installed external ASPI interface
Gap handling : Not detected, thus appended to previous track

Used output format : User Defined Encoder
Selected bitrate : 768 kBit/s
Quality : High
Add ID3 tag : No
Command line compressor : C:\Program Files\Exact Audio Copy\FLAC\FLAC.EXE
Additional command line options : -8 -V -T "ARTIST=%a" -T "TITLE=%t" -T "ALBUM=%g" -T "DATE=%y" -T "TRACKNUMBER=%n" -T "GENRE=%m" -T "COMMENT=%e" %s -o %d

TOC of the extracted CD

Track | Start | Length | Start sector | End sector
---------------------------------------------------------
1 | 0:00.00 | 7:57.00 | 0 | 35774
2 | 7:57.00 | 11:47.46 | 35775 | 88845
3 | 19:44.46 | 6:51.55 | 88846 | 119725
4 | 26:36.26 | 10:06.43 | 119726 | 165218
5 | 36:42.69 | 11:21.53 | 165219 | 216346
6 | 48:04.47 | 10:06.30 | 216347 | 261826

Track 1

Filename C:\Documents and Settings\GHSUser\My Documents\My Music\Classics for Relaxation. CD6 Substance Over Style\01. Slovak Philharmonic Orchestra - Wolfgang Amadeus Mozart. Symphony No. 40 in G Minor, K. 550,2. Andante.wav

Peak level 66.2 %
Track quality 100.0 %
Test CRC 31A4D45D
Copy CRC 31A4D45D
Copy OK

Track 2

Filename C:\Documents and Settings\GHSUser\My Documents\My Music\Classics for Relaxation. CD6 Substance Over Style\02. London Philharmonic Orchestra - Antonin Dvorak. Symphony No. 9 in E Minor, Op. 95 'From the New World',2. Largo.wav

Peak level 48.3 %
Track quality 99.9 %
Test CRC D9B959CB
Copy CRC D9B959CB
Copy OK

Track 3

Filename C:\Documents and Settings\GHSUser\My Documents\My Music\Classics for Relaxation. CD6 Substance Over Style\03. Orchestra de la Suisse Romand - Peter Ilyich Tchaikovsky. Piano Concerto No. 1 in B Flat Minor, Op. 23,2. Andante Semplice.wav

Peak level 96.6 %
Track quality 100.0 %
Test CRC 4280A106
Copy CRC 4280A106
Copy OK

Track 4

Filename C:\Documents and Settings\GHSUser\My Documents\My Music\Classics for Relaxation. CD6 Substance Over Style\04. Bamberg Philharmonic Orchestra - Ludwig van Beethoven. Symphony No. 5 in C Minor, Op. 67 'Fate',2. Andante Con Moto.wav

Peak level 52.2 %
Track quality 100.0 %
Test CRC 2185FA4D
Copy CRC 2185FA4D
Copy OK

Track 5

Filename C:\Documents and Settings\GHSUser\My Documents\My Music\Classics for Relaxation. CD6 Substance Over Style\05. South German Philharmonic Orchestra - Bedrich Smetana. The Moldau (Vltava) (From My Fatherland 'Ma Vlast').wav

Peak level 90.0 %
Track quality 99.9 %
Test CRC 9AE06CCD
Copy CRC 9AE06CCD
Copy OK

Track 6

Filename C:\Documents and Settings\GHSUser\My Documents\My Music\Classics for Relaxation. CD6 Substance Over Style\06. Stuttgart Philharmonic Orchestra - Carl Maria von Weber. Concertino for Clarinet and Orchestra, Op. 26.wav

Peak level 61.0 %
Track quality 99.7 %
Test CRC 4EEB54FA
Copy CRC 4EEB54FA
Copy OK

No errors occurred

End of status report
#77




1 Peter Ilyich Tchaikovsky.
Serenade for Strings in C Major, Op. 48/Pezzo in Forma di Sonatina 9:28
The World Symphony Orchestra, Leopold Ostrov, Conductor

2 Peter Ilyich Tchaikovsky.
Serenade for Strings in C Major, Op. 48/Waltz 3:44
The World Symphony Orchestra, Leopold Ostrov, Conductor

3 Peter Ilyich Tchaikovsky.
Serenade for Strings in C Major, Op. 48/Elegia: Larghetto 9:04
The World Symphony Orchestra, Leopold Ostrov, Conductor

4 Peter Ilyich Tchaikovsky.
Serenade for Strings in C Major, Op. 48/Finale: Andante - Allegro 7:16
The World Symphony Orchestra, Leopold Ostrov, Conductor

5 Wolfgang Amadeus Mozart.
Serenade No. 13 in G Major, K. 525 "Eine Kleine Nachtmusik"/1. Allegro 7:52
Slovak Philharmonic Orchestra, Libor Pesek, Conductor

6 Wolfgang Amadeus Mozart.
Serenade No. 13 in G Major, K. 525 "Eine Kleine Nachtmusik"/2. Romance 5:48
Slovak Philharmonic Orchestra, Libor Pesek, Conductor

7 Wolfgang Amadeus Mozart.
Serenade No. 13 in G Major, K. 525 "Eine Kleine Nachtmusik"/3. Minuett 2:10
Slovak Philharmonic Orchestra, Libor Pesek, Conductor

8 Wolfgang Amadeus Mozart.
Serenade No. 13 in G Major, K. 525 "Eine Kleine Nachtmusik"/4. Rondo - 2:53
Slovak Philharmonic Orchestra, Libor Pesek, Conductor

9 Antonin Dvorak.
Serenade in E Major, Op. 22/1. Moderato 4:29
Stuttgart Chamber Orchestra, Martin Sieghart, Conductor

10 Antonin Dvorak.
Serenade in E Major, Op. 22/2. Tempo di Valse 6:44
Stuttgart Chamber Orchestra, Martin Sieghart, Conductor

11 Antonin Dvorak.
Serenade in E Major, Op. 22/3. Scherzo, Vivace 5:37
Stuttgart Chamber Orchestra, Martin Sieghart, Conductor

12 Antonin Dvorak.
Serenade in E Major, Op. 22/4. Larghetto 6:02
Stuttgart Chamber Orchestra, Martin Sieghart, Conductor

13 Antonin Dvorak.
Serenade in E Major, Op. 22/5. Finale, Allegro Vivace 6:08
Stuttgart Chamber Orchestra, Martin Sieghart, Conductor
Exact Audio Copy V0.99 prebeta 3 from 28. July 2007

EAC extraction logfile from 23. April 2009, 7:22

Various / Classics for Relaxation. CD7 Strings Serenades.

Used drive : Optiarc DVD RW AD-7910S Adapter: 2 ID: 1

Read mode : Secure
Utilize accurate stream : Yes
Defeat audio cache : Yes
Make use of C2 pointers : No

Read offset correction : 48
Overread into Lead-In and Lead-Out : No
Fill up missing offset samples with silence : Yes
Delete leading and trailing silent blocks : No
Null samples used in CRC calculations : Yes
Used interface : Installed external ASPI interface
Gap handling : Not detected, thus appended to previous track

Used output format : User Defined Encoder
Selected bitrate : 768 kBit/s
Quality : High
Add ID3 tag : No
Command line compressor : C:\Program Files\Exact Audio Copy\FLAC\FLAC.EXE
Additional command line options : -8 -V -T "ARTIST=%a" -T "TITLE=%t" -T "ALBUM=%g" -T "DATE=%y" -T "TRACKNUMBER=%n" -T "GENRE=%m" -T "COMMENT=%e" %s -o %d

TOC of the extracted CD

Track | Start | Length | Start sector | End sector
---------------------------------------------------------
1 | 0:00.00 | 9:28.47 | 0 | 42646
2 | 9:28.47 | 3:44.45 | 42647 | 59491
3 | 13:13.17 | 9:04.01 | 59492 | 100292
4 | 22:17.18 | 7:16.05 | 100293 | 132997
5 | 29:33.23 | 7:52.57 | 132998 | 168454
6 | 37:26.05 | 5:48.24 | 168455 | 194578
7 | 43:14.29 | 2:10.26 | 194579 | 204354
8 | 45:24.55 | 2:53.68 | 204355 | 217397
9 | 48:18.48 | 4:29.37 | 217398 | 237609
10 | 52:48.10 | 6:44.54 | 237610 | 267963
11 | 59:32.64 | 5:37.39 | 267964 | 293277
12 | 65:10.28 | 6:02.02 | 293278 | 320429
13 | 71:12.30 | 6:08.47 | 320430 | 348076

Track 1

Filename C:\Documents and Settings\GHSUser\My Documents\My Music\Classics for Relaxation. CD7 Strings Serenades\01. The World Symphony Orchestra - P.I.Tchaikovsky. Serenade for Strings in C Major, Op. 48,Pezzo in Forma di Sonatina.wav

Peak level 39.8 %
Track quality 100.0 %
Test CRC C2A787DF
Copy CRC C2A787DF
Copy OK

Track 2

Filename C:\Documents and Settings\GHSUser\My Documents\My Music\Classics for Relaxation. CD7 Strings Serenades\02. The World Symphony Orchestra - P.I.Tchaikovsky. Serenade for Strings in C Major, Op. 48,Waltz.wav

Peak level 28.8 %
Track quality 100.0 %
Test CRC 0D21F396
Copy CRC 0D21F396
Copy OK

Track 3

Filename C:\Documents and Settings\GHSUser\My Documents\My Music\Classics for Relaxation. CD7 Strings Serenades\03. The World Symphony Orchestra - P.I.Tchaikovsky. Serenade for Strings in C Major, Op. 48,Elegia- Larghetto.wav

Peak level 33.3 %
Track quality 100.0 %
Test CRC 54017FB1
Copy CRC 54017FB1
Copy OK

Track 4

Filename C:\Documents and Settings\GHSUser\My Documents\My Music\Classics for Relaxation. CD7 Strings Serenades\04. The World Symphony Orchestra - P.I.Tchaikovsky. Serenade for Strings in C Major, Op. 48,Finale- Andante - Allegro.wav

Peak level 43.1 %
Track quality 100.0 %
Test CRC F5355933
Copy CRC F5355933
Copy OK

Track 5

Filename C:\Documents and Settings\GHSUser\My Documents\My Music\Classics for Relaxation. CD7 Strings Serenades\05. Slovak Philharnomic Orchestra - W.A.Mozart. Serenade No. 13 in G Major, K. 525 'Eine Kleine Nachtmusik',1. Allegro.wav

Peak level 71.8 %
Track quality 100.0 %
Test CRC A867100D
Copy CRC A867100D
Copy OK

Track 6

Filename C:\Documents and Settings\GHSUser\My Documents\My Music\Classics for Relaxation. CD7 Strings Serenades\06. Slovak Philharnomic Orchestra - W.A.Mozart. Serenade No. 13 in G Major, K. 525 'Eine Kleine Nachtmusik',2. Romance.wav

Peak level 38.6 %
Track quality 99.9 %
Test CRC 8102BCD7
Copy CRC 8102BCD7
Copy OK

Track 7

Filename C:\Documents and Settings\GHSUser\My Documents\My Music\Classics for Relaxation. CD7 Strings Serenades\07. Slovak Philharnomic Orchestra - W.A.Mozart. Serenade No. 13 in G Major, K. 525 'Eine Kleine Nachtmusik',3. Minuett.wav

Peak level 70.5 %
Track quality 100.0 %
Test CRC 7C4C8B42
Copy CRC 7C4C8B42
Copy OK

Track 8

Filename C:\Documents and Settings\GHSUser\My Documents\My Music\Classics for Relaxation. CD7 Strings Serenades\08. Slovak Philharnomic Orchestra - W.A.Mozart. Serenade No. 13 in G Major, K. 525 'Eine Kleine Nachtmusik',4. Rondo.wav

Peak level 62.5 %
Track quality 100.0 %
Test CRC F497EE8F
Copy CRC F497EE8F
Copy OK

Track 9

Filename C:\Documents and Settings\GHSUser\My Documents\My Music\Classics for Relaxation. CD7 Strings Serenades\09. Stuttgart Chamber Orchestra - Antonin Dvorak. Serenade in E Major, Op. 22,1. Moderato.wav

Peak level 52.1 %
Track quality 100.0 %
Test CRC 3B04741F
Copy CRC 3B04741F
Copy OK

Track 10

Filename C:\Documents and Settings\GHSUser\My Documents\My Music\Classics for Relaxation. CD7 Strings Serenades\10. Stuttgart Chamber Orchestra - Antonin Dvorak. Serenade in E Major, Op. 22,2. Tempo di Valse.wav

Peak level 90.0 %
Track quality 100.0 %
Test CRC 95599A91
Copy CRC 95599A91
Copy OK

Track 11

Filename C:\Documents and Settings\GHSUser\My Documents\My Music\Classics for Relaxation. CD7 Strings Serenades\11. Stuttgart Chamber Orchestra - Antonin Dvorak. Serenade in E Major, Op. 22,3. Scherzo, Vivace.wav

Peak level 57.0 %
Track quality 97.0 %
Test CRC D81607A3
Copy CRC B3D65183
Copy OK

Track 12

Filename C:\Documents and Settings\GHSUser\My Documents\My Music\Classics for Relaxation. CD7 Strings Serenades\12. Stuttgart Chamber Orchestra - Antonin Dvorak. Serenade in E Major, Op. 22,4. Larghetto.wav

Peak level 56.4 %
Track quality 100.0 %
Test CRC 3FF83D1B
Copy CRC 3FF83D1B
Copy OK

Track 13

Filename C:\Documents and Settings\GHSUser\My Documents\My Music\Classics for Relaxation. CD7 Strings Serenades\13. Stuttgart Chamber Orchestra - Antonin Dvorak. Serenade in E Major, Op. 22,5. Finale, Allegro Vivace.wav

Peak level 74.4 %
Track quality 99.9 %
Test CRC 90953267
Copy CRC 90953267
Copy OK

No errors occurred

End of status report
#77




1 Claude Debussy.
Prelude to the Afternoon of a Fawn 8:51
Belgrad Philharmonic Orchestra, Igor Markevich, Conductor

2 Gustav Mahler.
Adagietto (From Symphony No. 5 in C Sharp Minor) 9:08
Ljubljana Radio Symphony Orchestra, Anton Nanut, Conductor

3 Nikolai Rimsky-Korsakov.
Scheherazade - Symphonic Suite, Op. 35/1. The Sea and Sinbad's Ship - Largo e maestroso 10:13
Slovak Philharmonic Orchestra, Bystrik Rezucha, Conductor

4 Nikolai Rimsky-Korsakov.
Scheherazade - Symphonic Suite, Op. 35/2. The Tale of the Kalendar Prince - Lento (Adagio) 11:35
Slovak Philharmonic Orchestra, Bystrik Rezucha, Conductor

5 Nikolai Rimsky-Korsakov.
Scheherazade - Symphonic Suite, Op. 35/3. The Young Prince and the Young Princess - Andantino quasi Allegretto 10:03
Slovak Philharmonic Orchestra, Bystrik Rezucha, Conductor

6 Nikolai Rimsky-Korsakov.
Scheherazade - Symphonic Suite, Op. 35/4. The Festival at Baghdad/The Sea/The Shipwrek on a Rock/Conclusion 12:03
Slovak Philharmonic Orchestra, Bystrik Rezucha, Conductor
Exact Audio Copy V0.99 prebeta 3 from 28. July 2007

EAC extraction logfile from 24. April 2009, 7:49

Various / Classics for Relaxation. CD8 The Late Romantics

Used drive : Optiarc DVD RW AD-7910S Adapter: 2 ID: 1

Read mode : Secure
Utilize accurate stream : Yes
Defeat audio cache : Yes
Make use of C2 pointers : No

Read offset correction : 48
Overread into Lead-In and Lead-Out : No
Fill up missing offset samples with silence : Yes
Delete leading and trailing silent blocks : No
Null samples used in CRC calculations : Yes
Used interface : Installed external ASPI interface
Gap handling : Not detected, thus appended to previous track

Used output format : User Defined Encoder
Selected bitrate : 768 kBit/s
Quality : High
Add ID3 tag : No
Command line compressor : C:\Program Files\Exact Audio Copy\FLAC\FLAC.EXE
Additional command line options : -8 -V -T "ARTIST=%a" -T "TITLE=%t" -T "ALBUM=%g" -T "DATE=%y" -T "TRACKNUMBER=%n" -T "GENRE=%m" -T "COMMENT=%e" %s -o %d

TOC of the extracted CD

Track | Start | Length | Start sector | End sector
---------------------------------------------------------
1 | 0:00.00 | 8:51.40 | 0 | 39864
2 | 8:51.40 | 9:08.05 | 39865 | 80969
3 | 17:59.45 | 10:13.26 | 80970 | 126970
4 | 28:12.71 | 11:35.16 | 126971 | 179111
5 | 39:48.12 | 10:03.00 | 179112 | 224336
6 | 49:51.12 | 12:03.13 | 224337 | 278574

Track 1

Filename C:\Documents and Settings\GHSUser\My Documents\My Music\Classics for Relaxation. CD8 The Late Romantics\01. Belgrad Philharmonic Orchestra - Claude Debussy. Prelude to the Afternoon of a Fawn.wav

Peak level 54.7 %
Track quality 100.0 %
Test CRC B2A433D1
Copy CRC B2A433D1
Copy OK

Track 2

Filename C:\Documents and Settings\GHSUser\My Documents\My Music\Classics for Relaxation. CD8 The Late Romantics\02. Ljubljana Radio Symphony Orchestra - Gustav Mahler. Adagietto (From Symphony No. 5 in C Sharp Minor).wav

Peak level 32.2 %
Track quality 100.0 %
Test CRC F3B22485
Copy CRC F3B22485
Copy OK

Track 3

Filename C:\Documents and Settings\GHSUser\My Documents\My Music\Classics for Relaxation. CD8 The Late Romantics\03. Slovak Philharm.Orch - N. Rimsky-Korsakov. Scheherazade - Symphonic Suite, Op. 35,1. The Sea and Sinbad's Ship - Largo e maestr.wav

Peak level 97.7 %
Track quality 99.9 %
Test CRC 406F8B5B
Copy CRC 406F8B5B
Copy OK

Track 4

Filename C:\Documents and Settings\GHSUser\My Documents\My Music\Classics for Relaxation. CD8 The Late Romantics\04. Slovak Philharm.Orch - N. Rimsky-Korsakov. Scheherazade - Symphonic Suite, Op. 35,2. The Tale of the Kalendar Prince - Lento (A.wav

Peak level 92.8 %
Track quality 100.0 %
Test CRC 6CC472DF
Copy CRC 6CC472DF
Copy OK

Track 5

Filename C:\Documents and Settings\GHSUser\My Documents\My Music\Classics for Relaxation. CD8 The Late Romantics\05. Slovak Philharm.Orch - N. Rimsky-Korsakov. Scheherazade - Symphonic Suite, Op. 35,3. The Young Prince and the Young Princess.wav

Peak level 70.0 %
Track quality 99.9 %
Test CRC 2E3F6A12
Copy CRC 2E3F6A12
Copy OK

Track 6

Filename C:\Documents and Settings\GHSUser\My Documents\My Music\Classics for Relaxation. CD8 The Late Romantics\06. Slovak Philharm.Orch - N. Rimsky-Korsakov. Scheherazade - Symphonic Suite, Op. 35,4. The Festival at Baghdad,The Sea,The Shipwr.wav

Peak level 95.0 %
Track quality 100.0 %
Test CRC 96D6950F
Copy CRC 9EB2BEAF
Copy OK

No errors occurred

End of status report





1 Claude Debussy.
La Fille aux Cheveux de Lin (No. 8 from Preludes, Book 1) 2:35
Peter Schmalfuss, Piano

2 Claude Debussy.
La Cathédrale Engloutie (No. 10 from Preludes, Book 1) 7:08
Peter Schmalfuss, Piano

3 Edvard Grieg.
Piano Concerto in a Minor, Op. 16/2. Adagio 6:08
Slovak Philharmonic Orchestra, Bystrik Rezucha, Conductor, Marian Lapsansky, Piano

4 Wolfgang Amadeus Mozart.
Concerto for Flute, Harp & Orchestra in C Major, K. 299/2. Andantino 8:37
Orchestre du Festival Belgique, Pierre Narrato, Conductor

5 Johann Strauss (Son).
Lovesongs Waltz (Liebeslieder), Op. 114 9:46
Vienna Opera Orchestra, Carl Michalski, Conductor

6 Georges Bizet.
L' Arlesienne Suite No. 1/1. Overture 6:41
London Festival Orchestra, Alfred Scholz, Conductor

7 Georges Bizet.
L' Arlesienne Suite No. 1/2. Minuetto 2:44
London Festival Orchestra, Alfred Scholz, Conductor

8 Georges Bizet.
L' Arlesienne Suite No. 1/3. Adagietto 2:50
London Festival Orchestra, Alfred Scholz, Conductor

9 Georges Bizet.
L' Arlesienne Suite No. 1/4. Carillon 4:48
London Festival Orchestra, Alfred Scholz, Conductor

10 Wolfgang Amadeus Mozart.
Piano Concerto No. 26 in D Major, K. 537 "Coronation"/2. Andante 5:47
Mozart Festival Orchestra, Alberto Lizzio Conductor, Svetlana Stanceva, Piano

11 Claude Debussy.
Clair de Lune (From Suite Bergamasque) 5:11
Peter Schmalfuss, Piano

12 Felix Mendelssohn-Bartholdy.
Rondo Capriccioso, Op. 14 5:41
Josef Bulva, Piano

13 Franz Liszt.
Années de Pèlerinage Premiere Annee - Les Cloches Génève 5:15
Peter Schmalfuss, Piano
Exact Audio Copy V0.99 prebeta 3 from 28. July 2007

EAC extraction logfile from 26. April 2009, 14:46

Various / Classics for Relaxation. CD9 Piano Bookends

Used drive : Optiarc DVD RW AD-7910S Adapter: 2 ID: 1

Read mode : Secure
Utilize accurate stream : Yes
Defeat audio cache : Yes
Make use of C2 pointers : No

Read offset correction : 48
Overread into Lead-In and Lead-Out : No
Fill up missing offset samples with silence : Yes
Delete leading and trailing silent blocks : No
Null samples used in CRC calculations : Yes
Used interface : Installed external ASPI interface
Gap handling : Not detected, thus appended to previous track

Used output format : User Defined Encoder
Selected bitrate : 768 kBit/s
Quality : High
Add ID3 tag : No
Command line compressor : C:\Program Files\Exact Audio Copy\FLAC\FLAC.EXE
Additional command line options : -8 -V -T "ARTIST=%a" -T "TITLE=%t" -T "ALBUM=%g" -T "DATE=%y" -T "TRACKNUMBER=%n" -T "GENRE=%m" -T "COMMENT=%e" %s -o %d

TOC of the extracted CD

Track | Start | Length | Start sector | End sector
---------------------------------------------------------
1 | 0:00.00 | 2:35.58 | 0 | 11682
2 | 2:35.58 | 7:08.66 | 11683 | 43848
3 | 9:44.49 | 6:08.28 | 43849 | 71476
4 | 15:53.02 | 8:37.06 | 71477 | 110257
5 | 24:30.08 | 9:46.74 | 110258 | 154281
6 | 34:17.07 | 6:41.71 | 154282 | 184427
7 | 40:59.03 | 2:44.53 | 184428 | 196780
8 | 43:43.56 | 2:50.48 | 196781 | 209578
9 | 46:34.29 | 4:48.51 | 209579 | 231229
10 | 51:23.05 | 5:47.59 | 231230 | 257313
11 | 57:10.64 | 5:11.72 | 257314 | 280710
12 | 62:22.61 | 5:41.04 | 280711 | 306289
13 | 68:03.65 | 5:15.52 | 306290 | 329966

Track 1

Filename C:\Documents and Settings\GHSUser\My Documents\My Music\Classics for Relaxation. CD9 Piano Bookends\01. Peter Schmalfuss - Claude Debussy. La Fille aux Cheveux de Lin (No. 8 from Preludes, Book 1).wav

Peak level 30.9 %
Track quality 100.0 %
Test CRC 0106CF9A
Copy CRC 0106CF9A
Copy OK

Track 2

Filename C:\Documents and Settings\GHSUser\My Documents\My Music\Classics for Relaxation. CD9 Piano Bookends\02. Peter Schmalfuss - Claude Debussy. La Cathedrale Engloutie (No. 10 from Preludes, Book 1).wav

Peak level 60.6 %
Track quality 100.0 %
Test CRC AF5FCDA2
Copy CRC AF5FCDA2
Copy OK

Track 3

Filename C:\Documents and Settings\GHSUser\My Documents\My Music\Classics for Relaxation. CD9 Piano Bookends\03. Slovak Philharmonic Orchestra - Edvard Grieg. Piano Concerto in a Minor, Op. 16,2. Adagio.wav

Peak level 55.6 %
Track quality 100.0 %
Test CRC FB69E17E
Copy CRC FB69E17E
Copy OK

Track 4

Filename C:\Documents and Settings\GHSUser\My Documents\My Music\Classics for Relaxation. CD9 Piano Bookends\04. Orchestre du Festival Belgique - W.A.Mozart. Concerto for Flute, Harp & Orchestra in C Major, K. 299,2. Andantino.wav

Peak level 43.3 %
Track quality 100.0 %
Test CRC EF829D14
Copy CRC EF829D14
Copy OK

Track 5

Filename C:\Documents and Settings\GHSUser\My Documents\My Music\Classics for Relaxation. CD9 Piano Bookends\05. Vienna Opera Orchestra - Johann Strauss (Son). Lovesongs Waltz (Liebeslieder), Op. 114.wav

Peak level 77.7 %
Track quality 100.0 %
Test CRC 834E26DE
Copy CRC 834E26DE
Copy OK

Track 6

Filename C:\Documents and Settings\GHSUser\My Documents\My Music\Classics for Relaxation. CD9 Piano Bookends\06. London Festival Orchestra - Georges Bizet. L' Arlesienne Suite No. 1,1. Overture.wav

Peak level 97.8 %
Track quality 100.0 %
Test CRC 51C1FF4F
Copy CRC 51C1FF4F
Copy OK

Track 7

Filename C:\Documents and Settings\GHSUser\My Documents\My Music\Classics for Relaxation. CD9 Piano Bookends\07. London Festival Orchestra - Georges Bizet. L' Arlesienne Suite No. 1,2. Minuetto.wav

Peak level 35.3 %
Track quality 99.9 %
Test CRC 1366A1FE
Copy CRC 1366A1FE
Copy OK

Track 8

Filename C:\Documents and Settings\GHSUser\My Documents\My Music\Classics for Relaxation. CD9 Piano Bookends\08. London Festival Orchestra - Georges Bizet. L' Arlesienne Suite No. 1,3. Adagietto.wav

Peak level 30.8 %
Track quality 100.0 %
Test CRC E4546BC5
Copy CRC E4546BC5
Copy OK

Track 9

Filename C:\Documents and Settings\GHSUser\My Documents\My Music\Classics for Relaxation. CD9 Piano Bookends\09. London Festival Orchestra - Georges Bizet. L' Arlesienne Suite No. 1,4. Carillon.wav

Peak level 89.4 %
Track quality 100.0 %
Test CRC 77689602
Copy CRC 77689602
Copy OK

Track 10

Filename C:\Documents and Settings\GHSUser\My Documents\My Music\Classics for Relaxation. CD9 Piano Bookends\10. Mozart Festival Orchestra - W.A.Mozart. Piano Concerto No. 26 in D Major, K. 537 'Coronation',2. Andante.wav

Peak level 52.8 %
Track quality 100.0 %
Test CRC 77C43C6C
Copy CRC 77C43C6C
Copy OK

Track 11

Filename C:\Documents and Settings\GHSUser\My Documents\My Music\Classics for Relaxation. CD9 Piano Bookends\11. Peter Schmalfuss - Claude Debussy. Clair de Lune (From Suite Bergamasque).wav

Peak level 54.3 %
Track quality 100.0 %
Test CRC C4853816
Copy CRC C4853816
Copy OK

Track 12

Filename C:\Documents and Settings\GHSUser\My Documents\My Music\Classics for Relaxation. CD9 Piano Bookends\12. Josef Bulva - Felix Mendelssohn-Bartholdy. Rondo Capriccioso, Op. 14.wav

Peak level 80.4 %
Track quality 99.9 %
Test CRC 405801B9
Copy CRC 405801B9
Copy OK

Track 13

Filename C:\Documents and Settings\GHSUser\My Documents\My Music\Classics for Relaxation. CD9 Piano Bookends\13. Peter Schmalfuss - Franz Liszt. Annees de Pelerinage Premiere Annee - Les Cloches Geneve.wav

Peak level 71.1 %
Track quality 100.0 %
Test CRC 232F2DEC
Copy CRC 232F2DEC
Copy OK

No errors occurred

End of status report





1 Franz Schubert.
Symphony No. 8 in B Minor, D 759 "Unfinished"/2. Andante Con Moto 10:40
Slovak Philharmonic Orchestra, Bystrik Rezucha, Conductor

2 Joseph Haydn.
Symphony No. 94 in G Major, Hob. I: 94 "Surprise"/2. Andante 5:54
Slovak Philharmonic Orchestra, Alfred Scholz, Conductor

3 Antonin Dvorak.
Symphony No. 8 in G Major, Op. 88 "English"/2. Adagio 11:00
ORF Radio Symphony Orchestra, Milan Horvath, Conductor

4 Ludwig van Beethoven.
Symphony No. 1 in C Major, Op. 21/2. Andante Cantabile Con Moto 6:26
Ljubljana Radio Symphony Orchestra, Anton Nanut, Conductor

5 Peter Ilyich Tchaikovsky.
Symphony No. 6 in B Minor, Op. 74 "Pathétique"/4. Finale: Adagio Lament 9:10
Slovak Philharmonic Orchestra, Bystrik Rezucha, Conductor

6 Georges Bizet.
Symphony No. 1 in C Major/2. Adagio 9:02
Munich Symphony Orchestra, Alfred Scholz, Conductor

7 Johannes Brahms.
Symphony No. 3 in F Major, Op. 90/2. Andante 9:27
Bamberg Philharmonic Orchestra, Hans Swarowsky, Conductor
Exact Audio Copy V0.99 prebeta 3 from 28. July 2007

EAC extraction logfile from 26. April 2009, 16:09

Various / Classics for Relaxation. CD10 Symphonic Andante

Used drive : Optiarc DVD RW AD-7910S Adapter: 2 ID: 1

Read mode : Secure
Utilize accurate stream : Yes
Defeat audio cache : Yes
Make use of C2 pointers : No

Read offset correction : 48
Overread into Lead-In and Lead-Out : No
Fill up missing offset samples with silence : Yes
Delete leading and trailing silent blocks : No
Null samples used in CRC calculations : Yes
Used interface : Installed external ASPI interface
Gap handling : Not detected, thus appended to previous track

Used output format : User Defined Encoder
Selected bitrate : 768 kBit/s
Quality : High
Add ID3 tag : No
Command line compressor : C:\Program Files\Exact Audio Copy\FLAC\FLAC.EXE
Additional command line options : -8 -V -T "ARTIST=%a" -T "TITLE=%t" -T "ALBUM=%g" -T "DATE=%y" -T "TRACKNUMBER=%n" -T "GENRE=%m" -T "COMMENT=%e" %s -o %d

TOC of the extracted CD

Track | Start | Length | Start sector | End sector
---------------------------------------------------------
1 | 0:00.00 | 10:40.12 | 0 | 48011
2 | 10:40.12 | 5:54.71 | 48012 | 74632
3 | 16:35.08 | 11:00.38 | 74633 | 124170
4 | 27:35.46 | 6:26.67 | 124171 | 153187
5 | 34:02.38 | 9:10.67 | 153188 | 194504
6 | 43:13.30 | 9:02.59 | 194505 | 235213
7 | 52:16.14 | 9:27.56 | 235214 | 277794

Track 1

Filename C:\Documents and Settings\GHSUser\My Documents\My Music\Classics for Relaxation. CD10 Symphonic Andante\01. Slovak Philharmonic Orchestra - Franz Schubert. Symphony No. 8 in B Minor, D 759 'Unfinished',2. Andante Con Moto.wav

Peak level 82.2 %
Track quality 100.0 %
Test CRC FC53E577
Copy CRC FC53E577
Copy OK

Track 2

Filename C:\Documents and Settings\GHSUser\My Documents\My Music\Classics for Relaxation. CD10 Symphonic Andante\02. Slovak Philharmonic Orchestra - Joseph Haydn. Symphony No. 94 in G Major, Hob. I- 94 'Surprise',2. Andante.wav

Peak level 89.1 %
Track quality 100.0 %
Test CRC DF9A1A0D
Copy CRC DF9A1A0D
Copy OK

Track 3

Filename C:\Documents and Settings\GHSUser\My Documents\My Music\Classics for Relaxation. CD10 Symphonic Andante\03. ORF Radio Symphony Orchestra - Antonin Dvorak. Symphony No. 8 in G Major, Op. 88 'English',2. Adagio.wav

Peak level 58.5 %
Track quality 100.0 %
Test CRC D818F2F6
Copy CRC D818F2F6
Copy OK

Track 4

Filename C:\Documents and Settings\GHSUser\My Documents\My Music\Classics for Relaxation. CD10 Symphonic Andante\04. Ljubljana Radio Symphony Orchestra - Ludwig van Beethoven. Symphony No. 1 in C Major, Op. 21,2. Andante Cantabile Con Moto.wav

Peak level 96.6 %
Track quality 100.0 %
Test CRC 21645290
Copy CRC 21645290
Copy OK

Track 5

Filename C:\Documents and Settings\GHSUser\My Documents\My Music\Classics for Relaxation. CD10 Symphonic Andante\05. Slovak Philharm.Chamber Orchestra - P.I.Tchaikovsky. Symphony No. 6 in B Minor, Op. 74 'Pathetique',4. Finale- Adagio Lamentoso.wav

Peak level 93.1 %
Track quality 99.9 %
Test CRC A9578C03
Copy CRC A9578C03
Copy OK

Track 6

Filename C:\Documents and Settings\GHSUser\My Documents\My Music\Classics for Relaxation. CD10 Symphonic Andante\06. Munich Symphony Orchestra - Georges Bizet. Symphony No. 1 in C Major,2. Adagio.wav

Peak level 60.9 %
Track quality 100.0 %
Test CRC DCFBAC66
Copy CRC DCFBAC66
Copy OK

Track 7

Filename C:\Documents and Settings\GHSUser\My Documents\My Music\Classics for Relaxation. CD10 Symphonic Andante\07. Bamberg Symphony Orchestra - Johannes Brahms. Symphony No. 3 in F Major, Op. 90,2. Andante.wav

Peak level 62.3 %
Track quality 100.0 %
Test CRC 67AE5785
Copy CRC 67AE5785
Copy OK

No errors occurred

End of status report





Доп. информация:

10 Disc Set
Label: MADACY SPECIAL MKTS
Format: CD - Special Packaging
Release Date: 08/26/2008
Label: MADACY SPECIAL MKTS
London Philharmonic Orchestra Performing Ensemble
Libor Pesek Conductor
Adrian Boult Conductor
Carl Michalski Conductor
Hugo Rignold Conductor
Garcia Navarro Conductor
Joze Ostranc Clarinet
Sir John Pritchard Conductor
Svetlana Stanceva Piano
Hans Swarowsky Conductor
Andrew Lane Conductor
Hermann Schneider Violin
Lawrence Siegel Conductor
New Philharmonia Orchestra of London Performing Ensemble
Alberto Lizzio Conductor
Alfred Scholz Conductor
Leonard Hokanson Piano
Peter Schmalfuss Piano
Peter Falk Conductor
Anton Nanut Conductor
Kurt Redel Flute, Conductor
Martin Sieghart Conductor
Josef Bulva Piano
Hélène Gàl Piano
Bianca Sitzius Piano
Pavol Bagin Conductor
Bernhard Güller Conductor
Marian Lapsansky Piano
Bystrik Rezucha Conductor
Francesco Macci Conductor
Armin Jordan Conductor
Josef Podhoransky Cello
Denis Zsoltay Conductor
Pierre Narrato Conductor
Helena Spitkova Violin





От себя
Не пугайтесь названия, Classics for Relaxation - это просто заигрывание с американским потребителем, просто хороший сборник классики.
Сборник производит магическое впечатление очень взвешенным подбором, на мой взгляд очень неплохой записью и исполнением
Выкладываю в потраковом виде для желающих грузить выборочно. Инструкции для желающих собрать CD image здесь http://xs.vc/eac/index.html и здесь http://rutracker.org/forum/viewtopic.php?t=1083411
 
Не забывайте говорить Спасибо. Не уходите с раздачи!   
Торрент: Зарегистрирован [11 янв 2016, 04:25] Скачать торрент
Скачать торрент
[ Размер 37.23 КБ / Просмотров 84 ]
Статус:
Проверен
 
.torrent скачан: 1 раз
Хэш: fbfe83968144cc1fa8eff399a97da8905a66303b
Размер: 2.62 ГБ (2 817 520 066 байт)
Стать Автором раздачи
 
 
Раздал: 0 байт
Скачал: 0 байт
Ратио: Inf.
Сообщения: 188877
Зарегистрирован: 14 июн 2014, 20:46


  • Похожие торренты
    Ответы
    Просмотры
    Последнее сообщение

Вернуться в Полные собрания сочинений и многодисковые издания (lossless)

Ресурс не предоставляет электронные версии произведений, а занимается лишь коллекционированием и каталогизацией ссылок, присылаемых и публикуемых на форуме нашими читателями. Если вы являетесь правообладателем какого-либо представленного материала и не желаете чтобы ссылка на него находилась в нашем каталоге, свяжитесь с нами и мы незамедлительно удалим её. Файлы для обмена на трекере предоставлены пользователями сайта, и администрация не несёт ответственности за их содержание. Просьба не заливать файлы, защищенные авторскими правами, а также файлы нелегального содержания!