Для тебя. Марат Сафин (1 выпуск) [2005, Ток-шоу, VHSRip]

 
 Статистика раздачи 
Размер: 1.53 ГБ   |  Зарегистрирован: 11 янв 2016, 04:11   |   .torrent скачан: 1 раз
Сидеров: 1  [ 0 байт/сек ]     Личеров: 0  [ 0 байт/сек ]  
  

Для тебя. Марат Сафин (1 выпуск) [2005, Ток-шоу, VHSRip]

Сообщение PetaByte » 11 янв 2016, 04:11

Для тебя. Марат Сафин

Год выпуска: 2005
Страна: Россия
Жанр: Ток-шоу
Продолжительность: 00:43:53
Перевод: Не требуется
Русские субтитры: нет

Телеканал: НТВ
Описание: ток-шоу "Для тебя" - это гламурный тележурнал, познавательно-развлекательное шоу о жизни богатых и знаменитых и практическое руководство к действию для тех, кто хочет ими стать. Программа раскрывает приемы и тонкости профессионального мастерства в различных областях деятельности: от реставрации мебели до искусства make up, ухода за собой или за собственным мужем. Программа поможет получить ответы и на многие другие вопросы. Ведущие шоу — Игорь Верник, Оксана Робски и Юлия Бордовских — люди, которые не понаслышке знают, как произвести нужное впечатление и добиться поставленной цели, ведут непринужденные беседы с гостями в студии и участвуют в мастер-классах, преподаваемых асами своего дела. Светскую атмосферу в студии дополняют музыкальные номера популярных исполнителей.

качество: VHSRip
формат: MP4
Видео: H.264/AVC,720X540 (4:3),4793 Кбит/сек Кбит/сек,50 кадр/сек
Аудио: AAC,126 Кбит/сек,48кГц.2 канала
Внимание! Раздача ведётся путём добавления новых выпусков; при каждом добавлении создаётся новый торрент. Чтобы начать докачку нового выпуска, пользователям необходимо сделать следующее:
(1) остановить скачивание,
(2) удалить старый торрент у себя из клиента (старые серии удалять не надо),
(3) скачать новый торрент и запустить его у себя в клиенте вместо старого, при этом указать клиенту путь в старую папку куда и должно происходить скачивание новых выпусков.

Ваш клиент при этом должен произвести хеширование (проверку) старой папки (если не производит сам - помогите ему сделать это). В результате он будет докачивать только те выпуски, которых у Вас ещё нет. Старые выпуски при этом не удаляются, а продолжают раздаваться!

Eсли Вы уже удалили старые выпуски, то предотвратить их повторную закачку можно, сняв галочки в соответствующих местах при запуске нового торрента. По возможности, желательно не удалять старые выпуски как можно дольше, чтобы релизёр не только продолжал раздавать старые выпуски, но и смог сконцентрироваться на новых.
Общее
Формат : MPEG-4
Профиль формата : Base Media / Version 2
Идентификатор кодека : mp42
Размер файла : 1,51 Гбайт
Продолжительность : 43 м.
Режим общего битрейта : Переменный
Общий поток : 4924 Кбит/сек
Дата кодирования : UTC 2015-10-10 20:39:59
Дата пометки : UTC 2015-10-10 20:39:59

Видео
Идентификатор : 1
Формат : AVC
Формат/Информация : Advanced Video Codec
Профиль формата : High@L3.0
Параметр CABAC формата : Да
Параметр ReFrames формата : 4 кадра
Идентификатор кодека : avc1
Идентификатор кодека/Информация : Advanced Video Coding
Продолжительность : 43 м.
Вид битрейта : Переменный
Битрейт : 4793 Кбит/сек
Максимальный битрейт : 11,5 Мбит/сек
Ширина : 720 пикселей
Высота : 540 пикселей
Соотношение сторон : 4:3
Режим частоты кадров : Постоянный
Частота кадров : 50 кадров/сек
Стандарт вещания : PAL
Цветовое пространство : YUV
Субдискретизация насыщенности : 4:2:0
Битовая глубина : 8 бит
Тип развёртки : Прогрессивная
Бит/(Пиксели*Кадры) : 0.493
Размер потока : 1,47 Гбайт (97%)
Язык : English
Дата кодирования : UTC 2015-10-10 20:39:59
Дата пометки : UTC 2015-10-10 20:39:59

Аудио
Идентификатор : 2
Формат : AAC
Формат/Информация : Advanced Audio Codec
Профиль формата : LC
Идентификатор кодека : 40
Продолжительность : 43 м.
Вид битрейта : Переменный
Битрейт : 126 Кбит/сек
Максимальный битрейт : 139 Кбит/сек
Каналы : 2 канала
Расположение каналов : Front: L R
Частота : 48,0 КГц
Метод сжатия : С потерями
Размер потока : 39,6 Мбайт (3%)
Заголовок : PCM 2-кан. 48KHz
Язык : English
Дата кодирования : UTC 2015-10-10 20:39:59
Дата пометки : UTC 2015-10-10 20:39:59
 
Не забывайте говорить Спасибо. Не уходите с раздачи!   
Торрент: Зарегистрирован [11 янв 2016, 04:11] Для скачивания .torrent
необходима регистрация
Или скачать с помощью
MediaGet
Статус:
Проверен
 
.torrent скачан: 1 раз
Хэш: 7f83793d81c5d7e0bec566c8f652dea1ab0615c2
Размер: 1.53 ГБ (1 642 517 206 байт)
Стать Автором раздачи
 
 
Раздал: 10 ГБ
Скачал: 8 МБ
Ратио: 1280.000
Сообщения: 234240
Зарегистрирован: 22 фев 2013, 11:10


  • Похожие торренты
    Ответы
    Просмотры
    Последнее сообщение

Вернуться в Социальные ток-шоу

Кто сейчас на конференции

Сейчас эту тему просматривают: нет зарегистрированных пользователей и гости: 1

Ресурс не предоставляет электронные версии произведений, а занимается лишь коллекционированием и каталогизацией ссылок, присылаемых и публикуемых на форуме нашими читателями. Если вы являетесь правообладателем какого-либо представленного материала и не желаете чтобы ссылка на него находилась в нашем каталоге, свяжитесь с нами и мы незамедлительно удалим её. Файлы для обмена на трекере предоставлены пользователями сайта, и администрация не несёт ответственности за их содержание. Просьба не заливать файлы, защищенные авторскими правами, а также файлы нелегального содержания!