(Classics) Herbert Von Karajan - 100 Best Karajan (6CD) - 2008, FLAC (image+.cue), lossless

 
 Статистика раздачи 
Размер: 1.9 ГБ   |  Зарегистрирован: 11 янв 2016, 03:25   |   .torrent скачан: 3 раз
Сидеров: 1  [ 0 байт/сек ]     Личеров: 0  [ 0 байт/сек ]  
  

(Classics) Herbert Von Karajan - 100 Best Karajan (6CD) - 2008, FLAC (image+.cue), lossless

Сообщение Seepas » 11 янв 2016, 03:25

Herbert Von Karajan - 100 Best Karajan (6CD)

Жанр: Classics
Год выпуска диска: 2008
Производитель диска: EU
Аудио кодек: FLAC
Тип рипа: image+.cue
Битрейт аудио: lossless
Трэклист:
Внутри спойлеров

Доп. информация:EMI Classics are very pleased to announce that we will be celebrating the 100th Anniversary of the birth of Herbert von Karajan, arguably the greatest conductor of the 20th Century. This set features extracts from some of Karajan’s best loved recordings with the world’s greatest orchestras and soloists including James Galway, Dennis Brain, Anne-Sophie Mutter, Maurice André, Elisabeth Schwarzkopf, and both the Berlin and Vienna Philharmonic orchestras.
Трэклист:
CD 1: KARAJAN CONDUCTS MOZART

Eine kleine Nachtmusik (Serenade in G, K525)
I. Allegro
II. Romanze (Andante)
III. Menuetto (Allegretto)
IV. Rondo (Allegro)
Berliner Philharmoniker (P) 1961/1988*

Flute & Harp Concerto in C K299:
II. Andantino (extract)
James Galway flute / Fritz Helmis harp
Berliner Philharmoniker / Herbert von Karajan (P) 1972/1985*

‘Sleigh Ride’ German Dance K605 No.3
Berliner Philharmoniker (P) 1961/1988*

Clarinet Concerto in A K622:
II. Adagio
Bernard Walton clarinet
Philharmonia Orchestra (P) 1957/1989* MONO

Horn Concerto No.4 in E flat K495:
III. Rondo (Allegro vivace)
Dennis Brain horn
Philharmonia Orchestra (P) 1954/1997* MONO

Die Zauberflöte
Overture
Der Vogelfänger bin ich ja (Act I)
Der Hölle Rache (Act II)
Erich Kunz baritone / Wilma Lipp soprano
Wiener Philharmoniker (P) 1952/1999* MONO

Così fan tutte
Soave sia il vento (Act I)
Elisabeth Schwarzkopf soprano / Nan Merriman mezzo-soprano
Sesto Bruscantini bass Wiener Philharmoniker (P) 1955/1999* MONO

Ave verum corpus K618
Singverein der Gesellschaft der Musikfreunde in Wien Philharmonia Orchestra (P) 1961/1990* MONO

Symphony No.29 in A K201
I. Allegro moderato (extract)
Berliner Philharmoniker (P) 1960/1996

Oboe Concerto in B flat K314
III. Rondo (Allegretto)
Lothar Koch oboe
Berliner Philharmoniker (P) 1972/1987*

Symphony No.40 in G minor K550
I. Molto allegro
Berliner Philharmoniker (P) 1971/1996*
Код: Выделить всё
X Lossless Decoder version 20090320 (105.1)

XLD extraction logfile from 2009-04-25 21:46:23 +0400

Herbert von Karajan / 100 Best Karajan CD1: KARAJAN CONDUCTS MOZART

Used drive : MATSHITA DVD-R   UJ-875 (revision DA09)

Use cdparanoia mode     : YES (CDParanoia III 10.2 engine)
Disable audio cache     : OK for the drive with cache less than 2750KB
Make use of C2 pointers : NO
Read offset correction  : 102
Max retry count         : 100

TOC of the extracted CD
     Track |   Start  |  Length  | Start sector | End sector
    ---------------------------------------------------------
        1  | 00:00:00 | 05:44:24 |         0    |    25823
        2  | 05:44:24 | 05:56:33 |     25824    |    52556
        3  | 11:40:57 | 02:23:35 |     52557    |    63316
        4  | 14:04:17 | 03:21:30 |     63317    |    78421
        5  | 17:25:47 | 04:00:54 |     78422    |    96475
        6  | 21:26:26 | 02:46:10 |     96476    |   108935
        7  | 24:12:36 | 08:11:31 |    108936    |   145791
        8  | 32:23:67 | 03:34:49 |    145792    |   161890
        9  | 35:58:41 | 07:07:21 |    161891    |   193936
       10  | 43:05:62 | 02:40:66 |    193937    |   206002
       11  | 45:46:53 | 02:52:42 |    206003    |   218944
       12  | 48:39:20 | 03:25:11 |    218945    |   234330
       13  | 52:04:31 | 04:00:11 |    234331    |   252341
       14  | 56:04:42 | 05:18:14 |    252342    |   276205
       15  | 61:22:56 | 05:31:25 |    276206    |   301055
       16  | 66:54:06 | 07:42:67 |    301056    |   335772
       17  | 77:08:73 | 02:00:13 |    347173    |   356185

All Tracks
    Filename : /Volumes/NO NAME/100 Best Karajan CD1пЉЪ KARAJAN CONDUCTS MOZART.flac
    CRC32 hash             : F135D7DA
    CRC32 hash (skip zero) : A45593D2
    Statistics
        Read error                           : 0
        Skipped (treated as error)           : 0
        Edge jitter error (maybe fixed)      : 2
        Atom jitter error (maybe fixed)      : 1
        Drift error (maybe fixed)            : 0
        Dropped bytes error (maybe fixed)    : 1
        Duplicated bytes error (maybe fixed) : 1

Track 01
    CRC32 hash             : 9989176E
    CRC32 hash (skip zero) : 48A4FB21
    AccurateRip signature  : 4CAF0F20
        ->Track not present in AccurateRip database.
    Statistics
        Read error                           : 0
        Skipped (treated as error)           : 0
        Edge jitter error (maybe fixed)      : 0
        Atom jitter error (maybe fixed)      : 0
        Drift error (maybe fixed)            : 0
        Dropped bytes error (maybe fixed)    : 0
        Duplicated bytes error (maybe fixed) : 0

Track 02
    CRC32 hash             : A7F03A3D
    CRC32 hash (skip zero) : 82384C43
    AccurateRip signature  : 3C7C3BCA
        ->Track not present in AccurateRip database.
    Statistics
        Read error                           : 0
        Skipped (treated as error)           : 0
        Edge jitter error (maybe fixed)      : 2
        Atom jitter error (maybe fixed)      : 1
        Drift error (maybe fixed)            : 0
        Dropped bytes error (maybe fixed)    : 1
        Duplicated bytes error (maybe fixed) : 1

Track 03
    CRC32 hash             : A3C63BB5
    CRC32 hash (skip zero) : 011DBF75
    AccurateRip signature  : 6D195908
        ->Track not present in AccurateRip database.
    Statistics
        Read error                           : 0
        Skipped (treated as error)           : 0
        Edge jitter error (maybe fixed)      : 0
        Atom jitter error (maybe fixed)      : 0
        Drift error (maybe fixed)            : 0
        Dropped bytes error (maybe fixed)    : 0
        Duplicated bytes error (maybe fixed) : 0

Track 04
    CRC32 hash             : 35B201BD
    CRC32 hash (skip zero) : DEE87BB7
    AccurateRip signature  : 778B5F73
        ->Track not present in AccurateRip database.
    Statistics
        Read error                           : 0
        Skipped (treated as error)           : 0
        Edge jitter error (maybe fixed)      : 0
        Atom jitter error (maybe fixed)      : 0
        Drift error (maybe fixed)            : 0
        Dropped bytes error (maybe fixed)    : 0
        Duplicated bytes error (maybe fixed) : 0

Track 05
    CRC32 hash             : 8B6011CC
    CRC32 hash (skip zero) : C32203D3
    AccurateRip signature  : CED87F0E
        ->Track not present in AccurateRip database.
    Statistics
        Read error                           : 0
        Skipped (treated as error)           : 0
        Edge jitter error (maybe fixed)      : 0
        Atom jitter error (maybe fixed)      : 0
        Drift error (maybe fixed)            : 0
        Dropped bytes error (maybe fixed)    : 0
        Duplicated bytes error (maybe fixed) : 0

Track 06
    CRC32 hash             : E7B69CB4
    CRC32 hash (skip zero) : DA39C122
    AccurateRip signature  : 67D154F5
        ->Track not present in AccurateRip database.
    Statistics
        Read error                           : 0
        Skipped (treated as error)           : 0
        Edge jitter error (maybe fixed)      : 0
        Atom jitter error (maybe fixed)      : 0
        Drift error (maybe fixed)            : 0
        Dropped bytes error (maybe fixed)    : 0
        Duplicated bytes error (maybe fixed) : 0

Track 07
    CRC32 hash             : CC0FA8B8
    CRC32 hash (skip zero) : 0EE09F7F
    AccurateRip signature  : 1BB10AA7
        ->Track not present in AccurateRip database.
    Statistics
        Read error                           : 0
        Skipped (treated as error)           : 0
        Edge jitter error (maybe fixed)      : 0
        Atom jitter error (maybe fixed)      : 0
        Drift error (maybe fixed)            : 0
        Dropped bytes error (maybe fixed)    : 0
        Duplicated bytes error (maybe fixed) : 0

Track 08
    CRC32 hash             : 8400E998
    CRC32 hash (skip zero) : FEACE633
    AccurateRip signature  : D9BCBA22
        ->Track not present in AccurateRip database.
    Statistics
        Read error                           : 0
        Skipped (treated as error)           : 0
        Edge jitter error (maybe fixed)      : 0
        Atom jitter error (maybe fixed)      : 0
        Drift error (maybe fixed)            : 0
        Dropped bytes error (maybe fixed)    : 0
        Duplicated bytes error (maybe fixed) : 0

Track 09
    CRC32 hash             : C98A2430
    CRC32 hash (skip zero) : 0B13EF0F
    AccurateRip signature  : 9A3A888B
        ->Track not present in AccurateRip database.
    Statistics
        Read error                           : 0
        Skipped (treated as error)           : 0
        Edge jitter error (maybe fixed)      : 0
        Atom jitter error (maybe fixed)      : 0
        Drift error (maybe fixed)            : 0
        Dropped bytes error (maybe fixed)    : 0
        Duplicated bytes error (maybe fixed) : 0

Track 10
    CRC32 hash             : 4AA3B1A5
    CRC32 hash (skip zero) : 37D373B4
    AccurateRip signature  : 58ACF57C
        ->Track not present in AccurateRip database.
    Statistics
        Read error                           : 0
        Skipped (treated as error)           : 0
        Edge jitter error (maybe fixed)      : 0
        Atom jitter error (maybe fixed)      : 0
        Drift error (maybe fixed)            : 0
        Dropped bytes error (maybe fixed)    : 0
        Duplicated bytes error (maybe fixed) : 0

Track 11
    CRC32 hash             : E63E17D5
    CRC32 hash (skip zero) : 9CE159BA
    AccurateRip signature  : D1645766
        ->Track not present in AccurateRip database.
    Statistics
        Read error                           : 0
        Skipped (treated as error)           : 0
        Edge jitter error (maybe fixed)      : 0
        Atom jitter error (maybe fixed)      : 0
        Drift error (maybe fixed)            : 0
        Dropped bytes error (maybe fixed)    : 0
        Duplicated bytes error (maybe fixed) : 0

Track 12
    CRC32 hash             : 9DC8691E
    CRC32 hash (skip zero) : 5B23F982
    AccurateRip signature  : 3FAD7666
        ->Track not present in AccurateRip database.
    Statistics
        Read error                           : 0
        Skipped (treated as error)           : 0
        Edge jitter error (maybe fixed)      : 0
        Atom jitter error (maybe fixed)      : 0
        Drift error (maybe fixed)            : 0
        Dropped bytes error (maybe fixed)    : 0
        Duplicated bytes error (maybe fixed) : 0

Track 13
    CRC32 hash             : DA1CB798
    CRC32 hash (skip zero) : 6A5A34DF
    AccurateRip signature  : B962F6D6
        ->Track not present in AccurateRip database.
    Statistics
        Read error                           : 0
        Skipped (treated as error)           : 0
        Edge jitter error (maybe fixed)      : 0
        Atom jitter error (maybe fixed)      : 0
        Drift error (maybe fixed)            : 0
        Dropped bytes error (maybe fixed)    : 0
        Duplicated bytes error (maybe fixed) : 0

Track 14
    CRC32 hash             : 8EC5243F
    CRC32 hash (skip zero) : FC966F79
    AccurateRip signature  : 1EA4DE6B
        ->Track not present in AccurateRip database.
    Statistics
        Read error                           : 0
        Skipped (treated as error)           : 0
        Edge jitter error (maybe fixed)      : 0
        Atom jitter error (maybe fixed)      : 0
        Drift error (maybe fixed)            : 0
        Dropped bytes error (maybe fixed)    : 0
        Duplicated bytes error (maybe fixed) : 0

Track 15
    CRC32 hash             : F18B8F6B
    CRC32 hash (skip zero) : 3B0DC61A
    AccurateRip signature  : 188D2A3F
        ->Track not present in AccurateRip database.
    Statistics
        Read error                           : 0
        Skipped (treated as error)           : 0
        Edge jitter error (maybe fixed)      : 0
        Atom jitter error (maybe fixed)      : 0
        Drift error (maybe fixed)            : 0
        Dropped bytes error (maybe fixed)    : 0
        Duplicated bytes error (maybe fixed) : 0

Track 16
    CRC32 hash             : B4BA1443
    CRC32 hash (skip zero) : 8ACEC968
    AccurateRip signature  : A05010C0
        ->Track not present in AccurateRip database.
    Statistics
        Read error                           : 0
        Skipped (treated as error)           : 0
        Edge jitter error (maybe fixed)      : 0
        Atom jitter error (maybe fixed)      : 0
        Drift error (maybe fixed)            : 0
        Dropped bytes error (maybe fixed)    : 0
        Duplicated bytes error (maybe fixed) : 0

No errors occurred

End of status report
Трэклист:
CD 2: THE GREAT CONCERTOS
VIVALDI
Le quattro stagioni
La primavera - I. Allegro
L’estate – III. Presto
L’autunno – III. Allegro
L’inverno – II. Largo
Anne-Sophie Mutter violin
Wiener Philharmoniker (P) 1984

HUMMEL
Trumpet Concerto in E flat (ed. Oubradous)
III: Rondo (Allegro molto)
Maurice André trumpet
Berliner Philharmoniker (P) 1974/1998*

BEETHOVEN
Piano Concerto No.1 in C Op.15
II. Largo (opening)
Alexis Weissenberg piano
Berliner Philharmoniker (P) 1978/1996*

BEETHOVEN
Piano Concerto No.2 in B flat Op.19
III. Rondo (Molto allegro)
Alexis Weissenberg piano
Berliner Philharmoniker / Herbert von Karajan (P) 1978/1996*

BEETHOVEN
Triple Concerto for Piano, Violin & Cello in C Op.56
II. Largo
Sviatoslav Richter piano David Oistrakh violin /
Mstislav Rostropovich cello
Berliner Philharmoniker / Herbert von Karajan (P) 1970/1996*

BEETHOVEN
Piano Concerto No.4 in G Op.58
II. Andante con moto
III. Rondo (Vivace) (extract)
Alexis Weissenberg piano
Berliner Philharmoniker (P) 1977/1996*

BEETHOVEN
Piano Concerto No.5 in E flat ‘Emperor’ Op.73
II. Adagio un poco mosso (conclusion)
III: Rondo (Allegro) (extract)
Alexis Weissenberg piano
Berliner Philharmoniker (P) 1974/1996*

TCHAIKOVSKY
Piano Concerto No.1 in B flat minor Op23
I. Allegro non troppo e molto maestoso (opening)
Alexis Weissenberg piano
Orchestre de Paris (P) 1970/2004*

RICHARD STRAUSS
Don Quixote Op.35 - 2 Theme
Mstislav Rostropovich cello
Berliner Phiolharmoniker (P) 1975/1996*

RACHMANINOV
Piano Concerto No.2 in C minor Op.18
II. Adagio sostenuto (opening)
Alexis Weissenberg piano
Berliner Philharmoniker (P) 1973/2004*

BRAHMS
Violin Concerto in D Op.77
III. Allegro giocoso, ma non troppo vivace (cadenza Kreisler)
Gidon Kremer violin
Berliner Philharmoniker (P) 1976/1996*
Код: Выделить всё
X Lossless Decoder version 20090320 (105.1)

XLD extraction logfile from 2009-04-25 22:01:26 +0400

Various Artists / Best karajan 100 (disc 2)

Used drive : MATSHITA DVD-R   UJ-875 (revision DA09)

Use cdparanoia mode     : YES (CDParanoia III 10.2 engine)
Disable audio cache     : OK for the drive with cache less than 2750KB
Make use of C2 pointers : NO
Read offset correction  : 102
Max retry count         : 100

TOC of the extracted CD
     Track |   Start  |  Length  | Start sector | End sector
    ---------------------------------------------------------
        1  | 00:00:00 | 03:20:23 |         0    |    15022
        2  | 03:20:23 | 02:47:51 |     15023    |    27598
        3  | 06:07:74 | 03:21:24 |     27599    |    42697
        4  | 09:29:23 | 02:02:59 |     42698    |    51906
        5  | 11:32:07 | 03:16:04 |     51907    |    66610
        6  | 14:48:11 | 03:40:17 |     66611    |    83127
        7  | 18:28:28 | 04:35:00 |     83128    |   103752
        8  | 23:03:28 | 05:54:58 |    103753    |   130360
        9  | 28:58:11 | 05:31:70 |    130361    |   155255
       10  | 34:30:06 | 05:09:22 |    155256    |   178452
       11  | 39:39:28 | 07:20:05 |    178453    |   211457
       12  | 46:59:33 | 04:28:02 |    211458    |   231559
       13  | 51:27:35 | 04:32:69 |    231560    |   252028
       14  | 56:00:29 | 04:00:37 |    252029    |   270065
       15  | 60:00:66 | 02:25:14 |    270066    |   280954
       16  | 62:26:05 | 05:04:09 |    280955    |   303763
       17  | 67:30:14 | 08:31:71 |    303764    |   342159

List of alternate offset correction values
        #  | Absolute | Relative | Confidence
    ------------------------------------------
        1  |    766   |    664   |      1

All Tracks
    Filename : /Volumes/NO NAME/Best karajan 100 (disc 2).flac
    CRC32 hash             : AA939919
    CRC32 hash (skip zero) : F2DA6C2F
    Statistics
        Read error                           : 0
        Skipped (treated as error)           : 0
        Edge jitter error (maybe fixed)      : 1
        Atom jitter error (maybe fixed)      : 0
        Drift error (maybe fixed)            : 0
        Dropped bytes error (maybe fixed)    : 1
        Duplicated bytes error (maybe fixed) : 1

Track 01
    CRC32 hash             : DE96359A
    CRC32 hash (skip zero) : 1F17BA37
    AccurateRip signature  : CFCD9638
        ->Accurately ripped! (confidence 1)
          (matched with the different offset correction value;
           calculated using an additional offset of 664;
           the signature after correction is: 01799940)
    Statistics
        Read error                           : 0
        Skipped (treated as error)           : 0
        Edge jitter error (maybe fixed)      : 0
        Atom jitter error (maybe fixed)      : 0
        Drift error (maybe fixed)            : 0
        Dropped bytes error (maybe fixed)    : 0
        Duplicated bytes error (maybe fixed) : 0

Track 02
    CRC32 hash             : 20C680D4
    CRC32 hash (skip zero) : 2BC36854
    AccurateRip signature  : 3B3A217D
        ->Accurately ripped! (confidence 1)
          (matched with the different offset correction value;
           calculated using an additional offset of 664;
           the signature after correction is: F1201865)
    Statistics
        Read error                           : 0
        Skipped (treated as error)           : 0
        Edge jitter error (maybe fixed)      : 0
        Atom jitter error (maybe fixed)      : 0
        Drift error (maybe fixed)            : 0
        Dropped bytes error (maybe fixed)    : 0
        Duplicated bytes error (maybe fixed) : 0

Track 03
    CRC32 hash             : D2BB6D93
    CRC32 hash (skip zero) : 180756DA
    AccurateRip signature  : CFEA7F52
        ->Accurately ripped! (confidence 1)
          (matched with the different offset correction value;
           calculated using an additional offset of 664;
           the signature after correction is: 1EB74ABA)
    Statistics
        Read error                           : 0
        Skipped (treated as error)           : 0
        Edge jitter error (maybe fixed)      : 0
        Atom jitter error (maybe fixed)      : 0
        Drift error (maybe fixed)            : 0
        Dropped bytes error (maybe fixed)    : 0
        Duplicated bytes error (maybe fixed) : 0

Track 04
    CRC32 hash             : A0D82819
    CRC32 hash (skip zero) : CD916570
    AccurateRip signature  : 232594DC
        ->Accurately ripped! (confidence 1)
          (matched with the different offset correction value;
           calculated using an additional offset of 664;
           the signature after correction is: F4CF272C)
    Statistics
        Read error                           : 0
        Skipped (treated as error)           : 0
        Edge jitter error (maybe fixed)      : 0
        Atom jitter error (maybe fixed)      : 0
        Drift error (maybe fixed)            : 0
        Dropped bytes error (maybe fixed)    : 0
        Duplicated bytes error (maybe fixed) : 0

Track 05
    CRC32 hash             : 492ADFEB
    CRC32 hash (skip zero) : 3586B80D
    AccurateRip signature  : 016DA439
        ->Accurately ripped! (confidence 1)
          (matched with the different offset correction value;
           calculated using an additional offset of 664;
           the signature after correction is: E4605761)
    Statistics
        Read error                           : 0
        Skipped (treated as error)           : 0
        Edge jitter error (maybe fixed)      : 0
        Atom jitter error (maybe fixed)      : 0
        Drift error (maybe fixed)            : 0
        Dropped bytes error (maybe fixed)    : 0
        Duplicated bytes error (maybe fixed) : 0

Track 06
    CRC32 hash             : 736AF412
    CRC32 hash (skip zero) : 0BBEBCFE
    AccurateRip signature  : B8094BB1
        ->Accurately ripped! (confidence 1)
          (matched with the different offset correction value;
           calculated using an additional offset of 664;
           the signature after correction is: 64636921)
    Statistics
        Read error                           : 0
        Skipped (treated as error)           : 0
        Edge jitter error (maybe fixed)      : 0
        Atom jitter error (maybe fixed)      : 0
        Drift error (maybe fixed)            : 0
        Dropped bytes error (maybe fixed)    : 0
        Duplicated bytes error (maybe fixed) : 0

Track 07
    CRC32 hash             : 302F3D70
    CRC32 hash (skip zero) : 148F4B80
    AccurateRip signature  : 432937AD
        ->Accurately ripped! (confidence 1)
          (matched with the different offset correction value;
           calculated using an additional offset of 664;
           the signature after correction is: B288DD7D)
    Statistics
        Read error                           : 0
        Skipped (treated as error)           : 0
        Edge jitter error (maybe fixed)      : 0
        Atom jitter error (maybe fixed)      : 0
        Drift error (maybe fixed)            : 0
        Dropped bytes error (maybe fixed)    : 0
        Duplicated bytes error (maybe fixed) : 0

Track 08
    CRC32 hash             : C6ADF163
    CRC32 hash (skip zero) : 9E1917CC
    AccurateRip signature  : 618A9604
        ->Accurately ripped! (confidence 1)
          (matched with the different offset correction value;
           calculated using an additional offset of 664;
           the signature after correction is: 4CB15E84)
    Statistics
        Read error                           : 0
        Skipped (treated as error)           : 0
        Edge jitter error (maybe fixed)      : 0
        Atom jitter error (maybe fixed)      : 0
        Drift error (maybe fixed)            : 0
        Dropped bytes error (maybe fixed)    : 0
        Duplicated bytes error (maybe fixed) : 0

Track 09
    CRC32 hash             : E456649B
    CRC32 hash (skip zero) : 9A235EE4
    AccurateRip signature  : 5A9BC9AB
        ->Accurately ripped! (confidence 1)
          (matched with the different offset correction value;
           calculated using an additional offset of 664;
           the signature after correction is: 1595DB1B)
    Statistics
        Read error                           : 0
        Skipped (treated as error)           : 0
        Edge jitter error (maybe fixed)      : 1
        Atom jitter error (maybe fixed)      : 0
        Drift error (maybe fixed)            : 0
        Dropped bytes error (maybe fixed)    : 1
        Duplicated bytes error (maybe fixed) : 1

Track 10
    CRC32 hash             : CFE451B2
    CRC32 hash (skip zero) : 61856662
    AccurateRip signature  : C8F1304C
        ->Accurately ripped! (confidence 1)
          (matched with the different offset correction value;
           calculated using an additional offset of 664;
           the signature after correction is: 948360F5)
    Statistics
        Read error                           : 0
        Skipped (treated as error)           : 0
        Edge jitter error (maybe fixed)      : 0
        Atom jitter error (maybe fixed)      : 0
        Drift error (maybe fixed)            : 0
        Dropped bytes error (maybe fixed)    : 0
        Duplicated bytes error (maybe fixed) : 0

Track 11
    CRC32 hash             : ED97C55B
    CRC32 hash (skip zero) : 214022E0
    AccurateRip signature  : 5A61DAAC
        ->Accurately ripped! (confidence 1)
          (matched with the different offset correction value;
           calculated using an additional offset of 664;
           the signature after correction is: AE9F0BE3)
    Statistics
        Read error                           : 0
        Skipped (treated as error)           : 0
        Edge jitter error (maybe fixed)      : 0
        Atom jitter error (maybe fixed)      : 0
        Drift error (maybe fixed)            : 0
        Dropped bytes error (maybe fixed)    : 0
        Duplicated bytes error (maybe fixed) : 0

Track 12
    CRC32 hash             : 80289734
    CRC32 hash (skip zero) : FFAA5F1E
    AccurateRip signature  : BB8B796D
        ->Accurately ripped! (confidence 1)
          (matched with the different offset correction value;
           calculated using an additional offset of 664;
           the signature after correction is: 9AF92E86)
    Statistics
        Read error                           : 0
        Skipped (treated as error)           : 0
        Edge jitter error (maybe fixed)      : 0
        Atom jitter error (maybe fixed)      : 0
        Drift error (maybe fixed)            : 0
        Dropped bytes error (maybe fixed)    : 0
        Duplicated bytes error (maybe fixed) : 0

Track 13
    CRC32 hash             : DC96D019
    CRC32 hash (skip zero) : 112F602B
    AccurateRip signature  : 17A8DB21
        ->Accurately ripped! (confidence 1)
          (matched with the different offset correction value;
           calculated using an additional offset of 664;
           the signature after correction is: B7F1D7B0)
    Statistics
        Read error                           : 0
        Skipped (treated as error)           : 0
        Edge jitter error (maybe fixed)      : 0
        Atom jitter error (maybe fixed)      : 0
        Drift error (maybe fixed)            : 0
        Dropped bytes error (maybe fixed)    : 0
        Duplicated bytes error (maybe fixed) : 0

Track 14
    CRC32 hash             : 426670AA
    CRC32 hash (skip zero) : 53A31955
    AccurateRip signature  : BF082B6C
        ->Accurately ripped! (confidence 1)
          (matched with the different offset correction value;
           calculated using an additional offset of 664;
           the signature after correction is: E7C094DC)
    Statistics
        Read error                           : 0
        Skipped (treated as error)           : 0
        Edge jitter error (maybe fixed)      : 0
        Atom jitter error (maybe fixed)      : 0
        Drift error (maybe fixed)            : 0
        Dropped bytes error (maybe fixed)    : 0
        Duplicated bytes error (maybe fixed) : 0

Track 15
    CRC32 hash             : A61F44F4
    CRC32 hash (skip zero) : C13FC1E4
    AccurateRip signature  : 2B475D1C
        ->Accurately ripped! (confidence 1)
          (matched with the different offset correction value;
           calculated using an additional offset of 664;
           the signature after correction is: 691A85C4)
    Statistics
        Read error                           : 0
        Skipped (treated as error)           : 0
        Edge jitter error (maybe fixed)      : 0
        Atom jitter error (maybe fixed)      : 0
        Drift error (maybe fixed)            : 0
        Dropped bytes error (maybe fixed)    : 0
        Duplicated bytes error (maybe fixed) : 0

Track 16
    CRC32 hash             : D9E5FAA0
    CRC32 hash (skip zero) : 436FAEFD
    AccurateRip signature  : 86E9DC80
        ->Accurately ripped! (confidence 1)
          (matched with the different offset correction value;
           calculated using an additional offset of 664;
           the signature after correction is: B39842D8)
    Statistics
        Read error                           : 0
        Skipped (treated as error)           : 0
        Edge jitter error (maybe fixed)      : 0
        Atom jitter error (maybe fixed)      : 0
        Drift error (maybe fixed)            : 0
        Dropped bytes error (maybe fixed)    : 0
        Duplicated bytes error (maybe fixed) : 0

Track 17
    CRC32 hash             : 50151F41
    CRC32 hash (skip zero) : 0B46264F
    AccurateRip signature  : 365A0860
        ->Accurately ripped! (confidence 1)
          (matched with the different offset correction value;
           calculated using an additional offset of 664;
           the signature after correction is: 508D9A08)
    Statistics
        Read error                           : 0
        Skipped (treated as error)           : 0
        Edge jitter error (maybe fixed)      : 0
        Atom jitter error (maybe fixed)      : 0
        Drift error (maybe fixed)            : 0
        Dropped bytes error (maybe fixed)    : 0
        Duplicated bytes error (maybe fixed) : 0

No errors occurred

End of status report
Трэклист:
CD 3: THE GREAT SYMPHONIES
BEETHOVEN
Symphony No.5 in C minor Op.67
I. Allegro con brio
Philharmonia Orchestra (P) 1955/2007* MONO

BEETHOVEN
Symphony No.6 in F ‘Pastoral’ Op.68
V. Allegretto (Shepherds’ Hymn after the Storm)
Philharmonia Orchestra (P) 1954/2007* MONO

BEETHOVEN
Symphony No.7 in A Op.92
II. Allegretto (opening)
IV. Allegro con brio
Philharmonia Orchestra (P) 1953/1989* MONO

BEETHOVEN
Symphony No.8 in F Op.93
II: Allegretto scherzando
IV: Allegro vivace (conclusion)
Philharmonia Orchestra / Herbert von Karajan (P) 1956/2007*

BEETHOVEN
Symphony No.9 in D minor ‘Choral’ Op.125
IV. Ode to Joy
Elisabeth Schwarzkopf soprano / Marga Höffgen contralto /
Ernst Haefliger tenor / Otto Edelmann bass
Singverein der Gesellschaft der Musikfreunde,
Wien Philharmonia Orchestra (P) 1956/1989* MONO

HAYDN
Symphony No.104 in D ‘London’
III. Menuetto (Allegro) & Trio 4.25
Berliner Philharmoniker (P) 1976/1996*

SCHUBERT
Symphony No.8 in B minor ‘Unfinished’ D759
I. Allegro moderato (opening)
Berliner Philharmoniker (P) 1976/1996*

DVORÁK
Symphony No.9 ‘From the New World’
II. Largo (opening)
Berliner Philharmoniker (P) 1977/1986*

TCHAIKOVSKY
Symphony No.5 in E minor Op.64
III. Valse (Allegro moderato)
Berliner Philharmoniker (P) 1972/1988*

TCHAIKOVSKY
Symphony No.6 in B minor Op.74
I. Adagio - Allegro non troppo (extract)
Philharmonia Orchestra (P) 1959/1990*

SIBELIUS
Symphony No.5 in E flat Op.82
III. Allegro molto – Largamente assai
Berliner Philharmoniker (P) 1977/2001*
Код: Выделить всё
X Lossless Decoder version 20090320 (105.1)

XLD extraction logfile from 2009-04-25 22:51:22 +0400

Herbert von Karajan / KARAJAN BEST 100 CD 3: THE GREAT SYMPHONIES

Used drive : OPTIARC DVD RW AD-7170A (revision 1.NC)

Use cdparanoia mode     : YES (CDParanoia III 10.2 engine)
Disable audio cache     : OK for the drive with cache less than 2750KB
Make use of C2 pointers : NO
Read offset correction  : 48
Max retry count         : 100

TOC of the extracted CD
     Track |   Start  |  Length  | Start sector | End sector
    ---------------------------------------------------------
        1  | 00:00:00 | 07:22:48 |         0    |    33197
        2  | 07:22:48 | 09:25:28 |     33198    |    75600
        3  | 16:48:01 | 03:16:44 |     75601    |    90344
        4  | 20:04:45 | 07:02:66 |     90345    |   122060
        5  | 27:07:36 | 03:58:64 |    122061    |   139974
        6  | 31:06:25 | 03:44:40 |    139975    |   156814
        7  | 34:50:65 | 05:16:51 |    156815    |   180565
        8  | 40:07:41 | 04:29:06 |    180566    |   200746
        9  | 44:36:47 | 04:10:66 |    200747    |   219562
       10  | 48:47:38 | 04:34:67 |    219563    |   240179
       11  | 53:22:30 | 06:19:64 |    240180    |   268668
       12  | 59:42:19 | 05:20:74 |    268669    |   292742
       13  | 65:03:18 | 09:11:60 |    292743    |   334127

All Tracks
    Filename : /Users/mac/Music/Ripping/100 Best Karajan/KARAJAN BEST 100 CD 3пЉЪ THE GREAT SYMPHONIES.flac
    CRC32 hash             : 03B0A64F
    CRC32 hash (skip zero) : 07347A08
    Statistics
        Read error                           : 0
        Skipped (treated as error)           : 0
        Edge jitter error (maybe fixed)      : 0
        Atom jitter error (maybe fixed)      : 0
        Drift error (maybe fixed)            : 0
        Dropped bytes error (maybe fixed)    : 0
        Duplicated bytes error (maybe fixed) : 0

Track 01
    CRC32 hash             : 0A146FB4
    CRC32 hash (skip zero) : 995E5490
    AccurateRip signature  : 4E1A92E8
        ->Accurately ripped! (confidence 1)
    Statistics
        Read error                           : 0
        Skipped (treated as error)           : 0
        Edge jitter error (maybe fixed)      : 0
        Atom jitter error (maybe fixed)      : 0
        Drift error (maybe fixed)            : 0
        Dropped bytes error (maybe fixed)    : 0
        Duplicated bytes error (maybe fixed) : 0

Track 02
    CRC32 hash             : 5768E08D
    CRC32 hash (skip zero) : EE876F39
    AccurateRip signature  : 19F992E4
        ->Accurately ripped! (confidence 1)
    Statistics
        Read error                           : 0
        Skipped (treated as error)           : 0
        Edge jitter error (maybe fixed)      : 0
        Atom jitter error (maybe fixed)      : 0
        Drift error (maybe fixed)            : 0
        Dropped bytes error (maybe fixed)    : 0
        Duplicated bytes error (maybe fixed) : 0

Track 03
    CRC32 hash             : 727ACB59
    CRC32 hash (skip zero) : 18285256
    AccurateRip signature  : 0490AC11
        ->Accurately ripped! (confidence 1)
    Statistics
        Read error                           : 0
        Skipped (treated as error)           : 0
        Edge jitter error (maybe fixed)      : 0
        Atom jitter error (maybe fixed)      : 0
        Drift error (maybe fixed)            : 0
        Dropped bytes error (maybe fixed)    : 0
        Duplicated bytes error (maybe fixed) : 0

Track 04
    CRC32 hash             : EB37BA80
    CRC32 hash (skip zero) : 663A511C
    AccurateRip signature  : 869E3231
        ->Accurately ripped! (confidence 1)
    Statistics
        Read error                           : 0
        Skipped (treated as error)           : 0
        Edge jitter error (maybe fixed)      : 0
        Atom jitter error (maybe fixed)      : 0
        Drift error (maybe fixed)            : 0
        Dropped bytes error (maybe fixed)    : 0
        Duplicated bytes error (maybe fixed) : 0

Track 05
    CRC32 hash             : BA7FDE16
    CRC32 hash (skip zero) : 98CA7CB8
    AccurateRip signature  : 59DF0CE6
        ->Accurately ripped! (confidence 1)
    Statistics
        Read error                           : 0
        Skipped (treated as error)           : 0
        Edge jitter error (maybe fixed)      : 0
        Atom jitter error (maybe fixed)      : 0
        Drift error (maybe fixed)            : 0
        Dropped bytes error (maybe fixed)    : 0
        Duplicated bytes error (maybe fixed) : 0

Track 06
    CRC32 hash             : 151E13D3
    CRC32 hash (skip zero) : 6F82F71C
    AccurateRip signature  : D81F1369
        ->Accurately ripped! (confidence 1)
    Statistics
        Read error                           : 0
        Skipped (treated as error)           : 0
        Edge jitter error (maybe fixed)      : 0
        Atom jitter error (maybe fixed)      : 0
        Drift error (maybe fixed)            : 0
        Dropped bytes error (maybe fixed)    : 0
        Duplicated bytes error (maybe fixed) : 0

Track 07
    CRC32 hash             : 2C102244
    CRC32 hash (skip zero) : 81A72ACC
    AccurateRip signature  : 016D8592
        ->Accurately ripped! (confidence 1)
    Statistics
        Read error                           : 0
        Skipped (treated as error)           : 0
        Edge jitter error (maybe fixed)      : 0
        Atom jitter error (maybe fixed)      : 0
        Drift error (maybe fixed)            : 0
        Dropped bytes error (maybe fixed)    : 0
        Duplicated bytes error (maybe fixed) : 0

Track 08
    CRC32 hash             : C91370A6
    CRC32 hash (skip zero) : 6CC4C810
    AccurateRip signature  : 1511D0B3
        ->Accurately ripped! (confidence 1)
    Statistics
        Read error                           : 0
        Skipped (treated as error)           : 0
        Edge jitter error (maybe fixed)      : 0
        Atom jitter error (maybe fixed)      : 0
        Drift error (maybe fixed)            : 0
        Dropped bytes error (maybe fixed)    : 0
        Duplicated bytes error (maybe fixed) : 0

Track 09
    CRC32 hash             : 868D2E09
    CRC32 hash (skip zero) : DA166488
    AccurateRip signature  : 0EC3E2D7
        ->Accurately ripped! (confidence 1)
    Statistics
        Read error                           : 0
        Skipped (treated as error)           : 0
        Edge jitter error (maybe fixed)      : 0
        Atom jitter error (maybe fixed)      : 0
        Drift error (maybe fixed)            : 0
        Dropped bytes error (maybe fixed)    : 0
        Duplicated bytes error (maybe fixed) : 0

Track 10
    CRC32 hash             : A372E4CB
    CRC32 hash (skip zero) : A312D78A
    AccurateRip signature  : 4077886C
        ->Accurately ripped! (confidence 1)
    Statistics
        Read error                           : 0
        Skipped (treated as error)           : 0
        Edge jitter error (maybe fixed)      : 0
        Atom jitter error (maybe fixed)      : 0
        Drift error (maybe fixed)            : 0
        Dropped bytes error (maybe fixed)    : 0
        Duplicated bytes error (maybe fixed) : 0

Track 11
    CRC32 hash             : 83E8976D
    CRC32 hash (skip zero) : 00F6FF7A
    AccurateRip signature  : 1A03BA62
        ->Accurately ripped! (confidence 1)
    Statistics
        Read error                           : 0
        Skipped (treated as error)           : 0
        Edge jitter error (maybe fixed)      : 0
        Atom jitter error (maybe fixed)      : 0
        Drift error (maybe fixed)            : 0
        Dropped bytes error (maybe fixed)    : 0
        Duplicated bytes error (maybe fixed) : 0

Track 12
    CRC32 hash             : E6FBFF66
    CRC32 hash (skip zero) : 2C262845
    AccurateRip signature  : 3632C896
        ->Accurately ripped! (confidence 1)
    Statistics
        Read error                           : 0
        Skipped (treated as error)           : 0
        Edge jitter error (maybe fixed)      : 0
        Atom jitter error (maybe fixed)      : 0
        Drift error (maybe fixed)            : 0
        Dropped bytes error (maybe fixed)    : 0
        Duplicated bytes error (maybe fixed) : 0

Track 13
    CRC32 hash             : B1AE8597
    CRC32 hash (skip zero) : 547D2B96
    AccurateRip signature  : EF71B71C
        ->Accurately ripped! (confidence 1)
    Statistics
        Read error                           : 0
        Skipped (treated as error)           : 0
        Edge jitter error (maybe fixed)      : 0
        Atom jitter error (maybe fixed)      : 0
        Drift error (maybe fixed)            : 0
        Dropped bytes error (maybe fixed)    : 0
        Duplicated bytes error (maybe fixed) : 0

No errors occurred

End of status report
Трэклист:
CD 4: POPULAR ORCHESTRAL PIECES
HANDEL
Water Music Suite (arr. Hamilton Harty)
V. Allegro deciso
Berliner Philharmoniker (P) 1961/1988*

JOHANN STRAUSS II
Unter Donner und Blitz - Polka
Philharmonia Orchestra (P) 1961/2005*

J. STRAUSS II
An der schönen blauen Donau Walzer, Op.314 (extract)
Berliner Philharmoniker / Herbert von Karajan (P) 1976/1987*

JOHANN STRAUSS I
Radetzky March
Philharmonia Orchestra (P) 1961/2005*

WALDTEUFEL
Skaters’ Waltz
Philharmonia Orchestra (P) 1961/2005*

BERLIOZ
Marche hongroise (La Damnation de Faust)
Berliner Philharmoniker (P) 1980/1989*

CHABRIER
España

CHABRIER
Marche joyeuse
Philharmonia Orchestra (P) 1961/2005*

JOHANN STRAUSS II
Tritsch-Tratsch – Polka
Berliner Philharmoniker (P) 1976/1985*

SMETANA
The Moldau (opening)
Berliner Philharmoniker (P) 1977/1986*

SIBELIUS
Valse triste
Berliner Philharmoniker (P) 1986

SIBELIUS
Karelia Suite, Op.11
I. Intermezzo
III. Alla marcia
Berliner Philharmoniker (P) 1981

BARTOK
Concerto for Orchestra
IV Intermezzo interrotto (Allegretto)
Berliner Philharmoniker (P) 1974/1989*

RESPIGHI
The Pines of Rome
I. The Pines of the Villa Borghese
IV. The Pines of the Via Appia
Код: Выделить всё
X Lossless Decoder version 20090320 (105.1)

XLD extraction logfile from 2009-04-25 23:04:40 +0400

Herbert von Karajan / 100 best Karajan - CD4 - Popular orchestral pieces

Used drive : OPTIARC DVD RW AD-7170A (revision 1.NC)

Use cdparanoia mode     : YES (CDParanoia III 10.2 engine)
Disable audio cache     : OK for the drive with cache less than 2750KB
Make use of C2 pointers : NO
Read offset correction  : 48
Max retry count         : 100

TOC of the extracted CD
     Track |   Start  |  Length  | Start sector | End sector
    ---------------------------------------------------------
        1  | 00:00:00 | 03:33:72 |         0    |    16046
        2  | 03:33:72 | 03:17:30 |     16047    |    30851
        3  | 06:51:27 | 03:48:66 |     30852    |    48017
        4  | 10:40:18 | 02:56:24 |     48018    |    61241
        5  | 13:36:42 | 07:36:56 |     61242    |    95497
        6  | 21:13:23 | 04:17:73 |     95498    |   114845
        7  | 25:31:21 | 06:00:39 |    114846    |   141884
        8  | 31:31:60 | 04:06:20 |    141885    |   160354
        9  | 35:38:05 | 02:40:10 |    160355    |   172364
       10  | 38:18:15 | 05:27:44 |    172365    |   196933
       11  | 43:45:59 | 06:04:55 |    196934    |   224288
       12  | 49:50:39 | 04:03:63 |    224289    |   242576
       13  | 53:54:27 | 04:59:65 |    242577    |   265066
       14  | 58:54:17 | 04:26:34 |    265067    |   285050
       15  | 63:20:51 | 02:51:42 |    285051    |   297917
       16  | 66:12:18 | 06:10:26 |    297918    |   325693

All Tracks
    Filename : /Users/mac/Music/Ripping/100 Best Karajan/100 best Karajan - CD4 - Popular orchestral pieces.flac
    CRC32 hash             : 1C0C0C1F
    CRC32 hash (skip zero) : CDF9DC39
    Statistics
        Read error                           : 0
        Skipped (treated as error)           : 0
        Edge jitter error (maybe fixed)      : 1
        Atom jitter error (maybe fixed)      : 0
        Drift error (maybe fixed)            : 0
        Dropped bytes error (maybe fixed)    : 1
        Duplicated bytes error (maybe fixed) : 0

Track 01
    CRC32 hash             : C57B73E7
    CRC32 hash (skip zero) : A5E56FFC
    AccurateRip signature  : F648BB21
        ->Accurately ripped! (confidence 1)
    Statistics
        Read error                           : 0
        Skipped (treated as error)           : 0
        Edge jitter error (maybe fixed)      : 0
        Atom jitter error (maybe fixed)      : 0
        Drift error (maybe fixed)            : 0
        Dropped bytes error (maybe fixed)    : 0
        Duplicated bytes error (maybe fixed) : 0

Track 02
    CRC32 hash             : C5C95033
    CRC32 hash (skip zero) : DC28BA94
    AccurateRip signature  : 32409E2F
        ->Accurately ripped! (confidence 1)
    Statistics
        Read error                           : 0
        Skipped (treated as error)           : 0
        Edge jitter error (maybe fixed)      : 0
        Atom jitter error (maybe fixed)      : 0
        Drift error (maybe fixed)            : 0
        Dropped bytes error (maybe fixed)    : 0
        Duplicated bytes error (maybe fixed) : 0

Track 03
    CRC32 hash             : 989219CC
    CRC32 hash (skip zero) : E1F8A0E6
    AccurateRip signature  : 93EFA4C0
        ->Accurately ripped! (confidence 1)
    Statistics
        Read error                           : 0
        Skipped (treated as error)           : 0
        Edge jitter error (maybe fixed)      : 0
        Atom jitter error (maybe fixed)      : 0
        Drift error (maybe fixed)            : 0
        Dropped bytes error (maybe fixed)    : 0
        Duplicated bytes error (maybe fixed) : 0

Track 04
    CRC32 hash             : 370A35AA
    CRC32 hash (skip zero) : EB90BE09
    AccurateRip signature  : 2D590E56
        ->Accurately ripped! (confidence 1)
    Statistics
        Read error                           : 0
        Skipped (treated as error)           : 0
        Edge jitter error (maybe fixed)      : 1
        Atom jitter error (maybe fixed)      : 0
        Drift error (maybe fixed)            : 0
        Dropped bytes error (maybe fixed)    : 1
        Duplicated bytes error (maybe fixed) : 0

Track 05
    CRC32 hash             : 41E12D3D
    CRC32 hash (skip zero) : DC9D709D
    AccurateRip signature  : AD18D046
        ->Accurately ripped! (confidence 1)
    Statistics
        Read error                           : 0
        Skipped (treated as error)           : 0
        Edge jitter error (maybe fixed)      : 0
        Atom jitter error (maybe fixed)      : 0
        Drift error (maybe fixed)            : 0
        Dropped bytes error (maybe fixed)    : 0
        Duplicated bytes error (maybe fixed) : 0

Track 06
    CRC32 hash             : F8E864D3
    CRC32 hash (skip zero) : AE706054
    AccurateRip signature  : A35F3DE3
        ->Accurately ripped! (confidence 1)
    Statistics
        Read error                           : 0
        Skipped (treated as error)           : 0
        Edge jitter error (maybe fixed)      : 0
        Atom jitter error (maybe fixed)      : 0
        Drift error (maybe fixed)            : 0
        Dropped bytes error (maybe fixed)    : 0
        Duplicated bytes error (maybe fixed) : 0

Track 07
    CRC32 hash             : E2C767D0
    CRC32 hash (skip zero) : 48BD5261
    AccurateRip signature  : 5B2F9C3B
        ->Accurately ripped! (confidence 1)
    Statistics
        Read error                           : 0
        Skipped (treated as error)           : 0
        Edge jitter error (maybe fixed)      : 0
        Atom jitter error (maybe fixed)      : 0
        Drift error (maybe fixed)            : 0
        Dropped bytes error (maybe fixed)    : 0
        Duplicated bytes error (maybe fixed) : 0

Track 08
    CRC32 hash             : 508C4B88
    CRC32 hash (skip zero) : 18ED2531
    AccurateRip signature  : 13B4694B
        ->Accurately ripped! (confidence 1)
    Statistics
        Read error                           : 0
        Skipped (treated as error)           : 0
        Edge jitter error (maybe fixed)      : 0
        Atom jitter error (maybe fixed)      : 0
        Drift error (maybe fixed)            : 0
        Dropped bytes error (maybe fixed)    : 0
        Duplicated bytes error (maybe fixed) : 0

Track 09
    CRC32 hash             : 4A11FB71
    CRC32 hash (skip zero) : B8E9D4AF
    AccurateRip signature  : 3C098FB4
        ->Accurately ripped! (confidence 1)
    Statistics
        Read error                           : 0
        Skipped (treated as error)           : 0
        Edge jitter error (maybe fixed)      : 0
        Atom jitter error (maybe fixed)      : 0
        Drift error (maybe fixed)            : 0
        Dropped bytes error (maybe fixed)    : 0
        Duplicated bytes error (maybe fixed) : 0

Track 10
    CRC32 hash             : D8B5AB38
    CRC32 hash (skip zero) : 63BAD7F4
    AccurateRip signature  : 1895F334
        ->Accurately ripped! (confidence 1)
    Statistics
        Read error                           : 0
        Skipped (treated as error)           : 0
        Edge jitter error (maybe fixed)      : 0
        Atom jitter error (maybe fixed)      : 0
        Drift error (maybe fixed)            : 0
        Dropped bytes error (maybe fixed)    : 0
        Duplicated bytes error (maybe fixed) : 0

Track 11
    CRC32 hash             : 7CC96A52
    CRC32 hash (skip zero) : A8EEB2D3
    AccurateRip signature  : BBEBE1BB
        ->Accurately ripped! (confidence 1)
    Statistics
        Read error                           : 0
        Skipped (treated as error)           : 0
        Edge jitter error (maybe fixed)      : 0
        Atom jitter error (maybe fixed)      : 0
        Drift error (maybe fixed)            : 0
        Dropped bytes error (maybe fixed)    : 0
        Duplicated bytes error (maybe fixed) : 0

Track 12
    CRC32 hash             : 69A3D516
    CRC32 hash (skip zero) : C0F3FC54
    AccurateRip signature  : DCB974A9
        ->Accurately ripped! (confidence 1)
    Statistics
        Read error                           : 0
        Skipped (treated as error)           : 0
        Edge jitter error (maybe fixed)      : 0
        Atom jitter error (maybe fixed)      : 0
        Drift error (maybe fixed)            : 0
        Dropped bytes error (maybe fixed)    : 0
        Duplicated bytes error (maybe fixed) : 0

Track 13
    CRC32 hash             : 00FD5424
    CRC32 hash (skip zero) : C6ACBA95
    AccurateRip signature  : 5286AAE5
        ->Accurately ripped! (confidence 1)
    Statistics
        Read error                           : 0
        Skipped (treated as error)           : 0
        Edge jitter error (maybe fixed)      : 0
        Atom jitter error (maybe fixed)      : 0
        Drift error (maybe fixed)            : 0
        Dropped bytes error (maybe fixed)    : 0
        Duplicated bytes error (maybe fixed) : 0

Track 14
    CRC32 hash             : 14B3B512
    CRC32 hash (skip zero) : 5D5FE687
    AccurateRip signature  : E7BACC33
        ->Accurately ripped! (confidence 1)
    Statistics
        Read error                           : 0
        Skipped (treated as error)           : 0
        Edge jitter error (maybe fixed)      : 0
        Atom jitter error (maybe fixed)      : 0
        Drift error (maybe fixed)            : 0
        Dropped bytes error (maybe fixed)    : 0
        Duplicated bytes error (maybe fixed) : 0

Track 15
    CRC32 hash             : 2401074A
    CRC32 hash (skip zero) : 6BE4C33B
    AccurateRip signature  : 5FBEB78F
        ->Accurately ripped! (confidence 1)
    Statistics
        Read error                           : 0
        Skipped (treated as error)           : 0
        Edge jitter error (maybe fixed)      : 0
        Atom jitter error (maybe fixed)      : 0
        Drift error (maybe fixed)            : 0
        Dropped bytes error (maybe fixed)    : 0
        Duplicated bytes error (maybe fixed) : 0

Track 16
    CRC32 hash             : 665FF826
    CRC32 hash (skip zero) : 7D8B95E0
    AccurateRip signature  : 80BC1A88
        ->Accurately ripped! (confidence 1)
    Statistics
        Read error                           : 0
        Skipped (treated as error)           : 0
        Edge jitter error (maybe fixed)      : 0
        Atom jitter error (maybe fixed)      : 0
        Drift error (maybe fixed)            : 0
        Dropped bytes error (maybe fixed)    : 0
        Duplicated bytes error (maybe fixed) : 0

No errors occurred

End of status report
Трэклист:
CD 5: KARAJAN IN THE THEATRE
ROSSINI
Il barbiere di Siviglia – Overture
Philharmonia Orchestra (P) 1961/1989*

GOUNOD
Faust Ballet Music – Les Nubiennes
Berliner Philharmoniker (P) 1980/1989*

BIZET
L’Arlésienne Suite No.2 - Farandole
Berliner Philharmoniker (P) 1980/1989*

BIZET
Carmen
Prelude to Act I
Entr’acte to Act II
Entr’acte to Act III
Entr’acte to Act IV
Philharmonia Orchestra (P) 1959/1990*

MASSENET
Thaïs - Meditation
Anne-Sophie Mutter violin Berliner Philharmoniker (P) 1981

OFFENBACH
Orphée aux enfers – Overture
Philharmonia Orchestra (P) 1961/2005*

OFFENBACH
Les Contes d’Hoffmann - Barcarolle
Philharmonia Orchestra (P) 1959/1996*

PUCCINI
Manon Lescaut – Intermezzo
Berliner Philharmoniker (P) 1981

BORODIN
Prince Igor
Dance of the Polovtsian Maidens (Act II)
Polovtsian Dances (Act II) (opening)
Philharmonia Orchestra (P) 1961/2005*

TCHAIKOVSKY
Swan Lake
Scene (Act II)
Dance of the Little Swans (Act II)
Hungarian Dance (Czardas) (Act III)
Philharmonia Orchestra (P) 1959/2007*

TCHAIKOVSKY
Sleeping Beauty
Valse (Act I)
Rose Adagio (Act I)
Philharmonia Orchestra (P) 1959/2007*

WEINBERGER
Schwanda the Bagpiper - Polka
Philharmonia Orchestra (P) 1981/2005*

WAGNER
Lohengrin – Prelude to Act III
Berliner Philharmoniker (P) 1975/1996*
Код: Выделить всё
X Lossless Decoder version 20090320 (105.1)

XLD extraction logfile from 2009-04-25 23:16:26 +0400

Herbert von Karajan / 100 best Karajan - CD5 - Karajan in the theatre

Used drive : MATSHITA DVD-R   UJ-875 (revision DA09)

Use cdparanoia mode     : YES (CDParanoia III 10.2 engine)
Disable audio cache     : OK for the drive with cache less than 2750KB
Make use of C2 pointers : NO
Read offset correction  : 102
Max retry count         : 100

TOC of the extracted CD
     Track |   Start  |  Length  | Start sector | End sector
    ---------------------------------------------------------
        1  | 00:00:00 | 07:20:70 |         0    |    33069
        2  | 07:20:70 | 02:36:01 |     33070    |    44770
        3  | 09:56:71 | 03:26:70 |     44771    |    60290
        4  | 13:23:66 | 02:18:66 |     60291    |    70706
        5  | 15:42:57 | 01:36:37 |     70707    |    77943
        6  | 17:19:19 | 02:59:15 |     77944    |    91383
        7  | 20:18:34 | 02:23:42 |     91384    |   102150
        8  | 22:42:01 | 06:48:03 |    102151    |   132753
        9  | 29:30:04 | 09:41:42 |    132754    |   176370
       10  | 39:11:46 | 04:09:19 |    176371    |   195064
       11  | 43:20:65 | 05:28:04 |    195065    |   219668
       12  | 48:48:69 | 02:26:02 |    219669    |   230620
       13  | 51:14:71 | 03:38:62 |    230621    |   247032
       14  | 54:53:58 | 02:43:41 |    247033    |   259298
       15  | 57:37:24 | 01:35:50 |    259299    |   266473
       16  | 59:12:74 | 03:31:03 |    266474    |   282301
       17  | 62:44:02 | 04:20:63 |    282302    |   301864
       18  | 67:04:65 | 06:12:18 |    301865    |   329782
       19  | 73:17:08 | 02:23:52 |    329783    |   340559
       20  | 75:40:60 | 03:16:25 |    340560    |   355284

All Tracks
    Filename : /Volumes/NO NAME/100 best Karajan - CD5 - Karajan in the theatre.flac
    CRC32 hash             : A2F30627
    CRC32 hash (skip zero) : 3F16963C
    Statistics
        Read error                           : 0
        Skipped (treated as error)           : 0
        Edge jitter error (maybe fixed)      : 0
        Atom jitter error (maybe fixed)      : 0
        Drift error (maybe fixed)            : 0
        Dropped bytes error (maybe fixed)    : 0
        Duplicated bytes error (maybe fixed) : 0

Track 01
    CRC32 hash             : 6F79895B
    CRC32 hash (skip zero) : 7D934966
    AccurateRip signature  : DBC33577
        ->Accurately ripped! (confidence 1)
    Statistics
        Read error                           : 0
        Skipped (treated as error)           : 0
        Edge jitter error (maybe fixed)      : 0
        Atom jitter error (maybe fixed)      : 0
        Drift error (maybe fixed)            : 0
        Dropped bytes error (maybe fixed)    : 0
        Duplicated bytes error (maybe fixed) : 0

Track 02
    CRC32 hash             : B1D0DA95
    CRC32 hash (skip zero) : 1C62842E
    AccurateRip signature  : 74463961
        ->Accurately ripped! (confidence 1)
    Statistics
        Read error                           : 0
        Skipped (treated as error)           : 0
        Edge jitter error (maybe fixed)      : 0
        Atom jitter error (maybe fixed)      : 0
        Drift error (maybe fixed)            : 0
        Dropped bytes error (maybe fixed)    : 0
        Duplicated bytes error (maybe fixed) : 0

Track 03
    CRC32 hash             : AE62A36D
    CRC32 hash (skip zero) : DFF6E4FF
    AccurateRip signature  : 25F6D78B
        ->Accurately ripped! (confidence 1)
    Statistics
        Read error                           : 0
        Skipped (treated as error)           : 0
        Edge jitter error (maybe fixed)      : 0
        Atom jitter error (maybe fixed)      : 0
        Drift error (maybe fixed)            : 0
        Dropped bytes error (maybe fixed)    : 0
        Duplicated bytes error (maybe fixed) : 0

Track 04
    CRC32 hash             : 52B713C8
    CRC32 hash (skip zero) : 0FA9BDC1
    AccurateRip signature  : 3DB93B91
        ->Accurately ripped! (confidence 1)
    Statistics
        Read error                           : 0
        Skipped (treated as error)           : 0
        Edge jitter error (maybe fixed)      : 0
        Atom jitter error (maybe fixed)      : 0
        Drift error (maybe fixed)            : 0
        Dropped bytes error (maybe fixed)    : 0
        Duplicated bytes error (maybe fixed) : 0

Track 05
    CRC32 hash             : 95CF5793
    CRC32 hash (skip zero) : DE34F3A1
    AccurateRip signature  : F2C3E49A
        ->Accurately ripped! (confidence 1)
    Statistics
        Read error                           : 0
        Skipped (treated as error)           : 0
        Edge jitter error (maybe fixed)      : 0
        Atom jitter error (maybe fixed)      : 0
        Drift error (maybe fixed)            : 0
        Dropped bytes error (maybe fixed)    : 0
        Duplicated bytes error (maybe fixed) : 0

Track 06
    CRC32 hash             : 6619FF23
    CRC32 hash (skip zero) : 9C0BC157
    AccurateRip signature  : F72721EA
        ->Accurately ripped! (confidence 1)
    Statistics
        Read error                           : 0
        Skipped (treated as error)           : 0
        Edge jitter error (maybe fixed)      : 0
        Atom jitter error (maybe fixed)      : 0
        Drift error (maybe fixed)            : 0
        Dropped bytes error (maybe fixed)    : 0
        Duplicated bytes error (maybe fixed) : 0

Track 07
    CRC32 hash             : 6F2A75D1
    CRC32 hash (skip zero) : 6D55F1B5
    AccurateRip signature  : CB65758C
        ->Accurately ripped! (confidence 1)
    Statistics
        Read error                           : 0
        Skipped (treated as error)           : 0
        Edge jitter error (maybe fixed)      : 0
        Atom jitter error (maybe fixed)      : 0
        Drift error (maybe fixed)            : 0
        Dropped bytes error (maybe fixed)    : 0
        Duplicated bytes error (maybe fixed) : 0

Track 08
    CRC32 hash             : 9CEEF0C5
    CRC32 hash (skip zero) : 196B0401
    AccurateRip signature  : 40D7AEDB
        ->Accurately ripped! (confidence 1)
    Statistics
        Read error                           : 0
        Skipped (treated as error)           : 0
        Edge jitter error (maybe fixed)      : 0
        Atom jitter error (maybe fixed)      : 0
        Drift error (maybe fixed)            : 0
        Dropped bytes error (maybe fixed)    : 0
        Duplicated bytes error (maybe fixed) : 0

Track 09
    CRC32 hash             : 41E45B43
    CRC32 hash (skip zero) : D0881F1A
    AccurateRip signature  : B0FEF846
        ->Accurately ripped! (confidence 1)
    Statistics
        Read error                           : 0
        Skipped (treated as error)           : 0
        Edge jitter error (maybe fixed)      : 0
        Atom jitter error (maybe fixed)      : 0
        Drift error (maybe fixed)            : 0
        Dropped bytes error (maybe fixed)    : 0
        Duplicated bytes error (maybe fixed) : 0

Track 10
    CRC32 hash             : 9A69B3B9
    CRC32 hash (skip zero) : 8BB73ACB
    AccurateRip signature  : 0A4CDCB2
        ->Accurately ripped! (confidence 1)
    Statistics
        Read error                           : 0
        Skipped (treated as error)           : 0
        Edge jitter error (maybe fixed)      : 0
        Atom jitter error (maybe fixed)      : 0
        Drift error (maybe fixed)            : 0
        Dropped bytes error (maybe fixed)    : 0
        Duplicated bytes error (maybe fixed) : 0

Track 11
    CRC32 hash             : 3859876E
    CRC32 hash (skip zero) : 132C2878
    AccurateRip signature  : A31171EB
        ->Accurately ripped! (confidence 1)
    Statistics
        Read error                           : 0
        Skipped (treated as error)           : 0
        Edge jitter error (maybe fixed)      : 0
        Atom jitter error (maybe fixed)      : 0
        Drift error (maybe fixed)            : 0
        Dropped bytes error (maybe fixed)    : 0
        Duplicated bytes error (maybe fixed) : 0

Track 12
    CRC32 hash             : DE4C8801
    CRC32 hash (skip zero) : 60970C9F
    AccurateRip signature  : 13FA0F64
        ->Accurately ripped! (confidence 1)
    Statistics
        Read error                           : 0
        Skipped (treated as error)           : 0
        Edge jitter error (maybe fixed)      : 0
        Atom jitter error (maybe fixed)      : 0
        Drift error (maybe fixed)            : 0
        Dropped bytes error (maybe fixed)    : 0
        Duplicated bytes error (maybe fixed) : 0

Track 13
    CRC32 hash             : 0BB42429
    CRC32 hash (skip zero) : B8700EDF
    AccurateRip signature  : 1FF32BFD
        ->Accurately ripped! (confidence 1)
    Statistics
        Read error                           : 0
        Skipped (treated as error)           : 0
        Edge jitter error (maybe fixed)      : 0
        Atom jitter error (maybe fixed)      : 0
        Drift error (maybe fixed)            : 0
        Dropped bytes error (maybe fixed)    : 0
        Duplicated bytes error (maybe fixed) : 0

Track 14
    CRC32 hash             : A30417A5
    CRC32 hash (skip zero) : CCE1D73A
    AccurateRip signature  : 07CA3E1A
        ->Accurately ripped! (confidence 1)
    Statistics
        Read error                           : 0
        Skipped (treated as error)           : 0
        Edge jitter error (maybe fixed)      : 0
        Atom jitter error (maybe fixed)      : 0
        Drift error (maybe fixed)            : 0
        Dropped bytes error (maybe fixed)    : 0
        Duplicated bytes error (maybe fixed) : 0

Track 15
    CRC32 hash             : 243C9854
    CRC32 hash (skip zero) : D8D7D9FF
    AccurateRip signature  : EC6BCB04
        ->Accurately ripped! (confidence 1)
    Statistics
        Read error                           : 0
        Skipped (treated as error)           : 0
        Edge jitter error (maybe fixed)      : 0
        Atom jitter error (maybe fixed)      : 0
        Drift error (maybe fixed)            : 0
        Dropped bytes error (maybe fixed)    : 0
        Duplicated bytes error (maybe fixed) : 0

Track 16
    CRC32 hash             : 2F75354F
    CRC32 hash (skip zero) : 2D825478
    AccurateRip signature  : 4A47AD66
        ->Accurately ripped! (confidence 1)
    Statistics
        Read error                           : 0
        Skipped (treated as error)           : 0
        Edge jitter error (maybe fixed)      : 0
        Atom jitter error (maybe fixed)      : 0
        Drift error (maybe fixed)            : 0
        Dropped bytes error (maybe fixed)    : 0
        Duplicated bytes error (maybe fixed) : 0

Track 17
    CRC32 hash             : DB7DA16E
    CRC32 hash (skip zero) : 16C6E339
    AccurateRip signature  : 89B10C0B
        ->Accurately ripped! (confidence 1)
    Statistics
        Read error                           : 0
        Skipped (treated as error)           : 0
        Edge jitter error (maybe fixed)      : 0
        Atom jitter error (maybe fixed)      : 0
        Drift error (maybe fixed)            : 0
        Dropped bytes error (maybe fixed)    : 0
        Duplicated bytes error (maybe fixed) : 0

Track 18
    CRC32 hash             : D60B5C6F
    CRC32 hash (skip zero) : 5AB20AE1
    AccurateRip signature  : 79DE3026
        ->Accurately ripped! (confidence 1)
    Statistics
        Read error                           : 0
        Skipped (treated as error)           : 0
        Edge jitter error (maybe fixed)      : 0
        Atom jitter error (maybe fixed)      : 0
        Drift error (maybe fixed)            : 0
        Dropped bytes error (maybe fixed)    : 0
        Duplicated bytes error (maybe fixed) : 0

Track 19
    CRC32 hash             : 986E8CD8
    CRC32 hash (skip zero) : 27986719
    AccurateRip signature  : 0668B1CE
        ->Accurately ripped! (confidence 1)
    Statistics
        Read error                           : 0
        Skipped (treated as error)           : 0
        Edge jitter error (maybe fixed)      : 0
        Atom jitter error (maybe fixed)      : 0
        Drift error (maybe fixed)            : 0
        Dropped bytes error (maybe fixed)    : 0
        Duplicated bytes error (maybe fixed) : 0

Track 20
    CRC32 hash             : 3E0A0DEC
    CRC32 hash (skip zero) : 0C0C4458
    AccurateRip signature  : 63A5092C
        ->Accurately ripped! (confidence 1)
    Statistics
        Read error                           : 0
        Skipped (treated as error)           : 0
        Edge jitter error (maybe fixed)      : 0
        Atom jitter error (maybe fixed)      : 0
        Drift error (maybe fixed)            : 0
        Dropped bytes error (maybe fixed)    : 0
        Duplicated bytes error (maybe fixed) : 0

No errors occurred

End of status report
Трэклист:
CD 6: VOCAL MUSIC
VERDI
Otello
Una vela! Una vela!...Esultate! (Act I)
Ave Maria (Act IV)
Mirella Freni soprano(2)
Jon Vickers, Aldo Bottion & Michel Sénéchal tenors (1)
Peter Glossop baritone (1) Mario Machi bass (1)
Chor der Deutschen Oper Berlin / Berliner Philharmoniker
(P) 1974/1988*

VERDI
Don Carlo
Dio, che nell’alma infondere (Act I)
Nei giardin del bello (Act II)
José Carreras tenor (3) Piero Cappuccilli baritone (3)
José Van Dam bass (3) Agnes Baltsa mezzo-soprano (4)
Edita Gruberova soprano (4)
Chor der Deutschen Oper Berlin / Berliner Philharmoniker
(P) 1979/1988*

VERDI Il trovatore
Vedi le fosche notturne spoglie (Anvil Chorus) (Act II, Scene 1)
Chor der Deutsche Oper Berlin / Berliner Philharmoniker
(P) 1978/1986*

BRAHMS
Ein deutsches Requiem
IV. Wie lieblich sind deine Wohnungen
Wiener Singverein / Berliner Philharmoniker
(P) 1977/1988*

RICHARD STRAUSS
Der Rosenkavalier
Herr Kavalier (Act II, Finale)
Kerstin Meyer mezzo-soprano / Otto Edelmann bass
Philharmonia Orchestra (P) 1957/2001*

HUMPERDINCK
Hansel und Gretel
Brüderchen, komm tanz mit mir (Act I)
Elisabeth Schwarzkopf & Elisabeth Grümmer sopranos
Philharmonia Orchestra (P) 1953/1999* MONO

BEETHOVEN
Fidelio
Mir ist so wunderbar (Act I)
Wer ein holdes Weib errungen (Act II Finale)
Helga Dernesch & Helen Donath sopranos
Jon Vickers & Horst R. Laubenthal tenors
José van Dam & Karl Ridderbusch basses
Chor der Deutschen Oper Berlin / Berliner Philharmoniker
(P) 1971/1988*

BEETHOVEN
Missa Solemnis
Gloria in excelsis Deo - Gratias agimus tibi
Gundula Janowitz soprano / Agnes Baltsa mezzo-soprano
Peter Schreier tenor / José Van Dam bass
Singverein der Gesellshaft der Musikfreunde, Wien
Berliner Philharmoniker (P) 1975/1988*

BACH Mass in B minor
Crucifixus
Et resurrexit
Singverein & Orchester der Gesellshaft der Musikfreunde, Wien
(P) 1954/1999* MONO

DONIZETTI
Lucia di Lammermoor
Spargi d’amaro pianto (Act III)
Maria Callas soprano
RIAS Sinfonie-Orchester Berlin (P) 1997* MONO
Recorded live at the Städtische Oper, Berlin 29 IX. 1955

VERDI
Aida
Gloria all’Egitto (Act II Scene 2)
Triumphal March (Act II Scene 2)
Ballet Music (Act II Scene 2)
Vieni, o guerriero vindice (Act II Scene 2)
Chor der Wiener Staatsoper / Wiener Philharmoniker
(P) 1980/1986*
Код: Выделить всё
X Lossless Decoder version 20090320 (105.1)

XLD extraction logfile from 2009-04-25 23:17:23 +0400

Herbert von Karajan / 100 best Karajan - CD6 - Karajan and the voice

Used drive : OPTIARC DVD RW AD-7170A (revision 1.NC)

Use cdparanoia mode     : YES (CDParanoia III 10.2 engine)
Disable audio cache     : OK for the drive with cache less than 2750KB
Make use of C2 pointers : NO
Read offset correction  : 48
Max retry count         : 100

TOC of the extracted CD
     Track |   Start  |  Length  | Start sector | End sector
    ---------------------------------------------------------
        1  | 00:00:00 | 06:29:69 |         0    |    29243
        2  | 06:29:69 | 05:01:25 |     29244    |    51843
        3  | 11:31:19 | 04:47:04 |     51844    |    73372
        4  | 16:18:23 | 04:53:30 |     73373    |    95377
        5  | 21:11:53 | 03:03:11 |     95378    |   109113
        6  | 24:14:64 | 05:30:64 |    109114    |   133927
        7  | 29:45:53 | 04:48:14 |    133928    |   155541
        8  | 34:33:67 | 03:45:47 |    155542    |   172463
        9  | 38:19:39 | 04:46:27 |    172464    |   193940
       10  | 43:05:66 | 04:05:61 |    193941    |   212376
       11  | 47:11:52 | 04:58:31 |    212377    |   234757
       12  | 52:10:08 | 02:47:41 |    234758    |   247323
       13  | 54:57:49 | 03:57:45 |    247324    |   265143
       14  | 58:55:19 | 04:09:49 |    265144    |   283867
       15  | 63:04:68 | 03:25:46 |    283868    |   299288
       16  | 66:30:39 | 01:43:09 |    299289    |   307022
       17  | 68:13:48 | 04:14:67 |    307023    |   326139
       18  | 72:28:40 | 02:27:03 |    326140    |   337167

List of alternate offset correction values
        #  | Absolute | Relative | Confidence
    ------------------------------------------
        1  |     66   |     18   |      1

All Tracks
    Filename : /Users/mac/Music/Ripping/100 Best Karajan/100 best Karajan - CD6 - Karajan and the voice.flac
    CRC32 hash             : 18AF32B1
    CRC32 hash (skip zero) : 6B075CC8
    Statistics
        Read error                           : 0
        Skipped (treated as error)           : 0
        Edge jitter error (maybe fixed)      : 1
        Atom jitter error (maybe fixed)      : 1
        Drift error (maybe fixed)            : 0
        Dropped bytes error (maybe fixed)    : 0
        Duplicated bytes error (maybe fixed) : 1

Track 01
    CRC32 hash             : 67D03321
    CRC32 hash (skip zero) : DD0C9A94
    AccurateRip signature  : 94D61937
        ->Accurately ripped! (confidence 1)
          (matched with the different offset correction value;
           calculated using an additional offset of 18;
           the signature after correction is: D3D6F733)
    Statistics
        Read error                           : 0
        Skipped (treated as error)           : 0
        Edge jitter error (maybe fixed)      : 0
        Atom jitter error (maybe fixed)      : 0
        Drift error (maybe fixed)            : 0
        Dropped bytes error (maybe fixed)    : 0
        Duplicated bytes error (maybe fixed) : 0

Track 02
    CRC32 hash             : D9D12736
    CRC32 hash (skip zero) : D398AC92
    AccurateRip signature  : 40A789E5
        ->Accurately ripped! (confidence 1)
          (matched with the different offset correction value;
           calculated using an additional offset of 18;
           the signature after correction is: 1FD311BD)
    Statistics
        Read error                           : 0
        Skipped (treated as error)           : 0
        Edge jitter error (maybe fixed)      : 0
        Atom jitter error (maybe fixed)      : 0
        Drift error (maybe fixed)            : 0
        Dropped bytes error (maybe fixed)    : 0
        Duplicated bytes error (maybe fixed) : 0

Track 03
    CRC32 hash             : B2CE1CDC
    CRC32 hash (skip zero) : C6950B25
    AccurateRip signature  : 4BED7772
        ->Accurately ripped! (confidence 1)
          (matched with the different offset correction value;
           calculated using an additional offset of 18;
           the signature after correction is: 32952C12)
    Statistics
        Read error                           : 0
        Skipped (treated as error)           : 0
        Edge jitter error (maybe fixed)      : 0
        Atom jitter error (maybe fixed)      : 0
        Drift error (maybe fixed)            : 0
        Dropped bytes error (maybe fixed)    : 0
        Duplicated bytes error (maybe fixed) : 0

Track 04
    CRC32 hash             : 85144EEA
    CRC32 hash (skip zero) : 9C32E042
    AccurateRip signature  : D2F8EBCA
        ->Accurately ripped! (confidence 1)
          (matched with the different offset correction value;
           calculated using an additional offset of 18;
           the signature after correction is: 87F1D93E)
    Statistics
        Read error                           : 0
        Skipped (treated as error)           : 0
        Edge jitter error (maybe fixed)      : 0
        Atom jitter error (maybe fixed)      : 0
        Drift error (maybe fixed)            : 0
        Dropped bytes error (maybe fixed)    : 0
        Duplicated bytes error (maybe fixed) : 0

Track 05
    CRC32 hash             : 1375BD4D
    CRC32 hash (skip zero) : 38D6A649
    AccurateRip signature  : 63ECB476
        ->Accurately ripped! (confidence 1)
          (matched with the different offset correction value;
           calculated using an additional offset of 18;
           the signature after correction is: 2C36CEF6)
    Statistics
        Read error                           : 0
        Skipped (treated as error)           : 0
        Edge jitter error (maybe fixed)      : 1
        Atom jitter error (maybe fixed)      : 0
        Drift error (maybe fixed)            : 0
        Dropped bytes error (maybe fixed)    : 0
        Duplicated bytes error (maybe fixed) : 1

Track 06
    CRC32 hash             : 799BBE06
    CRC32 hash (skip zero) : 2D47698E
    AccurateRip signature  : 04C408B2
        ->Accurately ripped! (confidence 1)
          (matched with the different offset correction value;
           calculated using an additional offset of 18;
           the signature after correction is: 3F7413D0)
    Statistics
        Read error                           : 0
        Skipped (treated as error)           : 0
        Edge jitter error (maybe fixed)      : 0
        Atom jitter error (maybe fixed)      : 0
        Drift error (maybe fixed)            : 0
        Dropped bytes error (maybe fixed)    : 0
        Duplicated bytes error (maybe fixed) : 0

Track 07
    CRC32 hash             : BBC27311
    CRC32 hash (skip zero) : 3F817337
    AccurateRip signature  : C78AF4F6
        ->Accurately ripped! (confidence 1)
          (matched with the different offset correction value;
           calculated using an additional offset of 18;
           the signature after correction is: 07091326)
    Statistics
        Read error                           : 0
        Skipped (treated as error)           : 0
        Edge jitter error (maybe fixed)      : 0
        Atom jitter error (maybe fixed)      : 0
        Drift error (maybe fixed)            : 0
        Dropped bytes error (maybe fixed)    : 0
        Duplicated bytes error (maybe fixed) : 0

Track 08
    CRC32 hash             : 37A5FAC2
    CRC32 hash (skip zero) : AB19A420
    AccurateRip signature  : E1C08FC8
        ->Accurately ripped! (confidence 1)
          (matched with the different offset correction value;
           calculated using an additional offset of 18;
           the signature after correction is: 0D1E2568)
    Statistics
        Read error                           : 0
        Skipped (treated as error)           : 0
        Edge jitter error (maybe fixed)      : 0
        Atom jitter error (maybe fixed)      : 0
        Drift error (maybe fixed)            : 0
        Dropped bytes error (maybe fixed)    : 0
        Duplicated bytes error (maybe fixed) : 0

Track 09
    CRC32 hash             : C209B596
    CRC32 hash (skip zero) : 03328B8B
    AccurateRip signature  : 6E7D0C00
        ->Accurately ripped! (confidence 1)
          (matched with the different offset correction value;
           calculated using an additional offset of 18;
           the signature after correction is: CA4B1836)
    Statistics
        Read error                           : 0
        Skipped (treated as error)           : 0
        Edge jitter error (maybe fixed)      : 0
        Atom jitter error (maybe fixed)      : 0
        Drift error (maybe fixed)            : 0
        Dropped bytes error (maybe fixed)    : 0
        Duplicated bytes error (maybe fixed) : 0

Track 10
    CRC32 hash             : 55F8F7C9
    CRC32 hash (skip zero) : 9D0497DD
    AccurateRip signature  : 59424984
        ->Accurately ripped! (confidence 1)
          (matched with the different offset correction value;
           calculated using an additional offset of 18;
           the signature after correction is: 866C96F0)
    Statistics
        Read error                           : 0
        Skipped (treated as error)           : 0
        Edge jitter error (maybe fixed)      : 0
        Atom jitter error (maybe fixed)      : 0
        Drift error (maybe fixed)            : 0
        Dropped bytes error (maybe fixed)    : 0
        Duplicated bytes error (maybe fixed) : 0

Track 11
    CRC32 hash             : 254D4E37
    CRC32 hash (skip zero) : B563C436
    AccurateRip signature  : 63D5C6F3
        ->Accurately ripped! (confidence 1)
          (matched with the different offset correction value;
           calculated using an additional offset of 18;
           the signature after correction is: C43AFEFF)
    Statistics
        Read error                           : 0
        Skipped (treated as error)           : 0
        Edge jitter error (maybe fixed)      : 0
        Atom jitter error (maybe fixed)      : 0
        Drift error (maybe fixed)            : 0
        Dropped bytes error (maybe fixed)    : 0
        Duplicated bytes error (maybe fixed) : 0

Track 12
    CRC32 hash             : EAF23E4A
    CRC32 hash (skip zero) : DF71439A
    AccurateRip signature  : E9439754
        ->Accurately ripped! (confidence 1)
          (matched with the different offset correction value;
           calculated using an additional offset of 18;
           the signature after correction is: 8E430439)
    Statistics
        Read error                           : 0
        Skipped (treated as error)           : 0
        Edge jitter error (maybe fixed)      : 0
        Atom jitter error (maybe fixed)      : 0
        Drift error (maybe fixed)            : 0
        Dropped bytes error (maybe fixed)    : 0
        Duplicated bytes error (maybe fixed) : 0

Track 13
    CRC32 hash             : 9CABD004
    CRC32 hash (skip zero) : A3886152
    AccurateRip signature  : E210C1A4
        ->Accurately ripped! (confidence 1)
          (matched with the different offset correction value;
           calculated using an additional offset of 18;
           the signature after correction is: 4FCAD4D7)
    Statistics
        Read error                           : 0
        Skipped (treated as error)           : 0
        Edge jitter error (maybe fixed)      : 0
        Atom jitter error (maybe fixed)      : 0
        Drift error (maybe fixed)            : 0
        Dropped bytes error (maybe fixed)    : 0
        Duplicated bytes error (maybe fixed) : 0

Track 14
    CRC32 hash             : E86B5F88
    CRC32 hash (skip zero) : 36D0D3C7
    AccurateRip signature  : 76C7B8BB
        ->Accurately ripped! (confidence 1)
          (matched with the different offset correction value;
           calculated using an additional offset of 18;
           the signature after correction is: 94EBED6B)
    Statistics
        Read error                           : 0
        Skipped (treated as error)           : 0
        Edge jitter error (maybe fixed)      : 0
        Atom jitter error (maybe fixed)      : 0
        Drift error (maybe fixed)            : 0
        Dropped bytes error (maybe fixed)    : 0
        Duplicated bytes error (maybe fixed) : 0

Track 15
    CRC32 hash             : A1C124C1
    CRC32 hash (skip zero) : E0DEF616
    AccurateRip signature  : 8ACE26C7
        ->Accurately ripped! (confidence 1)
          (matched with the different offset correction value;
           calculated using an additional offset of 18;
           the signature after correction is: 3BD00851)
    Statistics
        Read error                           : 0
        Skipped (treated as error)           : 0
        Edge jitter error (maybe fixed)      : 0
        Atom jitter error (maybe fixed)      : 0
        Drift error (maybe fixed)            : 0
        Dropped bytes error (maybe fixed)    : 0
        Duplicated bytes error (maybe fixed) : 0

Track 16
    CRC32 hash             : 0704AA22
    CRC32 hash (skip zero) : 5018C4EA
    AccurateRip signature  : EE4F7CF0
        ->Accurately ripped! (confidence 1)
          (matched with the different offset correction value;
           calculated using an additional offset of 18;
           the signature after correction is: 8BD65771)
    Statistics
        Read error                           : 0
        Skipped (treated as error)           : 0
        Edge jitter error (maybe fixed)      : 0
        Atom jitter error (maybe fixed)      : 0
        Drift error (maybe fixed)            : 0
        Dropped bytes error (maybe fixed)    : 0
        Duplicated bytes error (maybe fixed) : 0

Track 17
    CRC32 hash             : 65CB0CB3
    CRC32 hash (skip zero) : 8920D3C1
    AccurateRip signature  : C0101CB3
        ->Accurately ripped! (confidence 1)
          (matched with the different offset correction value;
           calculated using an additional offset of 18;
           the signature after correction is: 168C36D5)
    Statistics
        Read error                           : 0
        Skipped (treated as error)           : 0
        Edge jitter error (maybe fixed)      : 0
        Atom jitter error (maybe fixed)      : 0
        Drift error (maybe fixed)            : 0
        Dropped bytes error (maybe fixed)    : 0
        Duplicated bytes error (maybe fixed) : 0

Track 18
    CRC32 hash             : 4A5DE690
    CRC32 hash (skip zero) : C0D250EE
    AccurateRip signature  : 5089A65E
        ->Accurately ripped! (confidence 1)
          (matched with the different offset correction value;
           calculated using an additional offset of 18;
           the signature after correction is: A07B92A3)
    Statistics
        Read error                           : 0
        Skipped (treated as error)           : 0
        Edge jitter error (maybe fixed)      : 0
        Atom jitter error (maybe fixed)      : 1
        Drift error (maybe fixed)            : 0
        Dropped bytes error (maybe fixed)    : 0
        Duplicated bytes error (maybe fixed) : 0

No errors occurred

End of status report
Серия 100 BEST
100 Best Menuhin
100 Best Adagio Voices
100 Best Guitar
100 Best Vivaldi
100 Best romantic classics
100 Best piano classics
100 Best Classics Vol. 2
100 Best Carols
100 Best Relaxing Classics
100 Best Tenor Arias
100 Best Encores
100 Best Ballet
100 Best Baroque
100 Best Opera Classics
100 Best Sacred
 
Не забывайте говорить Спасибо. Не уходите с раздачи!   
Торрент: Зарегистрирован [11 янв 2016, 03:25] Скачать торрент
Скачать торрент
[ Размер 39.78 КБ / Просмотров 108 ]
Статус:
Проверен
 
.torrent скачан: 3 раз
Хэш: 0a193a12cb05b84c8dfb88f5449e96180f71f11a
Размер: 1.9 ГБ (2 037 248 068 байт)
Стать Автором раздачи
 
 
Раздал: 0 байт
Скачал: 0 байт
Ратио: Inf.
Сообщения: 188877
Зарегистрирован: 14 июн 2014, 20:46


  • Похожие торренты
    Ответы
    Просмотры
    Последнее сообщение

Вернуться в Полные собрания сочинений и многодисковые издания (lossless)

Ресурс не предоставляет электронные версии произведений, а занимается лишь коллекционированием и каталогизацией ссылок, присылаемых и публикуемых на форуме нашими читателями. Если вы являетесь правообладателем какого-либо представленного материала и не желаете чтобы ссылка на него находилась в нашем каталоге, свяжитесь с нами и мы незамедлительно удалим её. Файлы для обмена на трекере предоставлены пользователями сайта, и администрация не несёт ответственности за их содержание. Просьба не заливать файлы, защищенные авторскими правами, а также файлы нелегального содержания!