(Classical) Polish Collection of the Warsaw Autumn 1956-2005 - FLAC (image+.cue), lossless

 
 Статистика раздачи 
Размер: 3.15 ГБ   |  Зарегистрирован: 11 янв 2016, 02:36   |   .torrent скачан: 1 раз
Сидеров: 1  [ 0 байт/сек ]     Личеров: 0  [ 0 байт/сек ]  
  

(Classical) Polish Collection of the Warsaw Autumn 1956-2005 - FLAC (image+.cue), lossless

Сообщение BitFire » 11 янв 2016, 02:36

(Classical) Polish Collection of the Warsaw Autumn 1956-2005 - 2005, FLAC (image + .cue)

Жанр: Classical
Год выпуска диска: 2005
Производитель диска: Poland
Аудио кодек: FLAC
Тип рипа: image+.cue
Битрейт аудио: lossless
Трэклист:
01. Roman Palester (1907-1989) - Adagio - Polish Radio Witold Lutoslawski Concert Studio - Jan Krenz
02. Witold Lutoslawski (1913-1994) - Jeux venitiens I - Warsaw Philarmonic National Symphony Orchestra - Witold Rowski
03. II
04. III
05. IV
06. Krzysztof Penderecki (1933) - Canon for string orchestra and two tapes - Polish Radio National Symphony Orchestra - Jan Krenz
07. Wojciech Kilar (1932) - Riff 62 - Silesian State Philarmonic Symphony Orchestra - Karol Stryja
08. Boguslaw Schaeffer (1929) - Little Symphony Scultura I - Poznan Philarmonic Orchestra - Andrzej Markowski
09. II
10. III
11. IV
12. V
13. Witold Szalonek (1927-2001) - Les Sons - Warsaw Philarmonic National Symphony Orchestra - Woiciech Michniewski
14. Henryk Mikolay Gorecki (1933) - Scontri per orchestra op.17 - Polish Radio National Symphony Orchestra - Antoni Wit
Exact Audio Copy V0.99 prebeta 5 from 4. May 2009

EAC extraction logfile from 10. July 2009, 18:32

CD-01 The World of the Polish School / Polish Collection of the Warsaw Autumn 1956-2005

Used drive : TEAC CD-W54E Adapter: 0 ID: 0

Read mode : Secure
Utilize accurate stream : Yes
Defeat audio cache : Yes
Make use of C2 pointers : No

Read offset correction : 685
Overread into Lead-In and Lead-Out : No
Fill up missing offset samples with silence : Yes
Delete leading and trailing silent blocks : No
Null samples used in CRC calculations : Yes
Used interface : Installed external ASPI interface

Used output format : User Defined Encoder
Selected bitrate : 128 kBit/s
Quality : High
Add ID3 tag : No
Command line compressor : C:\Program Files\Exact Audio Copy\FLAC\FLAC.EXE
Additional command line options : -8 -V %s

TOC of the extracted CD

Track | Start | Length | Start sector | End sector
---------------------------------------------------------
1 | 0:00.00 | 9:20.00 | 0 | 41999
2 | 9:20.00 | 3:19.58 | 42000 | 56982
3 | 12:39.58 | 1:33.49 | 56983 | 64006
4 | 14:13.32 | 3:07.57 | 64007 | 78088
5 | 17:21.14 | 4:38.50 | 78089 | 98988
6 | 21:59.64 | 8:37.15 | 98989 | 137778
7 | 30:37.04 | 7:23.60 | 137779 | 171063
8 | 38:00.64 | 1:37.65 | 171064 | 178403
9 | 39:38.54 | 4:26.33 | 178404 | 198386
10 | 44:05.12 | 1:32.49 | 198387 | 205335
11 | 45:37.61 | 2:21.25 | 205336 | 215935
12 | 47:59.11 | 1:08.60 | 215936 | 221095
13 | 49:07.71 | 10:27.54 | 221096 | 268174
14 | 59:35.50 | 15:54.65 | 268175 | 339789

Range status and errors

Selected range

Filename E:\dvd6\Варшавская осень1956-2005\CD-01\CD-01 The World of the Polish School - Polish Collection of the Warsaw Autumn 1956-2005.wav

Peak level 99.9 %
Range quality 100.0 %
Test CRC 0FB84699
Copy CRC 0FB84699
Copy OK

No errors occurred

End of status report
01. Tadeusz Baird (1928-1981) - Four Dialogues for oboe and orchestra - I Andante non troppo - Warsaw Philarmonic National Symphony Orchestra - Witold Rowicki
02. II Moderato
03. III Allegro moderato
04. IV Adagio calmatissimo
05. Andrzej Dobrowolski (1921-1990) - Music for three accordions, harmonica and percussion - Warsaw Accordion Trio, Warsaw Percussion Group
06. Romuald Twardowski (1930) - I Antiphons - Silesian State Philarmonic Symphony Orchestra - Karol Stryja
07. II Antiphons
08. III Antiphons
09. Kazimierz Serocki (1922-1981) - Impromptu fantasque - Instrumental ensemble of the National Philarmonic Grand Theatre and Musik Academy in Warsaw - Jan Krenz
10. Zbigniew Penherski (1935) - Music for the End of the Century - Marie-Therese Yan - recorder; Krzystof Marosek - organ; Monica Szulinska, Robert Siwak - percussion
11. Zbigniew Baginski (1949) - A Few Pictures - Sinfonia Varsovia - Renato Rivolta
Exact Audio Copy V0.99 prebeta 5 from 4. May 2009

EAC extraction logfile from 10. July 2009, 21:00

CD-02 Dialogi / Polish Collection of the Warsaw Autumn 1956-2005

Used drive : TEAC CD-W54E Adapter: 0 ID: 0

Read mode : Secure
Utilize accurate stream : Yes
Defeat audio cache : Yes
Make use of C2 pointers : No

Read offset correction : 685
Overread into Lead-In and Lead-Out : No
Fill up missing offset samples with silence : Yes
Delete leading and trailing silent blocks : No
Null samples used in CRC calculations : Yes
Used interface : Installed external ASPI interface

Used output format : User Defined Encoder
Selected bitrate : 128 kBit/s
Quality : High
Add ID3 tag : No
Command line compressor : C:\Program Files\Exact Audio Copy\FLAC\FLAC.EXE
Additional command line options : -8 -V %s

TOC of the extracted CD

Track | Start | Length | Start sector | End sector
---------------------------------------------------------
1 | 0:00.27 | 2:21.65 | 27 | 10666
2 | 2:22.17 | 2:59.53 | 10667 | 24144
3 | 5:21.70 | 2:24.73 | 24145 | 35017
4 | 7:46.68 | 2:37.08 | 35018 | 46800
5 | 10:24.01 | 13:57.71 | 46801 | 109646
6 | 24:21.72 | 4:32.10 | 109647 | 130056
7 | 28:54.07 | 4:52.57 | 130057 | 152013
8 | 33:46.64 | 4:19.26 | 152014 | 171464
9 | 38:06.15 | 11:04.51 | 171465 | 221315
10 | 49:10.66 | 15:13.39 | 221316 | 289829
11 | 64:24.30 | 10:43.49 | 289830 | 338103

Range status and errors

Selected range

Filename E:\dvd6\Варшавская осень1956-2005\CD-02\CD-02 Dialogi - Polish Collection of the Warsaw Autumn 1956-2005.wav

Peak level 95.7 %
Range quality 100.0 %
Test CRC 1222E7A8
Copy CRC 1222E7A8
Copy OK

No errors occurred

End of status report
01. Andrzey Panufnik (1914-1991) - Katyn Epitaph - Poznan Philarmonic Symphony Orchestra - Wojciech Michniewski
02. Zbigniew Bujarski (1933) - Musica domestica - Polish Chamber Orchestra - Jerzy Maksymiuk
03. Tomasz Sikorski (1939-1988) - Holzwege - Roads to Nowhere - Warsaw Philarmonic National Symphony Orchestra - Woiciech Michniewski
04. Zygmund Krauze (1938) - Aus aller Weit stammende - I - Warsaw Philarmonic Chamber Orchestra - Karol Teutsch
05. II
06. III
07. IV
08. Grazyna Bacewicz (1909-1969) - Pensieri notturni - Cracow State Philarmonic Chamber Orchestra - Andrzey Markowski
09. Marek Stachowski (1936-2004) Divertimento - I Sinfonia - Polish Chamber Orchestra - Jerzy Maksymiuk
10. II Pezzo gioioso
11. III Canzonetta notturna
12. IV Pezzo finale
13. Zbigniew Bargielski (1937) - Slapstick - Oslo Sinfonietta - Christian Eggen
Exact Audio Copy V0.99 prebeta 5 from 4. May 2009

EAC extraction logfile from 11. July 2009, 11:29

CD-03 Aus aller Weit... / Polish Collection of the Warsaw Autumn 1956-2005

Used drive : TEAC CD-W54E Adapter: 0 ID: 0

Read mode : Secure
Utilize accurate stream : Yes
Defeat audio cache : Yes
Make use of C2 pointers : No

Read offset correction : 685
Overread into Lead-In and Lead-Out : No
Fill up missing offset samples with silence : Yes
Delete leading and trailing silent blocks : No
Null samples used in CRC calculations : Yes
Used interface : Installed external ASPI interface

Used output format : User Defined Encoder
Selected bitrate : 128 kBit/s
Quality : High
Add ID3 tag : No
Command line compressor : C:\Program Files\Exact Audio Copy\FLAC\FLAC.EXE
Additional command line options : -8 -V %s

TOC of the extracted CD

Track | Start | Length | Start sector | End sector
---------------------------------------------------------
1 | 0:00.43 | 7:01.51 | 43 | 31668
2 | 7:02.19 | 14:47.15 | 31669 | 98208
3 | 21:49.34 | 6:38.02 | 98209 | 128060
4 | 28:27.36 | 3:38.20 | 128061 | 144430
5 | 32:05.56 | 3:33.67 | 144431 | 160472
6 | 35:39.48 | 3:01.41 | 160473 | 174088
7 | 38:41.14 | 3:34.46 | 174089 | 190184
8 | 42:15.60 | 6:08.73 | 190185 | 217857
9 | 48:24.58 | 2:23.70 | 217858 | 228652
10 | 50:48.53 | 3:43.38 | 228653 | 245415
11 | 54:32.16 | 3:12.47 | 245416 | 259862
12 | 57:44.63 | 3:44.64 | 259863 | 276726
13 | 61:29.52 | 16:28.29 | 276727 | 350855

Range status and errors

Selected range

Filename E:\dvd6\Варшавская осень1956-2005\CD-03\CD-03 Aus aller Weit... - Polish Collection of the Warsaw Autumn 1956-2005.wav

Peak level 99.1 %
Range quality 100.0 %
Copy CRC BD782ED1
Copy OK

No errors occurred

End of status report
01. Andrzey Krzanowski (1951-1990) - Broadcast - Adam Ferency - voice; Alicja Lizer - flute; Damian Drzymala and Dariusz Brauhoff - percussion; Jaroslaw Mamczarski - tapes
02. Aleksander Lason (1951) - Mountains - Polish Radio and Television Symphony Orchestra - Antoni Wit
03. Eugeniusz Knapik (1951) - Corale, interludio e aria - I Corale - New Music Orchestra - Aleksander Lason
04. II Interludio
05. III Aria
06. Tadeusz Wielecki (1954) - Beggar Ballad - Cikada Ensemble - Christian Eggen
07. Michal Talma-Sutt (1969) - Soundscape One - Pozmaitosci Theatre
08. Jacek Grudzien (1961) - Ad Naan - Andrzej Bauer - cello, computer
Exact Audio Copy V0.99 prebeta 5 from 4. May 2009

EAC extraction logfile from 11. July 2009, 17:24

CD-04 Pocolenie 1951+ / Polish Collection of the Warsaw Autumn 1956-2005

Used drive : ASUS DRW-1608P2S Adapter: 0 ID: 1

Read mode : Secure
Utilize accurate stream : Yes
Defeat audio cache : Yes
Make use of C2 pointers : No

Read offset correction : 48
Overread into Lead-In and Lead-Out : No
Fill up missing offset samples with silence : Yes
Delete leading and trailing silent blocks : No
Null samples used in CRC calculations : Yes
Used interface : Installed external ASPI interface

Used output format : User Defined Encoder
Selected bitrate : 128 kBit/s
Quality : High
Add ID3 tag : No
Command line compressor : C:\Program Files\Exact Audio Copy\FLAC\FLAC.EXE
Additional command line options : -8 -V %s

TOC of the extracted CD

Track | Start | Length | Start sector | End sector
---------------------------------------------------------
1 | 0:00.03 | 11:31.73 | 3 | 51900
2 | 11:32.01 | 15:11.10 | 51901 | 120235
3 | 26:43.11 | 6:38.39 | 120236 | 150124
4 | 33:21.50 | 1:09.69 | 150125 | 155368
5 | 34:31.44 | 6:51.42 | 155369 | 186235
6 | 41:23.11 | 14:08.37 | 186236 | 249872
7 | 55:31.48 | 13:28.54 | 249873 | 310526
8 | 69:00.27 | 6:34.34 | 310527 | 340110

Range status and errors

Selected range

Filename E:\dvd6\Варшавская осень1956-2005\CD-04\CD-04 Pocolenie 1951+ - Polish Collection of the Warsaw Autumn 1956-2005.wav

Peak level 100.0 %
Range quality 99.9 %
Copy CRC 5A1EBE8F
Copy OK

No errors occurred

End of status report
01. Pawel Szymanski (1954) - Gloria - Warsaw Philarmonic National Symphony Orchestra and Women's Choir - Andrzej Markowski
02. Jerzy Kornowicz (1959) - Frayed figures - New Music Orchestra - Aleksander Lason
03. Pawel Mykietyn (1971) - Eine kleine Herbstmusik - Ensemble Altemance - Diego Masson
04. Hanna Kulenty (1961) - Harmonium - Dirk Luijmes - harmonium
05. Grazyna Pstrokonska-Nawratil (1947) - Bis Joke - Stanislaw Skoczynski - percussion; Szabolcs Esztenyi - piano
06. Stanislaw Kropowicz (1952) - Fin de siecle - Polish Radio National Symphony Orchestra - Antoni Wit
07. Tomasz Praszczalek (1981) - Mother Nature - "Koneser" Vodka Distillers
Exact Audio Copy V0.99 prebeta 5 from 4. May 2009

EAC extraction logfile from 11. July 2009, 18:25

CD-05 Sur-conventions / Polish Collection of the Warsaw Autumn 1956-2005

Used drive : ASUS DRW-1608P2S Adapter: 0 ID: 1

Read mode : Secure
Utilize accurate stream : Yes
Defeat audio cache : Yes
Make use of C2 pointers : No

Read offset correction : 48
Overread into Lead-In and Lead-Out : No
Fill up missing offset samples with silence : Yes
Delete leading and trailing silent blocks : No
Null samples used in CRC calculations : Yes
Used interface : Installed external ASPI interface

Used output format : User Defined Encoder
Selected bitrate : 128 kBit/s
Quality : High
Add ID3 tag : No
Command line compressor : C:\Program Files\Exact Audio Copy\FLAC\FLAC.EXE
Additional command line options : -8 -V %s

TOC of the extracted CD

Track | Start | Length | Start sector | End sector
---------------------------------------------------------
1 | 0:00.34 | 8:49.32 | 34 | 39740
2 | 8:49.66 | 16:27.08 | 39741 | 113773
3 | 25:16.74 | 11:21.25 | 113774 | 164873
4 | 36:38.24 | 10:26.73 | 164874 | 211896
5 | 47:05.22 | 6:48.21 | 211897 | 242517
6 | 53:53.43 | 15:49.34 | 242518 | 313726
7 | 69:43.02 | 4:54.55 | 313727 | 335831

Range status and errors

Selected range

Filename E:\dvd6\Варшавская осень1956-2005\CD-05\CD-05 Sur-conventions - Polish Collection of the Warsaw Autumn 1956-2005.wav

Peak level 99.9 %
Range quality 99.9 %
Copy CRC 14A6162C
Copy OK

No errors occurred

End of status report
01. Augustyn Bloch (1929) - Anenaiki - "Ars Antiqua" Chamber Choir - Maciej Jaskiewicz
02. Zygmunt Mycielski (1907-1987) - Psalm XII - Polish Radio and Television Choir and Symphony Orchestra in Cracow - Jerzy Katlewicz
03. Krystyna Mozumanska-Nazar (1924) - Rhapsody II - Cracow Philarmonic Orchestra - Jerzy Katlewicz
04. Andrzej Koszewski (1922) - Campana - "Ars Antiqua" Chamber Choir - Maciej Jaskiewicz
05. Boleslaw Szabelski (1896-1979) - Aphorisms 9 - Melos Ensemble - Karol Stryja
06. Zbigniew Rudzinski (1935) - Three Songs - I Ite - Kazimierz Myrlak - tenor; Jerzy Witkowski, Szabolcs Estenyi - pianos
07. II Strings in the Ears
08. III Night
09. Edward Boguslawski (1940-2004) - Intonazioni I - Silesian Philarmonic Instrumental Ensemble - Karol Stryja
10. Aleksandra Gryka (1977) - Interialcell - Polish-German Youth Ensemble: Kwartludium Ensemble and Junge Deutsche Philharmonie - Rudiger Bohn
11. Stefan Kisielewski (1911-1991) - Danse vive - Wladislaw Kedra - piano
Exact Audio Copy V0.99 prebeta 5 from 4. May 2009

EAC extraction logfile from 11. July 2009, 22:23

CD-06 Intonacje / Polish Collection of the Warsaw Autumn 1956-2005

Used drive : ASUS DRW-1608P2S Adapter: 0 ID: 1

Read mode : Secure
Utilize accurate stream : Yes
Defeat audio cache : Yes
Make use of C2 pointers : No

Read offset correction : 48
Overread into Lead-In and Lead-Out : No
Fill up missing offset samples with silence : Yes
Delete leading and trailing silent blocks : No
Null samples used in CRC calculations : Yes
Used interface : Installed external ASPI interface

Used output format : User Defined Encoder
Selected bitrate : 128 kBit/s
Quality : High
Add ID3 tag : No
Command line compressor : C:\Program Files\Exact Audio Copy\FLAC\FLAC.EXE
Additional command line options : -8 -V %s

TOC of the extracted CD

Track | Start | Length | Start sector | End sector
---------------------------------------------------------
1 | 0:00.00 | 14:40.18 | 0 | 66017
2 | 14:40.18 | 10:17.61 | 66018 | 112353
3 | 24:58.04 | 13:38.35 | 112354 | 173738
4 | 38:36.39 | 5:22.46 | 173739 | 197934
5 | 43:59.10 | 5:18.07 | 197935 | 221791
6 | 49:17.17 | 4:31.14 | 221792 | 242130
7 | 53:48.31 | 3:05.27 | 242131 | 256032
8 | 56:53.58 | 1:31.53 | 256033 | 262910
9 | 58:25.36 | 6:24.24 | 262911 | 291734
10 | 64:49.60 | 6:44.26 | 291735 | 322060
11 | 71:34.11 | 3:30.57 | 322061 | 337867

Range status and errors

Selected range

Filename E:\dvd6\Варшавская осень1956-2005\CD-06\CD-06 Intonacje - Polish Collection of the Warsaw Autumn 1956-2005.wav

Peak level 96.9 %
Range quality 99.9 %
Copy CRC 2DA47CBD
Copy OK

No errors occurred

End of status report
01. Rafal Augustyn (1951) - En blanc et noir - Elizbieta Chojnacka - harpsichord
02. Edward Pallasz (1936) - Apostrophe - Eugeniusz Knapik - piano
03. Marta Ptaszynska (1943) - La novella d'inverno - Polish Chamber Orchestra - Jerzy Maksymiuk
04. Krzysztof Baculewski (1950) - A Walking Shadow - Silesian Philarmonic Symphony Orchestra - Jerzy Swoboda
05. Woiciech Ziemiwit Zych (1976) - Soliloquium I-Boiling-Hot Mind - solist of the Classic-Avangarde Ensemble - Vladimir Baidov
06. Szabolcs Esztenyi (1939) - Creative Music №3 - In memoriam Tomasz Sikorski - Szabolch Estenyi - piano
07. Krzysztof Meyer (1943) - Fireballs - Silesian Philarmonic Symphony Orchestra - Karol Stryja
Exact Audio Copy V0.99 prebeta 5 from 4. May 2009

EAC extraction logfile from 12. July 2009, 9:19

CD-07 Apostrofy / Polish Collection of the Warsaw Autumn 1956-2005

Used drive : ASUS DRW-1608P2S Adapter: 0 ID: 1

Read mode : Secure
Utilize accurate stream : Yes
Defeat audio cache : Yes
Make use of C2 pointers : No

Read offset correction : 48
Overread into Lead-In and Lead-Out : No
Fill up missing offset samples with silence : Yes
Delete leading and trailing silent blocks : No
Null samples used in CRC calculations : Yes
Used interface : Installed external ASPI interface

Used output format : User Defined Encoder
Selected bitrate : 128 kBit/s
Quality : High
Add ID3 tag : No
Command line compressor : C:\Program Files\Exact Audio Copy\FLAC\FLAC.EXE
Additional command line options : -8 -V %s

TOC of the extracted CD

Track | Start | Length | Start sector | End sector
---------------------------------------------------------
1 | 0:01.00 | 11:10.05 | 75 | 50329
2 | 11:11.05 | 8:51.03 | 50330 | 90157
3 | 20:02.08 | 9:31.69 | 90158 | 133051
4 | 29:34.02 | 10:06.40 | 133052 | 178541
5 | 39:40.42 | 10:13.21 | 178542 | 224537
6 | 49:53.63 | 12:17.28 | 224538 | 279840
7 | 62:11.16 | 13:47.44 | 279841 | 341909

Range status and errors

Selected range

Filename E:\dvd6\Варшавская осень1956-2005\CD-07\CD-07 Apostrofy - Polish Collection of the Warsaw Autumn 1956-2005.wav

Peak level 100.0 %
Range quality 100.0 %
Copy CRC 9A03860B
Copy OK

No errors occurred

End of status report
01. Wlodzimierz Kotonski (1925) - AELA - Music Academy
02. Andrzej Biezan (1945-1983) - Isn't it? - Polish Radio Witold Lutoslawski Concert Studio
03. Anna Zawadzka-Golosz (1955) - Girare - Jan Pilch - percussion with tape
04. Lidia Zielinska (1953) - Expandata - Jan Pilch - snare drum, tape
05. Krzysztof Knittel (1976) - The Conqueror Worm - Polish Radio Witold Lutoslawski Concert Studio
06. Magdalena Dlugosz (1954) - Zacopane Liryki - Michal Ganko - saxophone, computer soundtrack
07. Cezary Duchnowski (1971) - Monada 3 - Agata Zubel - voice; Cezary Duchnowski - piano
Exact Audio Copy V0.99 prebeta 5 from 4. May 2009

EAC extraction logfile from 12. July 2009, 11:18

CD-08 Musica elettronica / Polish Collection of the Warsaw Autumn 1956-2005

Used drive : ASUS DRW-1608P2S Adapter: 0 ID: 1

Read mode : Secure
Utilize accurate stream : Yes
Defeat audio cache : Yes
Make use of C2 pointers : No

Read offset correction : 48
Overread into Lead-In and Lead-Out : No
Fill up missing offset samples with silence : Yes
Delete leading and trailing silent blocks : No
Null samples used in CRC calculations : Yes
Used interface : Installed external ASPI interface

Used output format : User Defined Encoder
Selected bitrate : 128 kBit/s
Quality : High
Add ID3 tag : No
Command line compressor : C:\Program Files\Exact Audio Copy\FLAC\FLAC.EXE
Additional command line options : -8 -V %s

TOC of the extracted CD

Track | Start | Length | Start sector | End sector
---------------------------------------------------------
1 | 0:00.00 | 10:44.73 | 0 | 48372
2 | 10:44.73 | 12:41.19 | 48373 | 105466
3 | 23:26.17 | 13:18.09 | 105467 | 165325
4 | 36:44.26 | 6:54.32 | 165326 | 196407
5 | 43:38.58 | 13:15.19 | 196408 | 256051
6 | 56:54.02 | 12:18.06 | 256052 | 311407
7 | 69:12.08 | 7:33.47 | 311408 | 345429

Range status and errors

Selected range

Filename E:\dvd6\Варшавская осень1956-2005\CD-08\CD-08 Musica elettronica - Polish Collection of the Warsaw Autumn 1956-2005.wav

Peak level 99.9 %
Range quality 99.9 %
Copy CRC 10FE6F70
Copy OK

No errors occurred

End of status report
01. Roman Derger (1930) - Wiegenlied - Urzula Krygel - mezzo-soprano; Katarzyna Jankowska - piano
02. Edward Sielicki (1956) - Polymorphic Fantasy - Dirk Luijmes - harmonium
03. Jan Fotek (1928) - Partita - I - Basson Ensemble - Kazimierz Piwkowski
04. II
05. Marek Choloniewski (1953) - Like Breathing - Trio Accento; Marek Choloniewski - computer instruments
06. Roman Haubenstock-Ramati (1919-1994) - Equilibre - Klangforum Wien
Exact Audio Copy V0.99 prebeta 5 from 4. May 2009

EAC extraction logfile from 12. July 2009, 14:01

CD-09 Poli-morfie / Polish Collection of the Warsaw Autumn 1956-2005

Used drive : ASUS DRW-1608P2S Adapter: 0 ID: 1

Read mode : Secure
Utilize accurate stream : Yes
Defeat audio cache : Yes
Make use of C2 pointers : No

Read offset correction : 48
Overread into Lead-In and Lead-Out : No
Fill up missing offset samples with silence : Yes
Delete leading and trailing silent blocks : No
Null samples used in CRC calculations : Yes
Used interface : Installed external ASPI interface

Used output format : User Defined Encoder
Selected bitrate : 128 kBit/s
Quality : High
Add ID3 tag : No
Command line compressor : C:\Program Files\Exact Audio Copy\FLAC\FLAC.EXE
Additional command line options : -8 -V %s

TOC of the extracted CD

Track | Start | Length | Start sector | End sector
---------------------------------------------------------
1 | 0:00.31 | 18:24.54 | 31 | 82884
2 | 18:25.10 | 13:27.41 | 82885 | 143450
3 | 31:52.51 | 4:11.11 | 143451 | 162286
4 | 36:03.62 | 4:20.07 | 162287 | 181793
5 | 40:23.69 | 13:01.26 | 181794 | 240394
6 | 53:25.20 | 24:27.32 | 240395 | 350451

Range status and errors

Selected range

Filename E:\dvd6\Варшавская осень1956-2005\CD-09\CD-09 Poli-morfie - Polish Collection of the Warsaw Autumn 1956-2005.wav

Peak level 99.9 %
Range quality 99.9 %
Copy CRC 492BA732
Copy OK

No errors occurred

End of status report
01. Elzbieta Sikora (1943) - Voyage II - Music Academy
02. Zbigniew Wiszniewski (1922-1999) - Db-Hz-Sek - Warsaw Philarmonic Chamber Orchestra
03. Norbert Mateusz Kuznik (1946) - Duo per organo у pianosorte - Norbert Mateusz Kuznik - organ; Szabolcs Esztenyi - piano
04. Jan Wincenty Hawel (1936) - Passacaglia per organo - Julian Gebalski - organ
05. Marcin Bortnowski (1972) - Pieces of Light - Piotr Dziubek - accordion; Aleksandra Rupocinska - harpsichord; Marcin Bortnowski - computer
06. Juliusz Luciuk (1927) - The Battle fragment of music for the pantomime 'Marathon' - Juliusz Luciuk - piano
07. Ryszard Szereta (1952) - Miraculeo - Jan Pilch - percussion; Ryszard Szeremeta - synthesizers
08. Jaroslaw Siwinski (1964) - Piano Quintet - Tamami Honma - piano; Kreutzer Quartet
09. Bettina Skrzypczak (1963) - Toccata sospesa - Mihkel Peaske - flute; Madis Metsamart, Rein Ross - percussion
Exact Audio Copy V0.99 prebeta 5 from 4. May 2009

EAC extraction logfile from 12. July 2009, 21:03

CD-10 Poli-chromie / Polish Collection of the Warsaw Autumn 1956-2005

Used drive : TEAC CD-W54E Adapter: 0 ID: 0

Read mode : Secure
Utilize accurate stream : Yes
Defeat audio cache : Yes
Make use of C2 pointers : No

Read offset correction : 685
Overread into Lead-In and Lead-Out : No
Fill up missing offset samples with silence : Yes
Delete leading and trailing silent blocks : No
Null samples used in CRC calculations : Yes
Used interface : Installed external ASPI interface

Used output format : User Defined Encoder
Selected bitrate : 128 kBit/s
Quality : High
Add ID3 tag : No
Command line compressor : C:\Program Files\Exact Audio Copy\FLAC\FLAC.EXE
Additional command line options : -8 -V %s

TOC of the extracted CD

Track | Start | Length | Start sector | End sector
---------------------------------------------------------
1 | 0:00.00 | 14:02.06 | 0 | 63155
2 | 14:02.06 | 3:08.47 | 63156 | 77302
3 | 17:10.53 | 8:53.44 | 77303 | 117321
4 | 26:04.22 | 10:22.72 | 117322 | 164043
5 | 36:27.19 | 9:18.24 | 164044 | 205917
6 | 45:45.43 | 3:39.47 | 205918 | 222389
7 | 49:25.15 | 8:47.62 | 222390 | 261976
8 | 58:13.02 | 11:28.51 | 261977 | 313627
9 | 69:41.53 | 9:54.28 | 313628 | 358205

Range status and errors

Selected range

Filename E:\dvd6\Варшавская осень1956-2005\CD-10\CD-10 Poli-chromie - Polish Collection of the Warsaw Autumn 1956-2005.wav

Peak level 99.4 %
Range quality 99.9 %
Copy CRC 2F3DEFD3
Copy OK

No errors occurred

End of status report
Доп. информация: Известная Варшавская Осень, которая вдруг появилась в 1956 г., быстро стала музыкальной меккой для любителей авангарда с Востока и Запада. Музыка, звучащая на этом фестивале, уходила далеко от соцреалистической модели. Исполнение такой музыки во всех других соцстранах было бы запрещено политическим декретом. Что же случилось в этом 1956 году? Это было время холодной войны. Борьба шла в основном на поле пропаганды. Надо было Западу показать, что может социалистическое общество. А так как не было чем похвастаться в хозяйстве, кто-то, кто был одновременно близко к влиятельным лицам в государстве и сам был серым кардиналом польского Союза Композиторов, придумал: а может быть, вот так шокировать мир открытостью и современностью на поле культуры. Это никому не повредит, рабочие и так на фестивальные концерты не пойдут, а заказные массовые песни и кантаты "для славы" будут рождаться на столах даже самых авангардных композиторов. И так власть акцептировала Осень, получая взамен отличный экспортный товар - визитную карточку социализма. Чтобы ситуация не вышла из-под контроля,- так как контроль должен был быть установлен, как мы знаем, над всем и вся,- оформили втихую определенные точные принципы выбора под эгидой союза, который управлял единственным в стране фестивалем "опасной" музыки. Таким образом начал существовать варшавско-осенний истеблишмент. Варшавский фестиваль стал легендой.
По политическим причинам ежегодный фестиваль отменяли даже дважды -- в 1957 и в 1982 годах. Поэтому и полувековой юбилей «Варшавская осень» отмечала два раза -- в 2006 и в 2007 годах.
Хотя середина 50-х годов ХХ века и в Польше считалась «оттепелью», а целью организаторов фестиваля «Варшавская осень» было всего лишь себя показать и на других посмотреть, с самого начала он был больше чем фестиваль: «ВО» во многом определял уровень взаимоотношений искусства (в данном случае -- музыкального) и власти в странах социалистического лагеря. В 1972 году, например, из СССР в последнюю минуту вместо экспериментатора Эдисона Денисова прислали Тихона Хренникова (хотя Денисов таки появился в программе -- под псевдонимом, как соавтор коллективного камерного сочинения «Энциклопедия»). А уже в ХХI веке был освистан и обозван «соцреалистическим» концерт не кого-нибудь, а живого классика польской музыки Кшиштофа Пендерецкого.
 
Не забывайте говорить Спасибо. Не уходите с раздачи!   
Торрент: Зарегистрирован [11 янв 2016, 02:36] Скачать торрент
Скачать торрент
[ Размер 21.03 КБ / Просмотров 92 ]
Статус:
Проверен
 
.torrent скачан: 1 раз
Хэш: bcaf67380ae8fa2f27f7e6fe7480bdda21214218
Размер: 3.15 ГБ (3 379 600 425 байт)
Стать Автором раздачи
 
 
Раздал: 398.6 ГБ
Скачал: 172 МБ
Ратио: 2373.085
Сообщения: 228130
Зарегистрирован: 17 апр 2014, 15:26


  • Похожие торренты
    Ответы
    Просмотры
    Последнее сообщение

Вернуться в Полные собрания сочинений и многодисковые издания (lossless)

Ресурс не предоставляет электронные версии произведений, а занимается лишь коллекционированием и каталогизацией ссылок, присылаемых и публикуемых на форуме нашими читателями. Если вы являетесь правообладателем какого-либо представленного материала и не желаете чтобы ссылка на него находилась в нашем каталоге, свяжитесь с нами и мы незамедлительно удалим её. Файлы для обмена на трекере предоставлены пользователями сайта, и администрация не несёт ответственности за их содержание. Просьба не заливать файлы, защищенные авторскими правами, а также файлы нелегального содержания!