Джуна. Дар одиночества (Эфир от 26.09.2015) [2015, Документальный, Биография, HDTV 1080i] [1 канал HD]

 
 Статистика раздачи 
Размер: 2.37 ГБ   |  Зарегистрирован: 09 янв 2016, 04:34   |   .torrent скачан: 0 раз
Сидеров: 1  [ 0 байт/сек ]     Личеров: 0  [ 0 байт/сек ]  
  

Джуна. Дар одиночества (Эфир от 26.09.2015) [2015, Документальный, Биография, HDTV 1080i] [1 канал HD]

Сообщение PetaByte » 09 янв 2016, 04:34

Джуна. Дар одиночества (Эфир от 26.09.2015)

Год выпуска: 2015
Страна: Россия
Жанр: Документальный, Биография
Продолжительность: 00:51:45
Перевод: Не требуется
Русские субтитры: нет
Авторы сценария: Рима Кузьмина, Андрей Моисеев
Режиссeр: Римма Кузьмина
Продюсер: Марк Левин
Выпущено: Россия, Первый канал.
Производство: "БСП Продакшн" , 2015

Описание: Целительницы Джуны Давиташвили не стало 8 июня 2015 года. В это время мы все еще продолжали записывать интервью с ее друзьями, пациентами, многочисленными коллегами.

И не думали, что долгое и откровенное интервью Джуны для нашего фильма станет последним в ее жизни.

В начале восьмидесятых "феноменом Д" – именно так ученые окрестили особые способности целительницы Джуны Давиташвили – занимались ведущие лаборатории страны. Её квартира на Старом Арбате была известна как самый модный дом столицы. Джуна собирала стадионы, выступала на телевидении, пела со сцены. Ее друзья – знаменитые режиссёры, художники и поэты. Ее покровители – высшие государственные чиновники и лично глава государства Леонид Брежнев. Весной 2015-го, проводя долгие часы за разговорами с Джуной, нам хотелось понять, что за вихрь людей и событий образовался вокруг простой девочки Жени, родившейся в небольшом селе в Краснодарском крае? И что такое её жизнь – умелый пиар-ход или демонстрация выдающихся человеческих способностей – скрытых, но, вполне возможно, существующих?

Так получилось, что, отвечая на эти вопросы, мы стали свидетелями последней драмы в жизни Джуны – ее неожиданного и скоропостижного ухода. Несмотря на большое количество эксклюзивных интервью, которые нам дали непосредственные участники событий тех лет, и огромный объём архивного материала, впервые представленного на суд зрителя, нам не удалось выполнить наш первоначальный план – сделать прижизненный портрет Джуны – человека удивительной судьбы. Вместо этого мы получили последнюю исповедь Евгении Ювашевны Давиташвили, будто ставшую эпилогом ко всей ее крайне противоречивой жизни.
В фильме принимают участие: : Татьяна Хейер, подруга Джуны
Анатолий Борунов, главный конструктор биокорректоров "Джуна"
Лев Колодный, журналист, писатель, друг Джуны
Артём Задикян, фотограф, друг Джуны
Вадим Островский, режиссёр-постановщик т/ф "Джуна"
Марк Левин, продюсер т/ф "Джуна"
Лаура Кеосаян, актриса, исполнительница роли Джуны
Марк Гарбер, кандидат медицинских наук
Геннадий Хазанов, народный артист РСФСР
Александр Бородянский, автор сценария т/ф "Джуна"
Эммануил Виторган, народный артист России
Источник: Собственный рип.

Доп. информация: Рип чистый. Без посторонних надписей. Выкладывается как есть.


Качество: HDTV 1080i
Контейнер: TS
Видео кодек: H.264
Аудио кодек: MP2
Видео: AVC, 1920x1080 (16:9) 25.000 fps 6 014 Kbps, 0.116 bit/pixel
Аудио: MPEG Audio 48000Hz stereo 224 Кбит/сек 2 channels
Общее
Идентификатор : 1 (0x1)
Полное имя : F:\Раздачи\Программы, передачи, шоу, спектакли\Джуна. Дар одиночества (2015, HDTV 1080i, Документальный, Биография, Эфир от 26.09.2015) (by Nokia5150).ts
Формат : MPEG-TS
Размер файла : 2,37 Гбайт
Продолжительность : 51 м.
Режим общего битрейта : Переменный
Общий поток : 6564 Кбит/сек
Видео
Идентификатор : 2661 (0xA65)
Идентификатор меню : 1 (0x1)
Формат : AVC
Формат/Информация : Advanced Video Codec
Профиль формата : High@L4
Параметр CABAC формата : Да
Параметр ReFrames формата : 3 кадра
Идентификатор кодека : 27
Продолжительность : 51 м.
Битрейт : 6014 Кбит/сек
Ширина : 1920 пикселей
Высота : 1080 пикселей
Соотношение сторон : 16:9
Частота кадров : 25,000 кадров/сек
Стандарт вещания : Component
Цветовое пространство : YUV
Субдискретизация насыщенности : 4:2:0
Битовая глубина : 8 бит
Тип развёртки : Чересстрочная
Порядок развёртки : Верхнее поле первое
Бит/(Пиксели*Кадры) : 0.116
Размер потока : 2,17 Гбайт (92%)
colour_range : Limited
Основные цвета : BT.709
Характеристики трансфера : BT.709
Коэффициенты матрицы : BT.709

Аудио
Идентификатор : 3661 (0xE4D)
Идентификатор меню : 1 (0x1)
Формат : MPEG Audio
Версия формата : Version 1
Профиль формата : Layer 2
Идентификатор кодека : 3
Продолжительность : 51 м.
Вид битрейта : Постоянный
Битрейт : 224 Кбит/сек
Каналы : 2 канала
Частота : 48,0 КГц
Метод сжатия : С потерями
Размер потока : 82,9 Мбайт (3%)
Язык : Russian

 
Не забывайте говорить Спасибо. Не уходите с раздачи!   
Торрент: Зарегистрирован [09 янв 2016, 04:34] Для скачивания .torrent
необходима регистрация
Или скачать с помощью
MediaGet
Статус:
Проверен
 
.torrent скачан: 0 раз
Хэш: c139ea4987dd4e08abcc1f7009b64d518c1f227a
Размер: 2.37 ГБ (2 547 719 412 байт)
Стать Автором раздачи
 
 
Раздал: 10 ГБ
Скачал: 8 МБ
Ратио: 1280.000
Сообщения: 234240
Зарегистрирован: 22 фев 2013, 11:10


  • Похожие торренты
    Ответы
    Просмотры
    Последнее сообщение

Вернуться в Телепередачи (HD Video), не являющиеся документалистикой

Ресурс не предоставляет электронные версии произведений, а занимается лишь коллекционированием и каталогизацией ссылок, присылаемых и публикуемых на форуме нашими читателями. Если вы являетесь правообладателем какого-либо представленного материала и не желаете чтобы ссылка на него находилась в нашем каталоге, свяжитесь с нами и мы незамедлительно удалим её. Файлы для обмена на трекере предоставлены пользователями сайта, и администрация не несёт ответственности за их содержание. Просьба не заливать файлы, защищенные авторскими правами, а также файлы нелегального содержания!