«Звездный пасьянс» с Катериной Голицыной. Лолита (Эфир от 17.09.2015) [2015 г., Ток-Шоу, DVB]

 
 Статистика раздачи 
Размер: 3.54 ГБ   |  Зарегистрирован: 09 янв 2016, 01:29   |   .torrent скачан: 1 раз
Сидеров: 1  [ 0 байт/сек ]     Личеров: 0  [ 0 байт/сек ]  
  

«Звездный пасьянс» с Катериной Голицыной. Лолита (Эфир от 17.09.2015) [2015 г., Ток-Шоу, DVB]

Сообщение Thistoll » 09 янв 2016, 01:29

«Звездный пасьянс» с Катериной Голицыной. Лолита (Эфир от 17.09.2015)

Страна: Россия
Жанр: Ток-Шоу
Продолжительность: 02:19:20
Язык: Русский
Год выпуска: 2015 г.
Выпущено: Россия, Телеканал "Шансон ТВ".

Описание: Гостья программы "Звездный пасьянс" на телеканале "Шансон ТВ" - Лолита Милявская.

Эстрадная певица, актриса, телеведущая и режиссёр, лауреат премии ШАНСОН ГОДА - 2015 (песня «Шпилька-каблучок»),с концертами объездила полпланеты. Сегодня Лолита, так же продолжает активно гастролировать, выпустила в 2015 году новый альбом - «Анатомия», снимает новые клипы. А на вопрос, Вы счастливы, без колебаний отвечает: Да! Но...

Ей приходилось непросто в жизни, и сейчас не все идет так, как представлялось в радужных мечтах. Но Лолита идет по жизни только вперед!
Она уверена - ее жизнь сложилась именно так, как должна была сложиться.
Эфир от 17.09.2015, съемка от 14.05.2015

Источник: Собственный рип

Доп. информация: Рип чистый. Без посторонних надписей. Выкладывается как есть.


Качество: DVB
Контейнер: TS
Видео кодек: MPEG2
Аудио кодек: MPEG1 Layer 2
Видео: MPEG2 Video 544x576 (4:3) 25.00fps 3 200 Kbps, 0.408 bit/pixel
Аудио: MPEG Audio 48000Hz stereo 256 Кбит/сек
Общее
Идентификатор : 1 (0x1)
Полное имя : F:\Раздачи\Программы, передачи, шоу, спектакли\Звездный пасьянс. Лолита (2015, DVB, Ток-шоу, Эфир от 17.09.2015) (by Nokia5150).ts
Формат : MPEG-TS
Размер файла : 3,54 Гбайт
Продолжительность : 2 ч. 19 м.
Режим общего битрейта : Переменный
Общий поток : 3638 Кбит/сек
Видео
Идентификатор : 2643 (0xA53)
Идентификатор меню : 1 (0x1)
Формат : MPEG Video
Версия формата : Version 2
Профиль формата : [email protected]
Параметр BVOP формата : Да
Параметр матрицы формата : Выборочная
Параметр GOP формата : M=3, N=12
Format_Settings_PictureStructure : Frame
Идентификатор кодека : 2
Продолжительность : 2 ч. 19 м.
Вид битрейта : Переменный
Битрейт : 3200 Кбит/сек
Максимальный битрейт : 3300 Кбит/сек
Ширина : 544 пикселя
Высота : 576 пикселей
Соотношение сторон : 4:3
Частота кадров : 25,000 кадров/сек
Цветовое пространство : YUV
Субдискретизация насыщенности : 4:2:0
Битовая глубина : 8 бит
Тип развёртки : Чересстрочная
Порядок развёртки : Верхнее поле первое
Метод сжатия : С потерями
Бит/(Пиксели*Кадры) : 0.408
Временной код первого кадра : 00:00:00:00
Оригинал временного кода : Group of pictures header
Размер потока : 3,11 Гбайт (88%)

Аудио
Идентификатор : 3643 (0xE3B)
Идентификатор меню : 1 (0x1)
Формат : MPEG Audio
Версия формата : Version 1
Профиль формата : Layer 2
Идентификатор кодека : 3
Продолжительность : 2 ч. 19 м.
Вид битрейта : Постоянный
Битрейт : 256 Кбит/сек
Каналы : 2 канала
Частота : 48,0 КГц
Метод сжатия : С потерями
Задержка видео : 14 мс.
Размер потока : 255 Мбайт (7%)
Язык : English

 
Не забывайте говорить Спасибо. Не уходите с раздачи!   
Торрент: Зарегистрирован [09 янв 2016, 01:29] Для скачивания .torrent
необходима регистрация
Или скачать с помощью
MediaGet
Статус:
Проверен
 
.torrent скачан: 1 раз
Хэш: 5a59786e62cf8f28cb6cd606dda6795367e9bf2a
Размер: 3.54 ГБ (3 802 464 500 байт)
Стать Автором раздачи
 
 
Раздал: 6.67 ГБ
Скачал: 302.5 МБ
Ратио: 22.576
Сообщения: 374198
Зарегистрирован: 17 апр 2014, 11:05


  • Похожие торренты
    Ответы
    Просмотры
    Последнее сообщение

Вернуться в Социальные ток-шоу

Кто сейчас на конференции

Сейчас эту тему просматривают: нет зарегистрированных пользователей и гости: 1

Ресурс не предоставляет электронные версии произведений, а занимается лишь коллекционированием и каталогизацией ссылок, присылаемых и публикуемых на форуме нашими читателями. Если вы являетесь правообладателем какого-либо представленного материала и не желаете чтобы ссылка на него находилась в нашем каталоге, свяжитесь с нами и мы незамедлительно удалим её. Файлы для обмена на трекере предоставлены пользователями сайта, и администрация не несёт ответственности за их содержание. Просьба не заливать файлы, защищенные авторскими правами, а также файлы нелегального содержания!