Моя жизнь сделана в России ( 3 серии )[2015, Документальный, HDTV 1080i]

 
 Статистика раздачи 
Размер: 5.21 ГБ   |  Зарегистрирован: 08 янв 2016, 18:49   |   .torrent скачан: 0 раз
Сидеров: 1  [ 0 байт/сек ]     Личеров: 0  [ 0 байт/сек ]  
  

Моя жизнь сделана в России ( 3 серии )[2015, Документальный, HDTV 1080i]

Сообщение Thistoll » 08 янв 2016, 18:49

Моя жизнь сделана в России

Год выпуска: 2015
Страна: Россия
Жанр: Документальный
Продолжительность: ~00:30:00 серия
Перевод: Не требуется
Русские субтитры: нет

Описание: Новый проект о том, чем может гордиться вся страна. Какие отечественные товары сделаны на самом высоком уровне? Кто, где и в каких условиях создает то, что радует нас ценой и качеством? Ответы на эти вопросы даст ведущий Михаил Пореченков. Каждую неделю Михаил будет исследовать российский потребительский рынок и знакомить зрителей с самыми интересными примерами производства по всей стране. Маршруты поиска увлекательны и непредсказуемы. Зрители получат объективную и полную информацию о том, как делается полезная зубная паста, где изготавливается натуральная косметика, сколько стоит отдых в России, кто ловит самую вкусную рыбу, а также узнают ответы на многие другие вопросы, волнующие каждого потребителя. Вместе с Михаилом Пореченковым исследовать и оценивать российские товары по всей стране будут гости проекта - известные актеры, музыканты, телеведущие и спортсмены: Антон Макарский, Николай Валуев, Мария Шукшина, Раиса Рязанова, Юрий Стоянов, Александр Пушной, Алена Заварзина и Вик Вайлд.

Ведущий: Михаил Пореченков

Тип релиза: HDTV 1080i
Контейнер: TS

Видео: H264; 1920x1080 (16:9); 25.000 fps; ~7 590 Kbps
Аудио: MPEG Audio Version 1 Layer 2, 48000Hz, 2 channels stereo 192 Кбит/сек
Код: Выделить всё
General
ID                             : 1 (0x1)
Complete name                  : H:\__111\Моя жизнь сделана в России\Моя жизнь сделана в России 01 выпуск 2015.09.05.ts
Format                         : MPEG-TS
File size                      : 1.72 GiB
Duration                       : 30mn 3s
Overall bit rate mode          : Variable
Overall bit rate               : 8 189 Kbps

Video
ID                             : 2292 (0x8F4)
Menu ID                        : 1 (0x1)
Format                         : AVC
Format/Info                    : Advanced Video Codec
Format profile                 : High@L4.0
Format settings, CABAC         : Yes
Format settings, ReFrames      : 4 frames
Codec ID                       : 27
Duration                       : 30mn 3s
Bit rate                       : 7 590 Kbps
Width                          : 1 920 pixels
Height                         : 1 080 pixels
Display aspect ratio           : 16:9
Frame rate                     : 25.000 fps
Color space                    : YUV
Chroma subsampling             : 4:2:0
Bit depth                      : 8 bits
Scan type                      : MBAFF
Bits/(Pixel*Frame)             : 0.146
Stream size                    : 1.59 GiB (93%)

Audio
ID                             : 2295 (0x8F7)
Menu ID                        : 1 (0x1)
Format                         : MPEG Audio
Format version                 : Version 1
Format profile                 : Layer 2
Codec ID                       : 3
Duration                       : 30mn 3s
Bit rate mode                  : Constant
Bit rate                       : 192 Kbps
Channel(s)                     : 2 channels
Sampling rate                  : 48.0 KHz
Compression mode               : Lossy
Stream size                    : 41.3 MiB (2%)
Language                       : English




 
Не забывайте говорить Спасибо. Не уходите с раздачи!   
Торрент: Зарегистрирован [08 янв 2016, 18:49] Для скачивания .torrent
необходима регистрация
Или скачать с помощью
MediaGet
Статус:
Проверен
 
.torrent скачан: 0 раз
Хэш: d03bebc457279a81dc2a29c495fa15121646b7c0
Размер: 5.21 ГБ (5 593 193 640 байт)
Стать Автором раздачи
 
 
Раздал: 6.67 ГБ
Скачал: 302.5 МБ
Ратио: 22.576
Сообщения: 374198
Зарегистрирован: 17 апр 2014, 11:05


  • Похожие торренты
    Ответы
    Просмотры
    Последнее сообщение

Вернуться в Телепередачи (HD Video), не являющиеся документалистикой

Ресурс не предоставляет электронные версии произведений, а занимается лишь коллекционированием и каталогизацией ссылок, присылаемых и публикуемых на форуме нашими читателями. Если вы являетесь правообладателем какого-либо представленного материала и не желаете чтобы ссылка на него находилась в нашем каталоге, свяжитесь с нами и мы незамедлительно удалим её. Файлы для обмена на трекере предоставлены пользователями сайта, и администрация не несёт ответственности за их содержание. Просьба не заливать файлы, защищенные авторскими правами, а также файлы нелегального содержания!