Танковый Биатлон / Сезон: 3 / Серии:( 1-5 из 5 ) [2015, Военно-Спортивное Шоу, HDTV 1080i]

 
 Статистика раздачи 
Размер: 13.79 ГБ   |  Зарегистрирован: 08 янв 2016, 18:31   |   .torrent скачан: 1 раз
Сидеров: 1  [ 0 байт/сек ]     Личеров: 0  [ 0 байт/сек ]  
  

Танковый Биатлон / Сезон: 3 / Серии:( 1-5 из 5 ) [2015, Военно-Спортивное Шоу, HDTV 1080i]

Сообщение Thistoll » 08 янв 2016, 18:31

Танковый Биатлон / Сезон: 3 / Серии:( 1-5 из 5 )

Год выпуска: 2015
Страна: Россия
Студия: Россия HD | ООО "Телеиндустрия"
Жанр: Военно-Спортивное Шоу
Продолжительность: ~00:50:00 серия
Перевод: Не требуется
Ведущий: Дмитрий Губерниев

Описание: Это шоу можно назвать чемпионатом мира по танковому биатлону. Беспрецедентные учения-соревнования, идея организации которых принадлежит министру обороны России Сергею Шойгу, привлекли внимание всего мира. Третий сезон будет еще более представительным. Свое участие в "Танковом биатлоне-2015" подтвердили 13 стран: Россия, Ангола, Армения, Венесуэла, Индия, Казахстан, Киргизия, Китай, Кувейт, Монголия, Никарагуа, Сербия, Таджикистан.

Тип релиза: HDTV 1080i
Контейнер: TS

Видео: H264; 1920x1080 (16:9); 25.000 fps; ~7 736 Kbps
Аудио: MPEG Audio Version 1 Layer 2, 48000Hz, 2 channels stereo 192 Кбит/сек
Код: Выделить всё
General
ID                             : 1 (0x1)
Complete name                  : H:\__111\Танковый биатлон. Сезон 2015\01. Танковый биатлон. Сезон 2015.ts
Format                         : MPEG-TS
File size                      : 3.04 GiB
Duration                       : 52mn 7s
Overall bit rate mode          : Variable
Overall bit rate               : 8 342 Kbps

Video
ID                             : 2292 (0x8F4)
Menu ID                        : 1 (0x1)
Format                         : AVC
Format/Info                    : Advanced Video Codec
Format profile                 : High@L4.0
Format settings, CABAC         : Yes
Format settings, ReFrames      : 4 frames
Codec ID                       : 27
Duration                       : 52mn 7s
Bit rate                       : 7 736 Kbps
Width                          : 1 920 pixels
Height                         : 1 080 pixels
Display aspect ratio           : 16:9
Frame rate                     : 25.000 fps
Color space                    : YUV
Chroma subsampling             : 4:2:0
Bit depth                      : 8 bits
Scan type                      : MBAFF
Bits/(Pixel*Frame)             : 0.149
Stream size                    : 2.82 GiB (93%)

Audio
ID                             : 2295 (0x8F7)
Menu ID                        : 1 (0x1)
Format                         : MPEG Audio
Format version                 : Version 1
Format profile                 : Layer 2
Mode                           : Joint stereo
Mode extension                 : Intensity Stereo + MS Stereo
Codec ID                       : 3
Duration                       : 52mn 7s
Bit rate mode                  : Constant
Bit rate                       : 192 Kbps
Channel(s)                     : 2 channels
Sampling rate                  : 48.0 KHz
Compression mode               : Lossy
Stream size                    : 71.6 MiB (2%)
Language                       : English






 
Не забывайте говорить Спасибо. Не уходите с раздачи!   
Торрент: Зарегистрирован [08 янв 2016, 18:31] Для скачивания .torrent
необходима регистрация
Или скачать с помощью
MediaGet
Статус:
Проверен
 
.torrent скачан: 1 раз
Хэш: 14f16011000766f9fe19c25f8e5babfc562afa47
Размер: 13.79 ГБ (14 807 397 940 байт)
Стать Автором раздачи
 
 
Раздал: 6.67 ГБ
Скачал: 302.5 МБ
Ратио: 22.576
Сообщения: 374198
Зарегистрирован: 17 апр 2014, 11:05


  • Похожие торренты
    Ответы
    Просмотры
    Последнее сообщение

Вернуться в Телепередачи (HD Video), не являющиеся документалистикой

Ресурс не предоставляет электронные версии произведений, а занимается лишь коллекционированием и каталогизацией ссылок, присылаемых и публикуемых на форуме нашими читателями. Если вы являетесь правообладателем какого-либо представленного материала и не желаете чтобы ссылка на него находилась в нашем каталоге, свяжитесь с нами и мы незамедлительно удалим её. Файлы для обмена на трекере предоставлены пользователями сайта, и администрация не несёт ответственности за их содержание. Просьба не заливать файлы, защищенные авторскими правами, а также файлы нелегального содержания!