Замки Луары (9 серий) / Замки Валье-де-ла-Луар / The Châteaux of the Loire Valley (Жак Више / Jacques Vichet) [2012-2104, документальный, исторический, архитектура, DVBRip]

 
 Статистика раздачи 
Размер: 4.7 ГБ   |  Зарегистрирован: 08 янв 2016, 03:26   |   .torrent скачан: 2 раз
Сидеров: 1  [ 0 байт/сек ]     Личеров: 0  [ 0 байт/сек ]  
  

Замки Луары (9 серий) / Замки Валье-де-ла-Луар / The Châteaux of the Loire Valley (Жак Више / Jacques Vichet) [2012-2104, документальный, исторический, архитектура, DVBRip]

Сообщение Thistoll » 08 янв 2016, 03:26

Замки Луары (9 серий) / Замки Валье-де-ла-Луар / The Châteaux of the Loire Valley

Дата/Год выпуска: 2012-2104
Страна: Франция
Жанр: документальный, исторический, архитектура
Продолжительность: 9 серий по ~00:52:00
Перевод: Профессиональный (двухголосый закадровый)
Доп. инфо о переводе: ТПО "Ред Медиа"
Русские субтитры: нет

Режиссер: Жак Више / Jacques Vichet

Телеканал: 365 дней
Описание: Архитектурные сооружения, о которых рассказывается в документальном цикле - это великолепные замки долины реки Луары. В большинстве случаев они были построены или значительно перестроены в период французского Возрождения, в те времена, когда французские короли жили на берегах Великой Реки, ее притоков или вблизи от них.

Сэмпл: http://sendfile.su/1161702

качество: DVBRip
формат: AVI
Видео: Video: Xvid 720x432 25fps 1054kbps [V: mpeg4 advanced simple profile, yuv420p, 720x432, 1054 kb/s]
Аудио: MP3 48000Hz stereo 128kbps [A: mp3, 48000 Hz, stereo, 128 kb/s]

Прошу прощения, но 07.10.2015 торрент-файл был перезалит!
1. Королевский замок д'Амбуаз / The Royal Château of Amboise (2012)
2. Замок Вилландри / The Chateau of Villandry (2012)
3. Королевский замок Блуа / The Royal Château of Blois (2013)
4. Шеверни / The Chateau of Cheverny (2012)
5. Шенонсо / Château de Chenonceau (2013)
6. Кло Люсе. Последний дом Леонардо да Винчи / The Clos Lucé. The Last house of Leonardo Da Vinci (2013)
7. Замок Азей-лё-Ридо / Château d'Azay-le-Rideau(2013)
8. Шамбор / Château de Chambord (2014)
9. Замок Шомон-сюр-Луар / Château de Chaumont-sur-Loire(2014)
Код: Выделить всё
General
Complete name                  : G:\Замки Луары\для ави\Новый ави\5. Шенонсо.avi
Format                         : AVI
Format/Info                    : Audio Video Interleave
File size                      : 438 MiB
Duration                       : 51mn 16s
Overall bit rate               : 1 195 Kbps

Video
ID                             : 0
Format                         : MPEG-4 Visual
Format profile                 : Advanced Simple@L5
Format settings, BVOP          : 2
Format settings, QPel          : No
Format settings, GMC           : No warppoints
Format settings, Matrix        : Default (H.263)
Codec ID                       : XVID
Codec ID/Hint                  : XviD
Duration                       : 51mn 16s
Bit rate                       : 1 054 Kbps
Width                          : 720 pixels
Height                         : 432 pixels
Display aspect ratio           : 1.667
Frame rate                     : 25.000 fps
Color space                    : YUV
Chroma subsampling             : 4:2:0
Bit depth                      : 8 bits
Scan type                      : Progressive
Compression mode               : Lossy
Bits/(Pixel*Frame)             : 0.136
Stream size                    : 387 MiB (88%)
Writing library                : XviD 64

Audio
ID                             : 1
Format                         : MPEG Audio
Format version                 : Version 1
Format profile                 : Layer 3
Codec ID                       : 55
Codec ID/Hint                  : MP3
Duration                       : 51mn 16s
Source duration                : 51mn 16s
Bit rate mode                  : Constant
Bit rate                       : 128 Kbps
Channel(s)                     : 2 channels
Sampling rate                  : 48.0 KHz
Compression mode               : Lossy
Stream size                    : 46.9 MiB (11%)
Alignment                      : Split accross interleaves
Interleave, duration           : 24 ms (0.60 video frame)
Другие мои раздачи
Мир русской усадьбы http://rutracker.org/forum/viewtopic.php?t=4914474
Старинные русские усадьбы http://rutracker.org/forum/viewtopic.php?t=4916883
Амбициозный проект Средневековья-Страсбургский собор http://rutracker.org/forum/viewtopic.php?t=4929762
Роман в камне. Архитектурные шедевры мира. Португалия. Замок Слёз. http://rutracker.org/forum/viewtopic.php?t=4932511
Дома георгианской эпохи http://rutracker.org/forum/viewtopic.php?t=4986500
Жилье за миллиард: http://rutracker.org/forum/viewtopic.php?t=4988566
Загородные дома королевской семьи: http://rutracker.org/forum/viewtopic.php?t=4988021
20 Способов повысить стоимость дома http://rutracker.org/forum/viewtopic.php?t=4976430
Охотники за недвижимостью: дома за миллион долларов http://rutracker.org/forum/viewtopic.php?t=4928925
Замки в объективе (Королевские резиденции на экране телевизора): http://rutracker.org/forum/viewtopic.php?t=4991714
80 Лучших садов мира http://rutracker.org/forum/viewtopic.php?t=5008414
Париж: История одной столицы http://rutracker.org/forum/viewtopic.php?t=5014091
Барокко! От собора св.Петра до собора св.Павла http://rutracker.org/forum/viewtopic.php?t=5017799
Символика церквей http://rutracker.org/forum/viewtopic.php?t=5018685
Петергоф - Жемчужина России http://rutracker.org/forum/viewtopic.php?t=5019322
Великие памятники архитектуры http://rutracker.org/forum/viewtopic.php?t=5022510
BBC:Французские сады с Монти Доном http://rutracker.org/forum/viewtopic.php?t=5084695
ВВС: Итальянские сады с Монти Доном http://rutracker.org/forum/viewtopic.php?t=5094155
Преданья старины глубокой http://rutracker.org/forum/viewtopic.php?t=5084731
История римского Колизея http://rutracker.org/forum/viewtopic.php?t=5020513
Ожившая архитектура http://rutracker.org/forum/viewtopic.php?t=5098388
Сказочный замок короля Людвига II http://rutracker.org/forum/viewtopic.php?t=5098918
Путешествие по Индии http://rutracker.org/forum/viewtopic.php?t=5103452
Города мира http://rutracker.org/forum/viewtopic.php?t=5103491
Комнаты за миллион долларов http://rutracker.org/forum/viewtopic.php?t=5103953
Женский гений живописи http://rutracker.org/forum/viewtopic.php?t=4992548
Барокко! От собора св.Петра до собора св.Павла http://rutracker.org/forum/viewtopic.php?t=5017799
BBC: Частная жизнь шедевра (4 серии)http://rutracker.org/forum/viewtopic.php?t=5023620
 
Не забывайте говорить Спасибо. Не уходите с раздачи!   
Торрент: Зарегистрирован [08 янв 2016, 03:26] Для скачивания .torrent
необходима регистрация
Или скачать с помощью
MediaGet
Статус:
Проверен
 
.torrent скачан: 2 раз
Хэш: 277cd57b622fcb23ae942719d5f7cbc7c99271a9
Размер: 4.7 ГБ (5 042 684 060 байт)
Стать Автором раздачи
 
 
Раздал: 6.67 ГБ
Скачал: 302.5 МБ
Ратио: 22.576
Сообщения: 374198
Зарегистрирован: 17 апр 2014, 11:05


  • Похожие торренты
    Ответы
    Просмотры
    Последнее сообщение

Вернуться в Архитектура и строительство (видео)

Ресурс не предоставляет электронные версии произведений, а занимается лишь коллекционированием и каталогизацией ссылок, присылаемых и публикуемых на форуме нашими читателями. Если вы являетесь правообладателем какого-либо представленного материала и не желаете чтобы ссылка на него находилась в нашем каталоге, свяжитесь с нами и мы незамедлительно удалим её. Файлы для обмена на трекере предоставлены пользователями сайта, и администрация не несёт ответственности за их содержание. Просьба не заливать файлы, защищенные авторскими правами, а также файлы нелегального содержания!