Антиганг / Отряд / Antigang (2015) BDRip [H.264] [MP4|1280x536]

 
 Статистика раздачи 
Размер: 1.94 ГБ   |  Зарегистрирован: 07 янв 2016, 18:40   |   .torrent скачан: 0 раз
Сидеров: 1  [ 0 байт/сек ]     Личеров: 0  [ 0 байт/сек ]  
  

Антиганг / Отряд / Antigang (2015) BDRip [H.264] [MP4|1280x536]

Сообщение i926 » 07 янв 2016, 18:40

Антиганг / Отряд / Antigang (2015) BDRip 720p

Производство: Франция / Capture The Flag Films
Жанр: Боевик, Драма

Режиссер: Бенжамен Роше
Актеры: Жан Рено, Элбан Ленуар, Катерина Мурино, Умар Диау, Стефи Сельма, Себастьен ЛаЛэйнн, Тьерри Нёвик, Жан-Туссен Бернард, Якоб Седергрен

Описание:
Серж Бюрен — легендарный полицейский, возглавляющий группу молодых приспешников с нетипичным подходом. И неважно, используют ли они бейсбольные биты или напрочь забывают об уставе во время показательных арестов, результат налицо. В то же время группировка смертоносных грабителей с легкостью обчищает столичные банки и ювелирные магазины. Бюрен и его подразделение попадают в непростую ситуацию: окажутся ли привычные им методы быстрого реагирования достаточными, для того чтобы остановить преступников?



Продолжительность: 01:32:43
Качество видео: BDRip 720p
Перевод: Многоголосый закадровый, профессиональный - Paradox & Omskbird records
Автор перевода: Екатерина Кузнецова
Озвучка: Анна Тух, Александр Дасевич, Константин Погодаев, Сергей Науменко, Павел Ярощик и Давид Бродский
Примечание: присутствуют рекламные вставки

Видео: AVC/H.264 (High@L3.1), 1280x536 (2,40:1), ~2850 Кбит/сек
Аудио: AAC, 2 канала, 160 Кбит/сек - русский (многоголосый закадровый)
Код:
Код: Выделить всё
Полное имя                               : E:\Video\Antigang_2015_BDRip_720p_x264_Paradox_NNM-CLUB.mp4
Формат                                   : MPEG-4
Профиль формата                          : Base Media
Идентификатор кодека                     : isom
Размер файла                             : 1,94 Гбайт
Продолжительность                        : 1 ч. 32 м.
Общий поток                              : 3002 Кбит/сек

Видео
Идентификатор                            : 1
Формат                                   : AVC
Формат/Информация                        : Advanced Video Codec
Профиль формата                          :
Параметр CABAC формата                   : Да
Параметр ReFrames формата                : 4 кадра
Идентификатор кодека                     : avc1
Идентификатор кодека/Информация          : Advanced Video Coding
Продолжительность                        : 1 ч. 32 м.
Битрейт                                  : 2850 Кбит/сек
Ширина                                   : 1280 пикселей
Высота                                   : 536 пикселей
Соотношение сторон                       : 2,40:1
Режим частоты кадров                     : Постоянный
Частота кадров                           : 24,000 кадра/сек
Цветовое пространство                    : YUV
Субдискретизация насыщенности            : 4:2:0
Битовая глубина                          : 8 бит
Тип развёртки                            : Прогрессивная
Бит/(Пиксели*Кадры)                      : 0.173
Размер потока                            : 1,84 Гбайт (94%)
Библиотека кодирования                   : x264 core 146 r2538M 121396c
Настройки программы                      : cabac=1 / ref=5 / deblock=1:-1:-1 / analyse=0x3:0x133 / me=umh / subme=8 / psy=1 / psy_rd=1,00:0,15 / mixed_ref=1 / me_range=24 / chroma_me=1 / trellis=1 / 8x8dct=1 / cqm=0 / deadzone=21,11 / fast_pskip=1 / chroma_qp_offset=-3 / threads=18 / lookahead_threads=4 / sliced_threads=0 / nr=0 / decimate=1 / interlaced=0 / bluray_compat=0 / constrained_intra=0 / bframes=6 / b_pyramid=1 / b_adapt=2 / b_bias=0 / direct=3 / weightb=1 / open_gop=0 / weightp=2 / keyint=240 / keyint_min=24 / scenecut=40 / intra_refresh=0 / rc_lookahead=240 / rc=2pass / mbtree=1 / bitrate=2850 / ratetol=1,0 / qcomp=0,60 / qpmin=10 / qpmax=51 / qpstep=4 / cplxblur=20,0 / qblur=0,5 / vbv_maxrate=31250 / vbv_bufsize=31250 / nal_hrd=none / filler=0 / ip_ratio=1,40 / aq=1:1,00

Аудио
Идентификатор                            : 2
Формат                                   : AAC
Формат/Информация                        : Advanced Audio Codec
Профиль формата                          : LC
Идентификатор кодека                     : 40
Продолжительность                        : 1 ч. 32 м.
Вид битрейта                             : Постоянный
Битрейт                                  : 160 Кбит/сек
Каналы                                   : 2 канала
Расположение каналов                     : Front: L R
Частота                                  : 48,0 КГц
Метод сжатия                             : С потерями
Размер потока                            : 106 Мбайт (5%)
Язык                                     : Russian

Скриншоты:




Время раздачи:
24/7 - круглосуточно
(до первых 5-ти сидов - потом по возможности)

 
Не забывайте говорить Спасибо. Не уходите с раздачи!   
Торрент: Зарегистрирован [07 янв 2016, 18:40] Для скачивания .torrent
необходима регистрация
Или скачать с помощью
MediaGet
Статус:
Проверен
 
.torrent скачан: 0 раз
Хэш: 7d4d6720533e3d99062804ff84f5df0220dba482
Размер: 1.94 ГБ (2 087 662 671 байт)
Стать Автором раздачи
 
Аватара пользователя
Главный редактор
Главный редактор
 
Раздал: 15.43 ТБ
Скачал: 13.78 ТБ
Ратио: 1.120
Сообщения: 65091
Зарегистрирован: 01 мар 2011, 23:07


  • Похожие торренты
    Ответы
    Просмотры
    Последнее сообщение

Вернуться в Видео для мобильных устройств

Ресурс не предоставляет электронные версии произведений, а занимается лишь коллекционированием и каталогизацией ссылок, присылаемых и публикуемых на форуме нашими читателями. Если вы являетесь правообладателем какого-либо представленного материала и не желаете чтобы ссылка на него находилась в нашем каталоге, свяжитесь с нами и мы незамедлительно удалим её. Файлы для обмена на трекере предоставлены пользователями сайта, и администрация не несёт ответственности за их содержание. Просьба не заливать файлы, защищенные авторскими правами, а также файлы нелегального содержания!
cron