Gunter - Pleasureman (2004) 2005 Танцевальный Рай [FLAC|Lossless|tracks + .cue] <Euro House>

 
 Статистика раздачи 
Размер: 308.57 МБ   |  Зарегистрирован: 07 янв 2016, 00:22   |   .torrent скачан: 0 раз
Сидеров: 1  [ 0 байт/сек ]     Личеров: 0  [ 0 байт/сек ]  
  

Gunter - Pleasureman (2004) 2005 Танцевальный Рай [FLAC|Lossless|tracks + .cue] <Euro House>

Сообщение Seepas » 07 янв 2016, 00:22

Gunter - Pleasureman (2004) 2005 Танцевальный Рай

Год: 2004
Жанр: Euro House
Издание: Танцевальный Рай – TP-155
Продолжительность: 00:37:27

Источник (релизер): blandrew®

Кодек: FLAC
Битрейт: Lossless
Тип рипа: tracks + .cue

Треклист:
01. Golddiggers (3:36)
02. Ding Dong Song (4:04)
03. Teeny Weeny String Bikini (4:00)
04. Touch Me (3:39)
05. Pleasureman (3:24)
06. Crazy & Wild (4:17)
07. One Night Stand (3:37)
08. I'm Your Man (G.U.N.T.H.E.R) (3:08)
09. Naughty Boy (3:30)
10. Enormous Emotion (I Love You) (4:08)
11. Ding Dong Song (Soft Core) (4:21)
Код:
Код: Выделить всё
Exact Audio Copy V1.1 from 23. June 2015

EAC extraction logfile from 6. January 2016, 14:40

Gunther / Pleasureman

Used drive  : ASUS    BW-12D1S-U   Adapter: 1  ID: 0

Read mode               : Secure
Utilize accurate stream : Yes
Defeat audio cache      : Yes
Make use of C2 pointers : No

Read offset correction                      : 667
Overread into Lead-In and Lead-Out          : No
Fill up missing offset samples with silence : Yes
Delete leading and trailing silent blocks   : No
Null samples used in CRC calculations       : Yes
Used interface                              : Native Win32 interface for Win NT & 2000
Gap handling                                : Appended to previous track

Used output format              : User Defined Encoder
Selected bitrate                : 768 kBit/s
Quality                         : High
Add ID3 tag                     : No
Command line compressor         : D:\Program Files (x86)\Exact Audio Copy\Flac\flac.exe
Additional command line options : -8 -V -T "TITLE=%title%" -T "ARTIST=%artist%" -T "ALBUMARTIST=%albumartist%" -T "ALBUM=%albumtitle%" -T "DATE=%year%" -T "TRACKNUMBER=%tracknr%" -T "TRACKTOTAL=%numtracks%" -T "GENRE=%genre%" -T "COMMENT=%comment%" -T "PERFORMER=%albuminterpret%" -T "COMPOSER=%composer%" %source% -o %dest%

TOC of the extracted CD

     Track |   Start  |  Length  | Start sector | End sector
    ---------------------------------------------------------
        1  |  0:00.00 |  3:36.13 |         0    |    16212
        2  |  3:36.13 |  4:04.38 |     16213    |    34550
        3  |  7:40.51 |  4:00.62 |     34551    |    52612
        4  | 11:41.38 |  3:39.19 |     52613    |    69056
        5  | 15:20.57 |  3:24.00 |     69057    |    84356
        6  | 18:44.57 |  4:17.53 |     84357    |   103684
        7  | 23:02.35 |  3:37.53 |    103685    |   120012
        8  | 26:40.13 |  3:08.52 |    120013    |   134164
        9  | 29:48.65 |  3:30.08 |    134165    |   149922
       10  | 33:18.73 |  4:08.58 |    149923    |   168580
       11  | 37:27.56 |  4:21.34 |    168581    |   188189

Track  1

     Filename D:\Video&Music&Books\2004 - Pleasureman\01 Golddiggers.wav

     Pre-gap length  0:00:02.00

     Peak level 98.8 %
     Extraction speed 2.8 X
     Track quality 100.0 %
     Test CRC C0183803
     Copy CRC C0183803
     Cannot be verified as accurate (confidence 1)  [6B9841CB], AccurateRip returned [225FBB52]  (AR v2)
     Copy OK

Track  2

     Filename D:\Video&Music&Books\2004 - Pleasureman\02 Ding Dong Song.wav

     Peak level 98.8 %
     Extraction speed 3.1 X
     Track quality 100.0 %
     Test CRC 6218A08B
     Copy CRC 6218A08B
     Cannot be verified as accurate (confidence 1)  [1CF4587A], AccurateRip returned [A7A6169C]  (AR v2)
     Copy OK

Track  3

     Filename D:\Video&Music&Books\2004 - Pleasureman\03 Teeny Weeny String Bikini.wav

     Peak level 98.8 %
     Extraction speed 3.3 X
     Track quality 100.0 %
     Test CRC 4E54802E
     Copy CRC 4E54802E
     Cannot be verified as accurate (confidence 1)  [65F6C721], AccurateRip returned [9E5EB620]  (AR v2)
     Copy OK

Track  4

     Filename D:\Video&Music&Books\2004 - Pleasureman\04 Touch Me.wav

     Peak level 98.8 %
     Extraction speed 3.5 X
     Track quality 100.0 %
     Test CRC 92731586
     Copy CRC 92731586
     Cannot be verified as accurate (confidence 1)  [04639DD3], AccurateRip returned [EED1A6BE]  (AR v2)
     Copy OK

Track  5

     Filename D:\Video&Music&Books\2004 - Pleasureman\05 Pleasureman.wav

     Peak level 98.8 %
     Extraction speed 3.6 X
     Track quality 100.0 %
     Test CRC 3DF567B1
     Copy CRC 3DF567B1
     Cannot be verified as accurate (confidence 1)  [D434E031], AccurateRip returned [B6DDDA4C]  (AR v2)
     Copy OK

Track  6

     Filename D:\Video&Music&Books\2004 - Pleasureman\06 Crazy & Wild.wav

     Peak level 98.8 %
     Extraction speed 3.9 X
     Track quality 100.0 %
     Test CRC 8ABC41D4
     Copy CRC 8ABC41D4
     Cannot be verified as accurate (confidence 1)  [FFA63AA2], AccurateRip returned [E07A9EEF]  (AR v2)
     Copy OK

Track  7

     Filename D:\Video&Music&Books\2004 - Pleasureman\07 One Night Stand.wav

     Peak level 98.8 %
     Extraction speed 4.0 X
     Track quality 100.0 %
     Test CRC 791803DF
     Copy CRC 791803DF
     Cannot be verified as accurate (confidence 1)  [C59857FA], AccurateRip returned [99908CA2]  (AR v2)
     Copy OK

Track  8

     Filename D:\Video&Music&Books\2004 - Pleasureman\08 I'm Your Man (G.U.N.T.H.E.R).wav

     Peak level 98.8 %
     Extraction speed 4.0 X
     Track quality 100.0 %
     Test CRC 4784A808
     Copy CRC 4784A808
     Cannot be verified as accurate (confidence 1)  [83E5F984], AccurateRip returned [1AB921B4]  (AR v2)
     Copy OK

Track  9

     Filename D:\Video&Music&Books\2004 - Pleasureman\09 Naughty Boy.wav

     Peak level 98.8 %
     Extraction speed 4.2 X
     Track quality 100.0 %
     Test CRC B78BF79A
     Copy CRC B78BF79A
     Cannot be verified as accurate (confidence 1)  [2CE94B39], AccurateRip returned [E5F832A0]  (AR v2)
     Copy OK

Track 10

     Filename D:\Video&Music&Books\2004 - Pleasureman\10 Enormous Emotion (I Love You).wav

     Peak level 98.8 %
     Extraction speed 4.4 X
     Track quality 100.0 %
     Test CRC F86AB1F6
     Copy CRC F86AB1F6
     Cannot be verified as accurate (confidence 1)  [41C14B83], AccurateRip returned [9591864A]  (AR v2)
     Copy OK

Track 11

     Filename D:\Video&Music&Books\2004 - Pleasureman\11 Ding Dong Song (Soft Core).wav

     Peak level 98.8 %
     Extraction speed 4.6 X
     Track quality 100.0 %
     Test CRC 85F0CD18
     Copy CRC 85F0CD18
     Cannot be verified as accurate (confidence 1)  [EAE7E847], AccurateRip returned [EF80EE15]  (AR v2)
     Copy OK

No tracks could be verified as accurate
You may have a different pressing from the one(s) in the database

No errors occurred

End of status report

---- CUETools DB Plugin V2.1.6

[CTDB TOCID: yStIc809NCer39L1Xz5MsgaCVLA-] found
Submit result: yStIc809NCer39L1Xz5MsgaCVLA- has been confirmed
Track | CTDB Status
  1   | (5/8) Accurately ripped
  2   | (5/8) Accurately ripped
  3   | (5/8) Accurately ripped
  4   | (5/8) Accurately ripped
  5   | (5/8) Accurately ripped
  6   | (5/8) Accurately ripped
  7   | (5/8) Accurately ripped
  8   | (5/8) Accurately ripped
  9   | (5/8) Accurately ripped
 10   | (5/8) Accurately ripped
 11   | (5/8) Accurately ripped

==== Log checksum 949ACF6F1BE91AB08F1EBA646646DC87B300E185D8FE302E0C0AD5BFEA67D3C4 ====
Код:
Код: Выделить всё
-----------------------

DON'T MODIFY THIS FILE

-----------------------

PERFORMER: auCDtect Task Manager, ver. 1.6.0 RC1 build 1.6.0.1
Copyright (c) 2008-2010 y-soft. All rights reserved
http:/y-soft.org

ANALYZER: auCDtect: CD records authenticity detector, version 0.8.2
Copyright (c) 2004 Oleg Berngardt. All rights reserved.
Copyright (c) 2004 Alexander Djourik. All rights reserved.

FILE: 11 Ding Dong Song (Soft Core).flac
  Size: 29381910 Hash: 68A4A606D258446EFDCD9476E461E0BC Accuracy: -m0
  Conclusion: CDDA 100%
  Signature: C7256A9658F7D31A44CFC3EDCE8678E1BD639225
FILE: 10 Enormous Emotion (I Love You).flac
  Size: 30306331 Hash: EE64BD0F1424D95AEF03890682D757C4 Accuracy: -m0
  Conclusion: CDDA 100%
  Signature: A51D2EE20C306A4D3F1FB928366D70704AB03C85
FILE: 09 Naughty Boy.flac
  Size: 27253398 Hash: DF73D1AFBD2650ACA18008CDE0D3B943 Accuracy: -m0
  Conclusion: CDDA 100%
  Signature: 61D111FB2041C3B3BF34F5ED9C252403C5909E31
FILE: 08 I'm Your Man (G.U.N.T.H.E.R).flac
  Size: 23294662 Hash: 06C2C6EAA0788315F25FA005A58BC584 Accuracy: -m0
  Conclusion: CDDA 100%
  Signature: 494539DB47A16E77D88576D39DBE6C204645C244
FILE: 07 One Night Stand.flac
  Size: 28137184 Hash: A536C95C5B8082D34BA6C469438FD937 Accuracy: -m0
  Conclusion: CDDA 100%
  Signature: FBCFEB8D38816296C34BDD32F428E5066CB8E12D
FILE: 06 Crazy & Wild.flac
  Size: 32930503 Hash: 11680A7892F73FB95F24ACB3CBA291B3 Accuracy: -m0
  Conclusion: CDDA 100%
  Signature: AD362B8DAC700DE53C6314DF434770EE55CE75EB
FILE: 05 Pleasureman.flac
  Size: 27891017 Hash: 4C3E4041BD022C0DE7C3AEB37D5EF0FD Accuracy: -m0
  Conclusion: CDDA 100%
  Signature: FB7A5EAB390F66986E3F1BC4A61B8F693E6A82F5
FILE: 04 Touch Me.flac
  Size: 29948820 Hash: 9855A85D4A0FECBFD20505E536AEC995 Accuracy: -m0
  Conclusion: CDDA 100%
  Signature: 5EA1F28A0F8CE8DCE5D5EBF00B6472E4F9D58A13
FILE: 03 Teeny Weeny String Bikini.flac
  Size: 32545504 Hash: 648F02FB8F5063DC7AFA8A58615340F4 Accuracy: -m0
  Conclusion: CDDA 100%
  Signature: 2C701DDE04A433E058318A65DD76A58326E84A45
FILE: 02 Ding Dong Song.flac
  Size: 33029622 Hash: 56A6AB7DE75F915EB102EBADE64F51A1 Accuracy: -m0
  Conclusion: CDDA 99%
  Signature: 4A4563FE2A7AFC3AB55F509A2E6A41BE420002C5
FILE: 01 Golddiggers.flac
  Size: 28699811 Hash: 3C1C242C6ACF39844D3CC0B3250CDB21 Accuracy: -m0
  Conclusion: CDDA 100%
  Signature: 382E1774E1EEC47C676CBFFA1CC2D7B5730CA4E5
Время раздачи: 24/7 (круглосуточно) - до появления первых 3-5 скачавших
 
Не забывайте говорить Спасибо. Не уходите с раздачи!   
Торрент: Зарегистрирован [07 янв 2016, 00:22] Скачать торрент
Скачать торрент
[ Размер 27.45 КБ / Просмотров 24 ]
Статус:
Проверен
 
.torrent скачан: 0 раз
Хэш: 2fddaa2312db8517095a7e31fcc09bd2786e11ef
Размер: 308.57 МБ (323 558 619 байт)
Стать Автором раздачи
 
 
Раздал: 0 байт
Скачал: 0 байт
Ратио: Inf.
Сообщения: 188877
Зарегистрирован: 14 июн 2014, 20:46


  • Похожие торренты
    Ответы
    Просмотры
    Последнее сообщение

Вернуться в House, Techno, Electro, Minimal (транзит Lossless)

Ресурс не предоставляет электронные версии произведений, а занимается лишь коллекционированием и каталогизацией ссылок, присылаемых и публикуемых на форуме нашими читателями. Если вы являетесь правообладателем какого-либо представленного материала и не желаете чтобы ссылка на него находилась в нашем каталоге, свяжитесь с нами и мы незамедлительно удалим её. Файлы для обмена на трекере предоставлены пользователями сайта, и администрация не несёт ответственности за их содержание. Просьба не заливать файлы, защищенные авторскими правами, а также файлы нелегального содержания!
cron