Империя стриптиза / Topless Prophet (2014) HDTV [H.264/1080i-LQ] [серии 1-10 из 10]

 
 Статистика раздачи 
Размер: 13.98 ГБ   |  Зарегистрирован: 07 янв 2016, 00:10   |   .torrent скачан: 0 раз
Сидеров: 1  [ 0 байт/сек ]     Личеров: 0  [ 0 байт/сек ]  
  

Империя стриптиза / Topless Prophet (2014) HDTV [H.264/1080i-LQ] [серии 1-10 из 10]

Сообщение Seepas » 07 янв 2016, 00:10

Империя стриптиза / Topless Prophet (2014) HDTV [H.264/1080i]

Телекомпания: США, Pilgrim Studios
Жанр: Документальный

Участники: Alan Markovitz, Michael Alexander, Earl Herzfeld

Описание:
Закулисье «мужских клубов» в округе Детройта, которыми владеет Алан Марковиц, ветеран индустрии развлечений для взрослых с 30-летним стажем, провозгласивший себя «самым успешным основателем стриптиз-клубов в Америке».


Возраст: 18+ (зрителям, достигшим 18 лет. Запрещено для детей)

Продолжительность: 00:26:00 (одна серия)
Качество видео: HDTV [1080i]

Перевод: Многоголосый закадровый, профессиональный

Видео: AVC/H.264, 1920x1080, ~6733 kb/s
Аудио 1 Rus: MP2, 2 ch, 48,0 kHz, 192 kbps - MVO
Аудио 2 Eng: MP2, 2 ch, 48,0 kHz, 192 kbps - Оригинал
Аудио 3 Rus: АС3, 6 ch, 48,0 kHz, 384 kbps - MVO
Семпл: Скачать
Код:
Код: Выделить всё
Общее
Идентификатор                            : 16 (0x10)
Полное имя                               : Topless Prophet_part_1.ts
Формат                                   : MPEG-TS
Размер файла                             : 1,37 Гбайт
Продолжительность                        : 24 м.
Режим общего битрейта                    : Переменный
Общий поток                              : 7899 Кбит/сек

Видео
Идентификатор                            : 1812 (0x714)
Идентификатор меню                       : 812 (0x32C)
Формат                                   : AVC
Формат/Информация                        : Advanced Video Codec
Профиль формата                          :
Параметр CABAC формата                   : Да
Параметр ReFrames формата                : 4 кадра
Идентификатор кодека                     : 27
Продолжительность                        : 24 м.
Битрейт                                  : 6733 Кбит/сек
Ширина                                   : 1920 пикселей
Высота                                   : 1080 пикселей
Соотношение сторон                       : 16:9
Частота кадров                           : 25,000 кадров/сек
Стандарт вещания                         : PAL
Цветовое пространство                    : YUV
Субдискретизация насыщенности            : 4:2:0
Битовая глубина                          : 8 бит
Тип развёртки                            : MBAFF
Бит/(Пиксели*Кадры)                      : 0.130
Размер потока                            : 1,16 Гбайт (85%)
Основные цвета                           : BT.709
Характеристики трансфера                 : BT.709
Коэффициенты матрицы                     : BT.709

Аудио #1
Идентификатор                            : 2812 (0xAFC)
Идентификатор меню                       : 812 (0x32C)
Формат                                   : MPEG Audio
Версия формата                           : Version 1
Профиль формата                          : Layer 2
Режим                                    : Joint stereo
Расширение режима                        : Intensity Stereo + MS Stereo
Идентификатор кодека                     : 4
Продолжительность                        : 24 м.
Вид битрейта                             : Постоянный
Битрейт                                  : 192 Кбит/сек
Каналы                                   : 2 канала
Частота                                  : 48,0 КГц
Метод сжатия                             : С потерями
Задержка видео                           : 9 мс.
Размер потока                            : 34,0 Мбайт (2%)
Язык                                     : std
Язык, дополнительно                      : Clean effects

Аудио #2
Идентификатор                            : 3812 (0xEE4)
Идентификатор меню                       : 812 (0x32C)
Формат                                   : MPEG Audio
Версия формата                           : Version 1
Профиль формата                          : Layer 2
Режим                                    : Joint stereo
Расширение режима                        : Intensity Stereo + MS Stereo
Идентификатор кодека                     : 4
Продолжительность                        : 24 м.
Вид битрейта                             : Постоянный
Битрейт                                  : 192 Кбит/сек
Каналы                                   : 2 канала
Частота                                  : 48,0 КГц
Метод сжатия                             : С потерями
Задержка видео                           : 9 мс.
Размер потока                            : 34,0 Мбайт (2%)
Язык                                     : std
Язык, дополнительно                      : Clean effects

Аудио #3
Идентификатор                            : 4812 (0x12CC)
Идентификатор меню                       : 812 (0x32C)
Формат                                   : AC-3
Формат/Информация                        : Audio Coding 3
Расширение режима                        : CM (complete main)
Параметр Endianness формата              : Big
Идентификатор кодека                     : 6
Продолжительность                        : 24 м.
Вид битрейта                             : Постоянный
Битрейт                                  : 384 Кбит/сек
Каналы                                   : 6 каналов
Расположение каналов                     : Front: L C R, Side: L R, LFE
Частота                                  : 48,0 КГц
Битовая глубина                          : 16 бит
Метод сжатия                             : С потерями
Задержка видео                           : 145 мс.
Размер потока                            : 68,0 Мбайт (5%)
Язык                                     : std
Язык, дополнительно                      : Clean effects

Текст
Идентификатор                            : 63 (0x3F)-100
Идентификатор меню                       : 812 (0x32C)
Формат                                   : Teletext

Меню
Идентификатор                            : 812 (0x32C)
Идентификатор меню                       : 812 (0x32C)
Продолжительность                        : 24 м.
Список                                   : 1812 (0x714) (AVC) / 2812 (0xAFC) (MPEG Audio, std) / 3812 (0xEE4) (MPEG Audio, std) / 4812 (0x12CC) (AC-3, std) / 63 (0x3F) ()
Язык                                     :  / std / std / std

Скриншоты:



Время раздачи: Пн-Пт с 18:00 до 22:00
 
Не забывайте говорить Спасибо. Не уходите с раздачи!   
Торрент: Зарегистрирован [07 янв 2016, 00:10] Для скачивания .torrent
необходима регистрация
Или скачать с помощью
MediaGet
Статус:
Проверен
 
.torrent скачан: 0 раз
Хэш: 50857c7c1f17f2e75cdf394334cf9376c211815f
Размер: 13.98 ГБ (15 013 571 336 байт)
Стать Автором раздачи
 
 
Раздал: 0 байт
Скачал: 0 байт
Ратио: Inf.
Сообщения: 188877
Зарегистрирован: 14 июн 2014, 20:46


Вернуться в Зарубежные TV-бренды

Ресурс не предоставляет электронные версии произведений, а занимается лишь коллекционированием и каталогизацией ссылок, присылаемых и публикуемых на форуме нашими читателями. Если вы являетесь правообладателем какого-либо представленного материала и не желаете чтобы ссылка на него находилась в нашем каталоге, свяжитесь с нами и мы незамедлительно удалим её. Файлы для обмена на трекере предоставлены пользователями сайта, и администрация не несёт ответственности за их содержание. Просьба не заливать файлы, защищенные авторскими правами, а также файлы нелегального содержания!
cron