Люди в черном: Трилогия / Men in Black: Trilogy (1997, 2002, 2012) HDRip [H.264] [MP4|960х528]

 
 Статистика раздачи 
Размер: 5.12 ГБ   |  Зарегистрирован: 05 янв 2016, 12:33   |   .torrent скачан: 0 раз
Сидеров: 1  [ 0 байт/сек ]     Личеров: 0  [ 0 байт/сек ]  
  

Люди в черном: Трилогия / Men in Black: Trilogy (1997, 2002, 2012) HDRip [H.264] [MP4|960х528]

Сообщение Seepas » 05 янв 2016, 12:33

Люди в черном: Трилогия / Men in Black: Trilogy (1997, 2002, 2012) HDRip

Производство: США, Columbia Pictures Corporation, Amblin Entertainment, MacDonald/Parkes Productions
Жанр: Фантастика, Комедия, Боевик

Режиссер: Барри Зонненфельд
Актеры: Томми Ли Джонс, Уилл Смит, Винсент Д’Онофрио, Линда Фиорентино, Рип Торн, Тони Шэлуб, Шиван Фэллон, Майк Нассбаум, Джон Грайз, Фредрик Лене и другие

Описание:
Дело было так... На Земле тайно проживают полторы тысячи инопланетян. Для решения вопросов их социальной защиты и предохранения землян от возможного негативного влияния создано Бюро по сотрудничеству с инопланетянами. У землян-агентов есть продвинутые технологии для взаимодействия с пришельцами и сокрытия их присутствия. Специальное устройство для стирания памяти помогает оставить в тайне факт наличия инопланетян для большинства населения Земли.
Ветеран Бюро Агент Кей ищет себе нового напарника и нанимает на работу полицейского Джеймса Эдвардса. Новичок получает кодовое имя Джей.
Между тем в среде пришельцев Нью-Йорка неспокойно и многие начинают покидать город. В разработку агентам попадает дело о незаконном пришельце, представителе расы «жуков»-захватчиков. По прибытии пришелец съедает фермера Эдгара и надевает на себя его кожу. «Жук», безжалостно убивая всех на своём пути, охотится за некой «галактикой» в поясе Ориона — позже выясняется, что это брелок, висящий на ошейнике кота по кличке Орион. Захват ценнейшего аркилийского артефакта может повлечь за собой гибель Земли.
Жёлтая пресса наводит агентов на след преступника. В городской морг попадают два тела, одно из которых удаётся идентифицировать как высокопоставленного пришельца-аркилийца, погибшего после встречи с жуком. Военный крейсер аркилийцев готов к ответному удару по Земле, если «Галактика» не будет возвращена им. В распоряжении агентства считанные часы. К и J находят захватчика, вступают в схватку с монстром, спасают планету и, тем самым, избегают опасности уничтожения Земли.

И... это американская фантастическая комедия 1997 года режиссёра Барри Зонненфельда.
Картина создана по мотивам комиксов Лоуэлла Каннигема и повествует о деятельности двух сотрудников секретного надправительственного (!) агентства «Люди в чёрном», контролирующего пребывание инопланетных пришельцев на Земле...



Продолжительность: 01:37:58; 01:28:08; 01:45:50
Качество видео: HDRip
Перевод: Дублированный

Видео: AVC/H.264, 960х528, ~2345 Kbps
Аудио: AAC, 2 ch, 160 Kbps
Параметры кодирования: Идентичны
Код:
Код: Выделить всё
General
Complete name                            : Люди в чёрном. Трилогия\Люди в чёрном (1997).mp4
Format                                   : MPEG-4
Format profile                           : Base Media
Codec ID                                 : isom
File size                                : 1.72 GiB
Duration                                 : 1h 37mn
Overall bit rate mode                    : Variable
Overall bit rate                         : 2 511 Kbps
Movie name                               : Люди в чёрном (1997) [NoNaMe-Club rip by alien.09]
ContentType                              : Short Film
Encoded date                             : UTC 2016-01-04 12:58:29
Tagged date                              : UTC 2016-01-04 13:00:16

Video
ID                                       : 1
Format                                   : AVC
Format/Info                              : Advanced Video Codec
Format profile                           :
Format settings, CABAC                   : Yes
Format settings, ReFrames                : 3 frames
Codec ID                                 : avc1
Codec ID/Info                            : Advanced Video Coding
Duration                                 : 1h 37mn
Bit rate                                 : 2 345 Kbps
Maximum bit rate                         : 6 088 Kbps
Width                                    : 960 pixels
Height                                   : 528 pixels
Display aspect ratio                     : 1.85:1
Frame rate mode                          : Constant
Frame rate                               : 23.976 fps
Color space                              : YUV
Chroma subsampling                       : 4:2:0
Bit depth                                : 8 bits
Scan type                                : Progressive
Bits/(Pixel*Frame)                       : 0.193
Stream size                              : 1.60 GiB (93%)
Writing library                          : x264 core 128 r2216M 198a7ea
Encoding settings                        : cabac=1 / ref=3 / deblock=1:-1:-1 / analyse=0x1:0x131 / me=hex / subme=7 / psy=1 / psy_rd=0.40:0.15 / mixed_ref=1 / me_range=16 / chroma_me=1 / trellis=1 / 8x8dct=0 / cqm=0 / deadzone=21,11 / fast_pskip=1 / chroma_qp_offset=-3 / threads=8 / lookahead_threads=1 / sliced_threads=0 / nr=0 / decimate=1 / interlaced=0 / bluray_compat=0 / constrained_intra=0 / bframes=3 / b_pyramid=0 / b_adapt=2 / b_bias=0 / direct=3 / weightb=1 / open_gop=0 / weightp=0 / keyint=230 / keyint_min=23 / scenecut=40 / intra_refresh=0 / rc_lookahead=40 / rc=2pass / mbtree=1 / bitrate=2345 / ratetol=1.0 / qcomp=0.60 / qpmin=10 / qpmax=51 / qpstep=4 / cplxblur=20.0 / qblur=0.5 / vbv_maxrate=5000 / vbv_bufsize=1835 / nal_hrd=none / ip_ratio=1.40 / aq=1:0.60
Language                                 : English
Encoded date                             : UTC 2016-01-04 12:58:29
Tagged date                              : UTC 2016-01-04 12:58:52

Audio
ID                                       : 2
Format                                   : AAC
Format/Info                              : Advanced Audio Codec
Format profile                           : LC
Codec ID                                 : 40
Duration                                 : 1h 37mn
Bit rate mode                            : Variable
Bit rate                                 : 160 Kbps
Maximum bit rate                         : 254 Kbps
Channel count                            : 2 channels
Channel positions                        : Front: L R
Sampling rate                            : 48.0 KHz
Compression mode                         : Lossy
Stream size                              : 112 MiB (6%)
Language                                 : Russian
Encoded date                             : UTC 2016-01-04 12:58:48
Tagged date                              : UTC 2016-01-04 12:58:52

Скриншоты:



Время раздачи: 24/7 до трёх скачавших

 
Не забывайте говорить Спасибо. Не уходите с раздачи!   
Торрент: Зарегистрирован [05 янв 2016, 12:33] Для скачивания .torrent
необходима регистрация
Или скачать с помощью
MediaGet
Статус:
Проверен
 
.torrent скачан: 0 раз
Хэш: 83aeb723c93ea60f69764069318aa557647f4b6b
Размер: 5.12 ГБ (5 494 042 561 байт)
Стать Автором раздачи
 
 
Раздал: 0 байт
Скачал: 0 байт
Ратио: Inf.
Сообщения: 188877
Зарегистрирован: 14 июн 2014, 20:46


  • Похожие торренты
    Ответы
    Просмотры
    Последнее сообщение

Вернуться в Видео для мобильных устройств

Ресурс не предоставляет электронные версии произведений, а занимается лишь коллекционированием и каталогизацией ссылок, присылаемых и публикуемых на форуме нашими читателями. Если вы являетесь правообладателем какого-либо представленного материала и не желаете чтобы ссылка на него находилась в нашем каталоге, свяжитесь с нами и мы незамедлительно удалим её. Файлы для обмена на трекере предоставлены пользователями сайта, и администрация не несёт ответственности за их содержание. Просьба не заливать файлы, защищенные авторскими правами, а также файлы нелегального содержания!
cron