Dirty Vegas - Days Go By (2002) [FLAC|Lossless|tracks + .cue] <Progressive House, Deep House>

 
 Статистика раздачи 
Размер: 139.55 МБ   |  Зарегистрирован: 04 янв 2016, 00:46   |   .torrent скачан: 0 раз
Сидеров: 1  [ 0 байт/сек ]     Личеров: 0  [ 0 байт/сек ]  
  

Dirty Vegas - Days Go By (2002) [FLAC|Lossless|tracks + .cue] <Progressive House, Deep House>

Сообщение Seepas » 04 янв 2016, 00:46

Dirty Vegas - Days Go By (2002)

Год: 2002
Жанр: Progressive House, Deep House
Издание: EMI/Parlophone - CDCRED 030
Продолжительность: 00:19:53

Кодек: FLAC
Битрейт: Lossless
Тип рипа: tracks + .cue

Треклист:

1. Dirty Vegas - Days Go By (7:12)
2. Dirty Vegas - Days Go By (Scumfrog Vocal Remix) (7:09)
3. Dirty Vegas - Days Go By (Paul Oakenfold Vocal Remix) (5:32)
Однажды, три клубных типа пришли в студию для того, чтобы посмотреть, что они согут сделать. Потом они вышли из студии с неким продуктом, который назывался «Days Go By». Эта была душевная песенка о любви, и никто из них не мог подумать, что успех уже пришел: «Тогда диджеи не играли треки с вокалом, поэтому мы очень удивились, когда Pete Tong поставил песню в эфире своего шоу на Radio One». Выпустив «Days Go By» синглом, лейбл Parlophone стал ждать от Dirty Vegas альбома. Сингл буквально взорвал чарты в Англии, компания Mitsubishi Cars выбрала трек в качестве официальной заставки для своей рекламы в США, эта песня звучала на любом ТВ-канале, каждая продвинутая радиостанция по несколько раз в день ставила его в play-листы. Успех нагрянул неожиданно. Paul Harris, Steve Smith и Ben Harris – вот имена героев. Каждый из них родом из Кента – южного пригорода Лондона. Каждый из них имел свои музыкальные вкусы, но объединяющим фактором стала страсть к house. Paul начал клубиться в раннем юношестве. Он накопил коллекцию и сам учился играть, когда диджейское мастерство в Англии ценилось как редкий дар. В начале 90-х Paul встречает промоутера Nicky Holloway, который помог сделать первые шаги на пути к известности. Далее последовали выступления в компании таких диджеев как Pete Tong, Dave Dorrell, Paul Oakenfold и Danny Rampling.
Ben Harris всегда хотел быть героем с гитарой. Однако до того, как его indie rock-коллектив Fluid выпустил свою первую demo-кассету, он уже видел себя диджеем. В студии Camden он стал работать звукооператором и набирался опыта. Вместе с братом Ben открывает магазин танцевальной музыки.

Итак, коллектив организовался, оставалось придумать ему название. По началу планировалось стать Dirty Harry. Однажды все трое хорошенько погуляли в одном из казино, отмечая выигрыш Paul’а. Там и решено было к слову Dirty (грязный) как передающем их сущность, прибавить Vegas. “Days Go By” стал отправной точкой большого пути. Ребята долго работали в студии, и результатом трудов стал альбом с одноименным названием, вышедший в 2002 году. Каждый из них применил все, чему научился за годы общения с музыкой. Paul внес в творчекий процесс элемент андеграунда, Ben играл на гитаре. Слова к песням написали Neil Young и James Taylor.
Код:
Код: Выделить всё
Exact Audio Copy V1.0 beta 1 from 15. November 2010

EAC extraction logfile from 7. March 2011, 20:27

Dirty Vegas / Days Go By

Used drive  : HL-DT-STDVDRAM GH22LS50   Adapter: 1  ID: 1

Read mode               : Secure
Utilize accurate stream : Yes
Defeat audio cache      : Yes
Make use of C2 pointers : No

Read offset correction                      : 667
Overread into Lead-In and Lead-Out          : No
Fill up missing offset samples with silence : Yes
Delete leading and trailing silent blocks   : No
Null samples used in CRC calculations       : Yes
Used interface                              : Native Win32 interface for Win NT & 2000
Gap handling                                : Appended to previous track

Used output format              : User Defined Encoder
Selected bitrate                : 128 kBit/s
Quality                         : High
Add ID3 tag                     : No
Command line compressor         : C:\Program Files (x86)\Exact Audio Copy\Flac\flac.exe
Additional command line options : -V -8 -T "artist=%a" -T "title=%t" -T "album=%g" -T "date=%y" -T "tracknumber=%n" -T "genre=%m" %s

TOC of the extracted CD

     Track |   Start  |  Length  | Start sector | End sector
    ---------------------------------------------------------
        1  |  0:00.00 |  7:12.12 |         0    |    32411
        2  |  7:12.12 |  7:09.18 |     32412    |    64604
        3  | 14:21.30 |  5:32.35 |     64605    |    89539

Track  1

     Filename D:\what.cd\Dirty Vegas\Days Go By\01 - Days Go By.wav

     Pre-gap length  0:00:02.00

     Peak level 91.2 %
     Extraction speed 1.1 X
     Track quality 100.0 %
     Test CRC A33A6AC3
     Copy CRC A33A6AC3
     Accurately ripped (confidence 1)  [07F35CDC]
     Copy OK

Track  2

     Filename D:\what.cd\Dirty Vegas\Days Go By\02 - Days Go By (Scumfrog Vocal Remix).wav

     Peak level 76.8 %
     Extraction speed 1.3 X
     Track quality 100.0 %
     Test CRC D70CDBB1
     Copy CRC D70CDBB1
     Accurately ripped (confidence 1)  [50810609]
     Copy OK

Track  3

     Filename D:\what.cd\Dirty Vegas\Days Go By\03 - Days Go By (Paul Oakenfold Vocal Remix).wav

     Pre-gap length  0:00:01.06

     Peak level 91.4 %
     Extraction speed 1.5 X
     Track quality 100.0 %
     Test CRC 51D99157
     Copy CRC 51D99157
     Accurately ripped (confidence 1)  [D353E628]
     Copy OK

All tracks accurately ripped

No errors occurred

End of status report

==== Log checksum 79FC08BB44979F136F805812F8B183064B71B0178C53ACFF88A27C8A32BF7DF3 ====
Код:
Код: Выделить всё
REM GENRE House
REM DATE 2002
REM DISCID 1E04A903
REM COMMENT "ExactAudioCopy v1.0b1"
PERFORMER "Dirty Vegas"
TITLE "Days Go By"
FILE "01 - Days Go By.wav" WAVE
  TRACK 01 AUDIO
    TITLE "Days Go By"
    PERFORMER "Dirty Vegas"
    INDEX 01 00:00:00
FILE "02 - Days Go By (Scumfrog Vocal Remix).wav" WAVE
  TRACK 02 AUDIO
    TITLE "Days Go By (Scumfrog Vocal Remix)"
    PERFORMER "Dirty Vegas"
    INDEX 01 00:00:00
FILE "03 - Days Go By (Paul Oakenfold Vocal Remix).wav" WAVE
  TRACK 03 AUDIO
    TITLE "Days Go By (Paul Oakenfold Vocal Remix)"
    PERFORMER "Dirty Vegas"
    INDEX 00 00:00:00
    INDEX 01 00:01:05
Код:
Код: Выделить всё
-----------------------

DON'T MODIFY THIS FILE

-----------------------

PERFORMER: auCDtect Task Manager, ver. 1.6.0 RC1 build 1.6.0.1
Copyright (c) 2008-2010 y-soft. All rights reserved
http:/y-soft.org

ANALYZER: auCDtect: CD records authenticity detector, version 0.8.2
Copyright (c) 2004 Oleg Berngardt. All rights reserved.
Copyright (c) 2004 Alexander Djourik. All rights reserved.

FILE: 03 - Days Go By (Paul Oakenfold Vocal Remix).flac
  Size: 41625829 Hash: 3A45FCCDE337F64FF38F8A43A9B1723D Accuracy: -m0
  Conclusion: CDDA 100%
  Signature: 59F67B81B9D8E8A1B50AAC8DDE394077EAC08E6B
FILE: 02 - Days Go By (Scumfrog Vocal Remix).flac
  Size: 52599633 Hash: 0DEEB2680D94830D0B24B0CC5CE99D6A Accuracy: -m0
  Conclusion: CDDA 100%
  Signature: 9D8DB1F45FE40D7D039A5D1879FB0561342A1BC2
FILE: 01 - Days Go By.flac
  Size: 44754586 Hash: 93F68ED626AEA0558BDBC6B347ACD107 Accuracy: -m0
  Conclusion: CDDA 100%
  Signature: 23A7198026D124422C990ABF3BBD109C27C3501F


Время раздачи: 24/7 - до появления первых 3-5 скачавших
 
Не забывайте говорить Спасибо. Не уходите с раздачи!   
Торрент: Зарегистрирован [04 янв 2016, 00:46] Скачать торрент
Скачать торрент
[ Размер 12.41 КБ / Просмотров 28 ]
Статус:
Проверен
 
.torrent скачан: 0 раз
Хэш: 4ee33f70c2aa9848d550c45d1453170afca91a13
Размер: 139.55 МБ (146 327 750 байт)
Стать Автором раздачи
 
 
Раздал: 0 байт
Скачал: 0 байт
Ратио: Inf.
Сообщения: 188877
Зарегистрирован: 14 июн 2014, 20:46


  • Похожие торренты
    Ответы
    Просмотры
    Последнее сообщение

Вернуться в House, Techno, Electro, Minimal (транзит Lossless)

Ресурс не предоставляет электронные версии произведений, а занимается лишь коллекционированием и каталогизацией ссылок, присылаемых и публикуемых на форуме нашими читателями. Если вы являетесь правообладателем какого-либо представленного материала и не желаете чтобы ссылка на него находилась в нашем каталоге, свяжитесь с нами и мы незамедлительно удалим её. Файлы для обмена на трекере предоставлены пользователями сайта, и администрация не несёт ответственности за их содержание. Просьба не заливать файлы, защищенные авторскими правами, а также файлы нелегального содержания!
cron